#VERSION:0.83;
#TITLE:Mutsuki;
#SUBTITLE:;
#ARTIST:K03;
#TITLETRANSLIT:;
#SUBTITLETRANSLIT:;
#ARTISTTRANSLIT:;
#GENRE:;
#ORIGIN:;
#CREDIT:;
#BANNER:;
#BACKGROUND:;
#PREVIEWVID:;
#JACKET:;
#CDIMAGE:;
#DISCIMAGE:;
#LYRICSPATH:;
#CDTITLE:;
#MUSIC:MUTSUKI.ogg;
#OFFSET:-3.019833;
#SAMPLESTART:58.672001;
#SAMPLELENGTH:12.000000;
#SELECTABLE:YES;
#BPMS:0.000=138.000;
#STOPS:;
#DELAYS:;
#WARPS:;
#TIMESIGNATURES:0.000=4=4;
#TICKCOUNTS:0.000=4;
#COMBOS:0.000=1;
#SPEEDS:0.000=1.000=0.000=0;
#SCROLLS:0.000=1.000;
#FAKES:;
#LABELS:0.000=Song Start;
#BGCHANGES:;
#KEYSOUNDS:;
#ATTACKS:
;

//---------------dance-single - ----------------
#NOTEDATA:;
#CHARTNAME:;
#STEPSTYPE:dance-single;
#DESCRIPTION:;
#CHARTSTYLE:;
#DIFFICULTY:Hard;
#METER:15;
#RADARVALUES:0.575887,0.779367,0.277146,0.125975,0.445113,480.000000,447.000000,33.000000,15.000000,0.000000,0.000000,0.000000,0.000000,0.000000,0.575887,0.779367,0.277146,0.125975,0.445113,480.000000,447.000000,33.000000,15.000000,0.000000,0.000000,0.000000,0.000000,0.000000;
#CREDIT:TonyAkita;
#NOTES:
0000
0000
0000
0000
,
0000
0000
0000
0000
,
0000
0000
0000
0000
,
0000
0000
0000
0000
,
2000
0010
0001
3010
,
0101
0000
0000
0000
0000
0000
1000
0100
0010
0000
0000
0000
0001
0000
0000
0000
,
0002
0010
1000
0013
,
1100
0000
0000
0000
0000
0000
1000
0001
1000
0001
0000
0000
,
1001
0000
1000
0010
0001
0010
0100
0001
,
1000
0000
0000
0000
0000
0000
0000
0000
0000
0000
0000
0000
0000
0000
0000
0000
0000
0000
0100
0000
0000
0010
0000
0000
0001
0000
0000
0000
0000
0000
0000
0000
1000
0000
0000
0000
0000
0000
0000
0000
1000
0000
0000
0000
0000
0000
0000
0000
,
1010
0000
0100
0001
0100
1000
0100
0010
,
1000
0000
0000
0000
0000
0000
0001
0000
0001
0000
0001
0000
,
0011
0000
0100
1000
0100
0001
0100
0010
,
0001
0000
0000
0000
0000
0000
0000
0000
0000
0000
0000
0000
0000
0000
0000
0000
0000
0000
1000
0000
0000
0010
0000
0000
0100
0000
0000
0000
0000
0000
0000
0000
0001
0000
0000
0000
0000
0000
0000
0000
0001
0000
0000
0000
0000
0000
0000
0000
,
0101
0000
1000
0100
0001
0100
0010
0000
,
2002
0000
0000
3003
,
1000
0000
0001
0000
0010
0000
0001
0000
1000
0000
0001
0000
0100
0000
0001
1000
,
0010
0000
1000
0000
0001
0000
1000
0000
0100
0000
1000
0010
0000
0000
0010
0000
,
0100
0000
0001
0000
0100
0000
0010
0000
0100
0000
1000
0000
0100
0000
0010
1000
,
0001
0000
0010
0000
0100
0000
0010
0000
1000
0000
0010
0100
0000
0000
0100
0000
,
1000
0100
1000
0100
0010
0001
0010
0001
0010
0100
1000
0001
0100
0000
0000
0000
,
0001
0100
0001
0100
0010
1000
0010
1000
0010
0100
0001
1000
0100
0000
0000
0000
,
0020
0001
1000
0031
,
0001
1000
0001
1000
0001
1000
1001
0000
0000
0110
0000
0000
,
1010
0000
0000
0010
0001
0000
1000
0000
0100
0000
0001
0000
1000
0000
0100
0010
,
0001
1000
0100
0001
0100
0000
0110
0000
,
0011
0000
0000
0010
1000
0000
0001
0000
0100
0000
1000
0000
0001
0000
0100
0010
,
1000
0001
0100
1000
0100
0000
0110
0000
,
1010
0000
0000
0100
0001
0000
1000
0000
0100
0000
0001
0000
0100
0000
0010
0001
,
0010
1000
0001
0100
1000
0001
0100
0000
0000
1010
0000
0000
,
0001
1000
0001
0100
0010
1000
0001
0010
,
0200
0000
0000
0000
0000
0000
0300
0000
1000
0001
1000
0001
1000
0000
0000
0000
,
1001
0000
0000
0000
1000
0000
0001
0010
0001
0000
0001
1000
0001
0000
0001
0100
,
0010
0000
1000
0010
1000
0000
1000
0001
1000
0000
0000
0000
1100
0000
0000
0000
,
1001
0000
0000
0000
0001
0000
1000
0010
1000
0000
1000
0001
1000
0000
1000
0100
,
0010
0000
0001
0010
0001
0000
0001
1000
0001
0000
0000
0000
0101
0000
0000
0000
,
1001
0000
0000
0000
1000
0000
0001
0100
1000
0000
0100
0001
0100
0000
0010
1000
,
0010
0001
1000
0100
0001
1000
0100
0000
0000
0011
0000
0000
,
1001
0000
0000
0000
0001
0000
1000
0100
0001
0000
0100
1000
0100
0000
0010
0001
,
0010
0100
0010
0100
0010
0100
0110
0000
0000
1001
0000
0000
,
2000
0000
0010
0001
,
3020
0000
0230
0000
,
0302
0000
0010
1000
,
0023
0000
0230
0000
,
1300
0001
1000
0010
1000
0001
1000
0100
,
0010
0100
0001
0100
0010
0100
1000
0100
,
0010
0001
1000
0001
0100
0001
1000
0010
,
0200
0000
0000
0300
,
1001
0000
0000
0000
0001
0000
0100
0001
0100
0000
0010
0100
0010
0000
1000
0010
,
0100
0000
0001
0100
1000
0000
0100
0001
1000
0000
0000
0000
1001
0000
0000
0000
,
1100
0000
0000
0000
1000
0000
0100
1000
0100
0000
0010
0100
0010
0000
0001
0010
,
0100
0000
1000
0100
0001
0000
0100
1000
0001
0000
0000
0000
1001
0000
0000
0000
,
0101
0000
0000
0000
0010
0000
1000
0010
0001
0000
0010
1000
0010
0000
0100
0001
,
1000
0000
0100
0001
0100
0000
1000
0100
0010
0000
0001
1000
0001
0000
0100
0010
,
1000
0000
0001
0010
1000
0000
0010
0001
0010
0000
0100
1000
0001
0000
0100
0010
,
0200
0000
0300
1001
,
0001
0000
0010
0000
1000
0000
0010
0000
0001
0000
0010
0000
0100
0000
1000
0001
,
0100
1000
0100
0001
0100
0000
1010
0000
,
1000
0000
0010
0000
0001
0000
0010
0000
1000
0000
0010
0000
0100
0000
0001
1000
,
0100
0001
0100
1000
0100
0000
0011
0000
,
1000
0000
0010
0100
0010
0000
0100
0001
1000
0000
0100
1000
0100
0000
0001
0100
,
1000
0000
0100
0010
0100
0000
0010
0001
1000
0000
0010
1000
0010
0000
0001
0010
,
1000
0010
1000
0010
0100
0001
0100
0001
0100
0010
1000
0001
0010
0100
1000
0001
,
0200
0000
0000
0310
,
1001
0000
0000
0000
;

//---------------dance-single - ----------------
#NOTEDATA:;
#CHARTNAME:;
#STEPSTYPE:dance-single;
#DESCRIPTION:;
#CHARTSTYLE:;
#DIFFICULTY:Medium;
#METER:9;
#RADARVALUES:0.339533,0.456870,0.251951,0.159569,0.058788,283.000000,253.000000,30.000000,19.000000,0.000000,0.000000,0.000000,0.000000,0.000000,0.339533,0.456870,0.251951,0.159569,0.058788,283.000000,253.000000,30.000000,19.000000,0.000000,0.000000,0.000000,0.000000,0.000000;
#CREDIT:TonyAkita;
#NOTES:
0000
0000
0000
0000
,
0000
0000
0000
0000
,
0000
0000
0000
0000
,
0000
0000
0000
0000
,
2000
0000
0010
0001
,
3010
0000
0000
1000
0001
0000
0010
0000
,
0002
0000
0100
1000
,
0103
0000
0000
0000
0000
0000
1000
0001
1000
0001
0000
0000
,
1000
0000
0010
0000
0001
0000
0010
0100
,
0001
1001
0110
0000
,
0001
0000
0010
0000
1000
0000
0010
0100
,
1000
1001
0110
0000
,
0001
0000
0100
0000
1000
0000
0100
0001
,
1000
0100
0001
0100
,
2002
0000
0000
0000
,
3003
0000
0000
0110
,
2000
0010
0001
3010
,
0002
0013
2000
3100
,
0002
0100
1000
0103
,
2000
3100
0002
0013
,
1000
0010
0001
0010
1000
0010
0100
0000
,
0001
1000
0001
1000
0001
1000
0001
0000
,
0020
0001
1000
0031
,
1000
0001
1000
0001
1000
0001
1000
0000
0000
1001
0000
0000
,
1100
0000
1000
0001
0010
0000
1000
0000
,
0010
0100
1000
0000
1100
0000
1001
0000
,
0101
0000
0001
1000
0010
0000
0001
0000
,
0010
0100
0001
0000
0101
0000
1001
0000
,
1100
0000
1000
0100
0010
0000
0001
0000
,
1000
0001
1000
0001
1000
0001
1000
0000
0000
1001
0000
0000
,
0001
0100
1000
0100
0001
0000
0100
0010
,
2000
0000
3001
0110
,
1000
0001
0010
1000
,
0010
0000
0001
0000
0010
0100
1000
0000
,
1001
1000
0010
0001
,
0010
0000
1000
0000
0010
0100
0001
0000
,
1001
0001
0100
1000
,
0100
0001
1000
1001
,
1000
0100
0001
0100
,
1000
0001
1000
0001
1000
0001
1000
0000
0000
1001
0000
0000
,
2000
0000
0000
0000
,
3020
0000
0230
0000
,
0302
0000
0000
0000
,
0003
0000
1000
0000
,
0100
0001
0100
1000
,
0010
0001
0010
1000
,
0100
0001
0010
1000
,
0002
0000
0000
1003
,
1001
0000
1000
0010
0000
0001
0000
0010
,
0000
1000
0000
0010
0000
0100
0000
0001
,
0000
1000
0000
0100
0000
0001
0000
0100
,
0000
1000
0000
0001
0000
0100
0010
0000
,
1001
0000
0001
0010
0000
1000
0000
0010
,
0000
0001
0000
0010
0000
0100
0000
1000
,
0000
0001
0000
0100
0000
1000
0000
0100
,
0020
0000
0030
1001
,
1000
0000
0001
0010
0100
0000
0001
0000
,
0100
1000
0100
0000
1100
0000
1001
0000
,
0001
0000
1000
0010
0100
0000
1000
0000
,
0100
0001
0100
0000
0101
0000
1001
0000
,
1000
0000
0001
0010
1000
0000
0010
0000
,
0100
1000
0100
0000
1100
0000
1001
0000
,
0001
0000
1000
0010
0001
0000
0010
0000
,
0200
0000
0000
0300
,
1001
0000
0000
0000
;

//---------------dance-single - ----------------
#NOTEDATA:;
#CHARTNAME:;
#STEPSTYPE:dance-single;
#DESCRIPTION:;
#CHARTSTYLE:;
#DIFFICULTY:Easy;
#METER:5;
#RADARVALUES:0.280745,0.429996,0.193162,0.117577,0.000000,234.000000,211.000000,23.000000,14.000000,0.000000,0.000000,0.000000,0.000000,0.000000,0.280745,0.429996,0.193162,0.117577,0.000000,234.000000,211.000000,23.000000,14.000000,0.000000,0.000000,0.000000,0.000000,0.000000;
#CREDIT:TonyAkita;
#NOTES:
// measure 0
0000
0000
0000
0000
,  // measure 1
0000
0000
0000
0000
,  // measure 2
0000
0000
0000
0000
,  // measure 3
0000
0000
0000
0000
,  // measure 4
2000
0000
0000
3000
,  // measure 5
0002
0000
0000
0003
,  // measure 6
0020
0100
0100
0130
,  // measure 7
0110
0000
1001
0000
,  // measure 8
1000
0010
0001
0010
,  // measure 9
1000
1001
0110
0000
,  // measure 10
0001
0010
1000
0010
,  // measure 11
0001
1001
0110
0000
,  // measure 12
1000
0100
0001
0100
,  // measure 13
1000
1001
0110
0000
,  // measure 14
0001
0100
0010
1000
,  // measure 15
0002
0000
0000
1003
,  // measure 16
1000
0010
1000
0010
,  // measure 17
0100
0000
0001
0000
0100
0000
0001
0001
,  // measure 18
0001
0010
0001
0010
,  // measure 19
0100
1000
0100
1000
,  // measure 20
0001
0100
0001
0100
0001
0100
0001
0000
,  // measure 21
1000
0001
1000
0001
1000
0001
1000
0000
,  // measure 22
2002
0000
0000
0000
,  // measure 23
3003
0000
0000
0110
,  // measure 24
1000
0010
0100
0001
,  // measure 25
0100
1000
0100
0101
,  // measure 26
0001
0010
0100
1000
,  // measure 27
0100
0001
0100
1100
,  // measure 28
1000
0010
0100
0001
,  // measure 29
1000
0001
1000
0001
1000
0000
1001
0000
,  // measure 30
0001
0100
0010
1000
,  // measure 31
0002
0000
0000
0013
,  // measure 32
0100
0001
0100
1000
,  // measure 33
0100
0001
0100
1100
,  // measure 34
0001
0100
1000
0100
,  // measure 35
0001
0100
1000
0110
,  // measure 36
0001
0010
1000
0010
,  // measure 37
0001
0100
1000
0101
,  // measure 38
1000
0100
0001
0100
,  // measure 39
2000
0001
3001
1001
,  // measure 40
2000
0000
0000
3000
,  // measure 41
0010
0000
0100
0000
,  // measure 42
0002
0000
0000
0003
,  // measure 43
1000
0000
0001
0000
,  // measure 44
0010
1000
0010
0001
,  // measure 45
1000
0010
0001
0010
,  // measure 46
1000
0001
1000
0001
,  // measure 47
0220
0000
0000
0330
,  // measure 48
0001
0100
0001
1000
,  // measure 49
0001
0010
0001
1000
,  // measure 50
0100
1000
0001
1000
,  // measure 51
0010
1000
0001
1001
,  // measure 52
0001
0100
0010
1000
,  // measure 53
0010
0100
0010
0001
,  // measure 54
0010
0100
0010
1000
,  // measure 55
0002
0000
0000
1003
,  // measure 56
0001
0010
0100
1000
,  // measure 57
0100
0001
0100
1100
,  // measure 58
1000
0010
0100
0001
,  // measure 59
0100
1000
0100
0101
,  // measure 60
0001
0010
0100
1000
,  // measure 61
0001
1000
0010
0101
,  // measure 62
0001
1000
0001
0010
,  // measure 63
0200
0000
0000
0300
,  // measure 64
1001
0000
0000
0000
;
