#TITLE:Lovely Howdy Cowboy!!;
#SUBTITLE:;
#ARTIST:まろん feat. キャサリン;
#TITLETRANSLIT:;
#SUBTITLETRANSLIT:;
#ARTISTTRANSLIT:MARON feat. Catherine;
#GENRE:HAPPY COUNTRY CORE;
#CREDIT:;
#MUSIC:Lovely Howdy Cowboy!!.ogg;
#BANNER:Lovely Howdy Cowboy!!.png;
#BACKGROUND:Lovely Howdy Cowboy!!-bg.png;
#CDTITLE:;
#SAMPLESTART:61.070;
#SAMPLELENGTH:15.000;
#SELECTABLE:YES;
#OFFSET:1.077;
#BPMS:0.000=180.000;
#STOPS:303.750=0.333;
#BGCHANGES:0.000=Lovely Howdy Cowboy!!.avi=1.000=0=0=1,
99999.000=-nosongbg-=1.000=0=0=0=StretchNoLoop====
;
#FGCHANGES:;

//--------------- dance-single - forcednature ----------------
#NOTES:
     dance-single:
     forcednature:
     Beginner:
     5:
     0,0,0,0,0:
0000
0000
0000
0000
,
0000
0000
0000
0000
,
0000
0000
0000
0000
,
0000
0000
0000
0000
,
0000
0000
0000
0000
,
0010
0000
0100
0000
,
1001
0000
0000
0000
,
1000
0000
0010
0000
,
1000
0000
0000
0000
,
0001
0000
0100
0000
,
0001
0000
0000
0000
,
1000
0000
0100
0000
,
1000
0000
0000
0000
,
0001
0000
0010
0000
,
0001
0001
1000
1000
,
0010
0000
0000
0000
,
0100
0000
0000
0000
,
0001
0000
0000
0000
,
1000
0000
0000
0000
,
0100
0000
0000
0000
,
0010
0000
0000
0000
,
0100
0000
0100
0000
,
1000
0000
0001
0000
,
0100
0000
0000
0000
,
0010
0000
1000
0000
,
0001
0000
0000
0000
,
0010
0000
0100
0000
,
1000
0000
0000
0000
,
1000
0000
1000
0000
,
0010
0000
0000
0000
,
0100
0000
0001
0000
,
1001
0000
0000
0000
,
0010
0010
0010
0000
,
1001
0000
0000
0000
,
1000
0000
0100
0000
,
0010
0000
0000
0000
,
0100
0000
0000
0000
,
2002
0000
0000
0000
,
3003
0000
0100
0010
,
0100
0000
0100
0000
,
0100
0000
0001
0000
,
0100
0000
0100
0000
,
0100
0000
1000
0000
,
2002
0000
0000
0000
,
0000
0000
3003
0000
,
0100
0000
0010
0000
,
0220
0000
0330
0000
,
1000
1000
0001
0001
,
0100
0100
0100
0000
,
0000
0000
0001
0000
,
1000
0000
0000
0000
,
0001
0001
1000
1000
,
0100
0100
0100
0000
,
0000
0000
1000
0000
,
0001
0000
0000
0000
,
0100
0100
0010
0010
,
1000
1000
1000
0000
,
0000
0000
0100
0000
,
0010
0000
0000
0000
,
0100
0100
0010
0010
,
0001
0000
0000
0001
0000
0000
0000
0000
,
0100
0000
0010
0000
,
1001
0000
0000
0000
,
0010
0000
0100
0000
,
1001
0000
0000
0000
,
0110
0000
0000
0000
,
2002
0000
0000
0000
,
3003
0000
0000
0000
,
1000
0000
0001
0000
,
0100
0000
0001
0000
,
1000
0000
0010
0000
,
1000
0000
0000
0000
,
0001
0000
0010
0000
,
0100
0000
1000
0000
,
0100
0000
0010
0000
,
0001
0001
1000
1000
,
0010
0000
0000
0100
,
0000
0001
0000
1000
,
0000
0010
0000
1000
,
0000
0000
0000
0001
,
0000
0100
0000
0010
,
0000
0100
0000
0001
,
0000
0010
0000
0100
,
0100
0100
0100
1000
,
1000
1000
1000
0001
,
0000
0100
0000
1001
;

//--------------- dance-single - forcednature ----------------
#NOTES:
     dance-single:
     forcednature:
     Easy:
     9:
     0,0,0,0,0:
0000
0000
0000
0000
,
0000
0000
0000
0000
,
0000
0000
0000
0000
,
0000
0000
0000
0000
,
0000
0000
0000
0000
,
0001
0100
0010
1000
,
0100
0000
0000
0100
0000
0000
0010
0000
0100
0000
0000
0000
1001
0000
0000
0000
,
1000
0010
0100
0001
,
0010
0000
0100
0000
0010
0001
0010
0000
,
0100
1000
0001
0100
,
0010
0000
1000
0000
0001
0010
0001
0000
,
0100
0010
1000
0100
,
0010
0000
0100
0000
1000
0001
1000
0000
,
0010
0100
0001
0010
,
0110
1000
0110
0001
,
1001
0000
0000
0000
0000
0000
0000
0100
,
0010
0000
0000
0000
0000
0000
0000
1000
,
0001
0000
0000
0000
0000
0000
0000
0010
,
0100
0000
1000
0000
0001
0000
0100
0010
,
0100
0000
0001
0000
1000
0000
0100
0010
,
0100
0000
1000
0000
0001
0000
0100
0010
,
0100
0000
0000
0001
1000
0000
0000
0110
,
0000
1000
0001
0000
0100
0000
0010
0000
,
1001
0220
0000
0330
,
0001
0100
0010
1000
,
0100
0220
0000
0330
,
0010
0000
0001
1000
0001
0000
0100
0000
,
0010
0000
0000
1000
0000
0001
0000
0010
,
0000
0000
0100
0000
0000
0000
1000
0000
0001
0000
0000
0100
0000
0000
0010
0000
,
1000
2002
0000
3003
,
1000
0000
0100
0000
0010
0001
0000
0000
,
0100
0101
0010
1010
,
1000
1100
0001
0011
,
1001
0220
0000
0330
,
1000
0010
1000
0000
0001
0010
0001
0000
,
0100
1000
0100
0001
,
0010
1000
0010
0001
,
2002
0000
0000
0000
,
3003
0000
0100
0010
,
1001
0000
0000
0110
0000
0000
1000
0010
,
1000
0000
0000
1001
0000
0000
0100
0000
,
0011
0000
0000
0101
0000
0000
0010
1000
,
0010
0100
0001
0010
,
0120
0100
0100
0130
,
1000
0100
1000
0000
0001
0100
0001
0000
,
2020
3030
0022
0033
,
0100
0010
0000
0100
0000
0001
1000
0000
,
0001
0101
1000
1100
,
0110
0000
0000
2002
0000
0000
3003
0000
,
1000
0010
0100
0001
,
0010
0100
0010
0000
0001
1000
0001
0000
,
1000
1100
0001
0101
,
0110
0000
0000
2002
0000
0000
3003
0000
,
1000
0000
0000
0000
0010
0000
0000
0000
0100
0000
0000
0001
0000
0000
0010
0000
,
0200
1000
0310
0100
,
1000
0110
0001
0110
,
1001
0000
0000
2002
0000
0000
3003
0000
,
0001
0000
0000
0000
0100
0000
0000
0000
0010
0000
0000
1000
0000
0000
0001
0000
,
2000
0100
3001
1000
,
1010
0100
0011
0100
,
2002
0000
3003
0220
0000
0000
0330
0000
,
1000
0000
0000
0000
0010
0000
0000
0000
0100
0000
0000
0001
0000
0000
0100
0000
,
0001
0010
1000
0001
,
1000
0000
0000
0000
0010
0000
0000
0000
0100
0000
0000
0001
0000
0000
0010
0000
,
0200
1000
0010
1300
,
0020
0001
0100
0031
,
2002
0000
0000
0000
,
3003
0000
0220
0330
,
1001
0001
0100
0010
,
1000
0000
0100
0000
0010
0001
0010
0000
,
0100
1000
0001
0100
,
0010
0000
1000
0000
0001
0010
0001
0000
,
1001
1000
0010
0100
,
0001
0000
0010
0000
0100
1000
0100
0000
,
0010
0001
1000
0010
,
0110
0000
1001
0000
0100
0010
0100
0010
,
1001
0001
0100
0010
,
1000
0000
0100
0010
0100
0000
1000
0000
,
0001
1000
0010
0100
,
0001
0000
0010
0100
0010
0000
0011
0000
,
0001
1000
0010
0100
,
0001
0000
1000
0100
1000
0000
1010
0000
,
0100
0001
0010
1001
,
1001
0110
0110
1001
,
1001
0110
0110
2002
,
3003
0220
0330
2002
,
0000
0000
0000
3003
;

//--------------- dance-single - forcednature ----------------
#NOTES:
     dance-single:
     forcednature:
     Medium:
     11:
     0,0,0,0,0:
0000
0000
0000
0000
,
0000
0000
0000
0000
,
0000
0000
0000
0000
,
0000
0000
0000
0000
,
0000
0000
0000
0000
,
0001
0100
0001
0100
0010
1000
0010
1000
,
0100
0000
0000
0010
0000
0000
0100
0000
0010
0000
0000
0000
1001
0000
0000
0000
,
0001
0100
0001
0000
1000
0010
1000
0000
,
0001
0010
0100
1000
0100
0010
0001
0000
,
1000
0100
0010
0000
0001
0100
0010
0000
,
1000
0001
0100
0001
1000
0100
0010
0000
,
0100
1000
0001
0000
0100
0001
1000
0000
,
0010
0100
0010
1000
0001
0010
0100
0000
,
0010
0001
0010
0000
0100
1000
0100
0000
,
1100
0101
0011
1010
,
1001
0000
0000
0000
0000
0000
0000
0100
,
0100
0000
0000
0000
0000
0000
0000
0010
,
0110
0000
0000
0000
0000
0000
0000
1000
,
0001
0000
1000
0000
0001
0010
0100
1000
,
0010
0000
0100
0000
0001
0000
0010
0100
,
0100
0000
1000
0000
0010
0000
0100
0100
,
0100
0000
0000
0010
0010
0000
0000
1001
,
0000
0100
0010
0000
1100
0000
0101
0000
,
1001
0220
0000
0330
,
1000
0000
0001
0010
0001
0000
1000
0010
,
1000
0000
2002
0000
0000
0000
3003
0001
,
0100
0001
0100
0010
0000
1000
0100
0010
,
0100
0000
0000
1100
0000
0101
0000
1010
,
0000
0000
0011
0000
0000
0000
0100
0000
0010
0000
0000
0100
0000
0000
0010
0000
,
0100
2002
0000
3003
,
0001
0100
0001
0000
1000
0100
0010
0000
,
1100
1100
0101
0101
,
1010
0000
0011
0000
0100
0010
0100
0000
,
1001
0202
0000
0303
,
0001
1000
0010
0000
0100
0001
0010
0000
,
0100
1000
0010
0001
,
0010
1000
0100
0001
,
0220
0000
0000
0000
,
0330
0000
1000
0001
,
1001
0000
0001
0100
0000
0010
1000
0001
,
1000
0000
0100
0010
0001
0000
0100
0000
,
1010
0000
0001
0010
0100
0000
1000
0000
,
0001
0100
0001
0100
0010
0000
1000
0000
,
1001
1000
0100
0001
,
0100
0000
0010
0000
0001
1000
0001
0000
,
0220
0330
2002
3003
,
0100
0010
0000
0110
0000
1000
0001
1000
,
0001
0101
1000
1010
,
0110
0000
2000
0002
0000
0000
3003
0000
,
1000
0100
0010
0000
0001
0100
0010
0000
,
1000
0001
1000
0001
0100
0001
0100
0000
,
0001
0101
1000
1010
,
0010
0000
0200
0020
0000
0000
0330
0000
,
1000
0000
0001
0000
0010
0000
0000
0000
0100
0000
0000
1000
0000
0000
0100
0000
,
0010
0000
0001
0000
0100
0010
0100
0010
,
1000
1100
0001
0011
,
1010
0000
0002
0020
0000
0000
0033
0000
,
0100
0000
1000
0000
0001
0000
0000
0000
0100
0000
0000
0010
0000
0000
1000
0000
,
0001
0000
0010
0000
0100
1000
0100
1000
,
0010
0110
0001
1001
,
2200
0000
3300
0202
0000
0303
0100
0010
,
0000
0000
1000
0000
0001
0000
0000
0000
1000
0000
0000
0010
0000
0000
0100
0000
,
0002
0010
1000
0103
,
0001
0000
0000
0000
1000
0000
0000
0000
0010
0000
0000
0100
0000
0000
0001
0000
,
2000
0100
0001
3010
,
1010
0011
0101
1100
,
2002
0000
0000
0000
,
3003
0000
0220
0330
,
0001
0100
0010
0000
1000
0100
0010
0000
,
0100
1000
0001
0100
0001
1000
0100
0000
,
0010
0001
0100
0000
0010
1000
0100
0000
,
1000
0010
0100
0001
0100
0010
1000
0000
,
0001
0010
0100
0000
1000
0010
0100
0000
,
0001
1000
0100
1000
0001
0100
0010
0000
,
1000
0100
0010
0000
0001
0100
0010
0000
,
1010
0000
0101
0000
0001
0010
0100
1000
,
1001
0000
0001
0100
0001
0000
1000
0010
,
1000
0100
0010
0100
1000
0000
0010
0100
,
0010
0000
1000
0001
1000
0000
0001
0010
,
0001
0100
0010
1000
0100
0000
0001
0100
,
1000
0000
0001
0100
1000
0000
0100
0010
,
1000
0001
0010
0100
1000
0000
0010
0010
,
0100
0100
0001
0001
1000
1000
1100
0000
,
0101
0011
1010
0110
,
1001
0000
0100
0100
0100
0000
2100
0000
,
3010
0102
0013
2002
,
0000
0000
0000
3003
;

//--------------- dance-single - forcednature ----------------
#NOTES:
     dance-single:
     forcednature:
     Hard:
     15:
     0,0,0,0,0:
0000
0000
0000
0000
,
0000
0000
0000
0000
,
0000
0000
0000
0000
,
0000
0000
0000
0000
,
0000
0000
0000
0000
,
0001
0100
0001
0000
1000
0100
1000
0000
0001
0010
0001
0000
1000
0010
1000
0000
,
0100
0010
0000
0100
0010
0000
0001
0000
1000
0000
0000
0000
1001
0000
0000
0000
,
0001
0100
0001
0000
1000
0010
1000
0000
0100
0000
0010
0000
0001
0000
0100
0000
,
1000
0100
0010
1000
0001
0010
0100
0000
,
0010
0001
0010
0000
0100
1000
0100
0000
0001
0000
0100
0000
1000
0000
0001
0000
,
0100
1000
0100
0010
1000
0001
0010
0000
,
0001
0100
0001
0000
0010
0001
0010
0000
0100
0000
1000
0000
0010
0000
0001
0000
,
0010
0100
0001
1000
0100
0010
0100
0000
,
1000
0010
1000
0000
0100
1000
0100
0000
0001
0000
0100
0000
0010
0000
0001
0000
,
1001
0101
1001
1100
,
1001
0000
0000
0000
0000
0000
0000
0100
,
0100
0000
0000
0000
0000
0000
0000
0010
,
0110
0000
0000
0000
0000
0000
0000
1000
,
0001
0000
0000
0000
1001
0000
0000
0000
0001
0000
0100
0000
0010
1000
0010
1000
,
0010
0000
0100
0001
0010
0100
1000
0010
,
1010
0000
0001
0100
0001
0010
0100
0010
,
0110
0000
0000
0001
1001
0000
0000
0110
,
0000
1000
0001
0000
0101
0000
1100
0000
,
1001
0000
0220
0000
0000
0000
0330
1000
,
0000
0010
0100
0001
0010
0100
0001
0100
,
0000
0000
2002
0000
0000
0000
3003
0101
,
0000
0100
0010
1000
0000
0100
0010
0001
,
0101
0000
0000
1010
0000
0101
0000
0011
,
0000
0000
1100
0000
0000
0000
1000
0000
0010
0000
0000
0100
0000
0000
0001
0000
,
0010
0000
2200
0000
0300
0010
3010
1000
,
0000
0000
0001
0000
0010
0000
0100
0000
1000
0000
0001
0100
0001
0100
0001
0000
,
0101
0000
0000
0000
1001
0000
0000
0000
1100
0000
0000
0000
0001
0000
1000
0001
,
1000
0000
0000
0000
0010
0000
0100
0001
0100
0000
0010
0000
1000
0000
0100
0000
,
0110
0000
0022
0000
0003
0001
0031
0010
,
0000
0100
1000
0000
0001
0100
0010
0010
,
1000
0000
1000
0001
0000
0100
0000
0000
0001
1000
0000
1000
,
0010
0000
0010
0100
0000
0001
0000
0000
0010
0001
0000
0000
,
1001
0000
1000
0001
0100
0010
1000
0000
0100
0010
0000
0100
,
2000
3000
0110
1001
,
0101
0000
0001
1000
0010
1000
0001
0010
,
0100
1000
0100
0001
0100
1000
0010
0000
,
1001
0000
1000
0010
0001
0010
0100
0001
,
0010
0000
0100
0000
1000
0000
0010
0000
0100
0001
0100
0001
1000
0100
1000
0000
,
0010
0100
0010
0001
0010
1000
0010
0100
,
0001
0000
1000
0000
0100
0000
0001
0000
0100
0000
1000
0000
0001
0100
0001
0100
,
0001
0000
0000
0000
0000
0000
0000
0000
1000
0100
1000
0000
0020
0000
0000
0000
,
0130
0001
0000
0110
0000
1000
1000
1000
,
0001
0100
0000
0000
0100
0001
0000
0000
0001
1000
0000
0000
1000
0100
0000
0000
,
1001
0000
0100
0010
0000
0110
0000
1001
,
0000
1000
0100
0001
0100
1000
0010
0100
,
0001
0010
0001
0000
1000
0100
1000
0000
0010
1000
0010
0000
0100
0001
0100
0000
,
0001
0010
0000
0000
0010
0100
0000
0000
0100
1000
0000
0000
1000
0001
0000
0000
,
0101
0000
1000
0010
0000
1001
0000
0110
,
0000
0000
1000
0000
0100
0000
0001
0000
0100
0000
0000
1000
0000
0000
0010
0000
,
0100
1000
0100
0001
0010
0100
0100
0100
,
0010
0001
0000
0000
0001
0100
0000
0000
0100
1000
0000
0000
1000
0100
0000
0000
,
0110
0000
1000
0001
0000
1100
0000
0101
,
0000
0000
1000
0000
0001
0000
0010
0000
0100
0000
0000
0001
0000
0000
0100
0000
,
1000
0000
0010
0000
0001
0000
0010
0000
0100
0000
0001
0000
0001
0000
1000
0001
,
1000
0100
0000
0000
0100
0001
0000
0000
0001
0100
0000
0000
0100
1000
0000
0000
,
2020
0000
0000
0000
3030
0000
0102
0000
0000
0000
1003
0000
0100
0000
0010
0001
,
0010
0000
0100
0000
1000
0000
0001
0000
0100
0000
0000
1000
0000
0000
0100
0000
,
0010
0001
0010
1000
0001
0100
1000
0100
,
0010
0000
1000
0000
0001
0000
0010
0000
0100
0000
0000
0001
0000
0000
1000
0000
,
0010
0000
0001
0000
1000
0000
0010
0000
0100
0001
0100
0000
0001
0100
0001
0000
,
0010
0000
0100
0000
1000
0000
0001
0000
1000
0100
1000
0000
0100
1000
0100
0000
,
1002
0010
0000
0000
,
0103
0000
2002
3003
,
0001
0100
0010
0000
1000
0100
0010
0000
0100
0000
1000
0000
0100
0000
0001
0000
,
0100
0010
0001
1000
0010
0100
0001
0000
,
1000
0001
0100
0000
0001
1000
0100
0000
0010
0000
1000
0000
0010
0000
0001
0000
,
1000
0010
0100
0001
0100
1000
0100
0000
,
0010
1000
0100
0000
0010
0001
0100
0000
0010
0000
1000
0000
0001
0000
0010
0000
,
0001
0100
0010
0001
0010
0100
0001
0000
,
1000
0100
0010
0000
0001
0100
0010
0000
1000
0000
0001
0000
0010
0000
0100
0000
,
1100
0000
0000
0000
0101
0000
0000
0000
1000
0000
0001
0000
0100
0010
0100
0020
,
1030
0100
0010
0000
0100
0000
0001
0000
0100
0000
0010
0000
0001
0000
1000
0000
,
0010
0000
0001
0000
0010
0000
0100
0000
0001
0000
0000
0000
1000
0100
0010
0000
,
0100
1000
0010
0000
0100
0000
1000
0000
0100
0000
0001
0000
1000
0000
0010
0000
,
1000
0000
0001
0000
0010
0000
1000
0000
0010
0000
0010
0000
0001
0100
0001
0000
,
0100
0001
0100
0000
0001
0100
0001
0000
0100
0001
0100
0000
0010
0000
1000
0000
,
0001
0000
0010
0000
0100
0000
1000
0000
0100
0000
0010
0000
0100
1000
0100
0000
,
1000
0100
1000
0000
0100
1000
0100
0000
1000
0100
1000
0000
1010
0000
0000
0000
,
0101
0011
1100
0110
,
1001
0000
0000
0000
0001
0000
0100
0000
0010
1000
0010
1000
0100
0000
0000
0000
,
0110
1001
0110
2002
,
0000
0000
0000
3003
;

//--------------- dance-double - forcednature ----------------
#NOTES:
     dance-double:
     forcednature:
     Easy:
     8:
     0,0,0,0,0:
00000000
00000000
00000000
00000000
,
00000000
00000000
00000000
00000000
,
00000000
00000000
00000000
00000000
,
00000000
00000000
00000000
00000000
,
00000000
00000000
00000000
00000000
,
00001000
00010000
01000000
00100000
,
00010000
00000000
00000000
10000000
00000000
00000000
00010000
00000000
10000000
00000000
00000000
00000000
00200000
00000000
00000000
00000000
,
01300000
00001000
00010000
00000100
,
00000010
00000000
00000010
00000000
00000100
00001000
00000100
00000000
,
00010000
00001000
00000100
00000001
,
00000010
00000000
00000010
00000000
00000100
00001000
00000100
00000000
,
00010000
00001000
01000000
00010000
,
00100000
00000000
00100000
00000000
01000000
10000000
01000000
00000000
,
00100000
00001000
00010000
00100000
,
01000000
01000000
00001000
00010000
,
00010100
00000000
00000000
00000000
00000000
00000000
00000000
00010000
,
00000100
00000000
00000000
00000000
00000000
00000000
00000000
00001000
,
00000001
00000000
00000000
00000000
00000000
00000000
00000000
00000001
,
00000100
00000000
00001000
00000000
00010000
00000000
00001000
00010000
,
00001000
00000000
00010000
00000000
01000000
00000000
00000000
10000000
,
00010000
00000000
01000000
00000000
00001000
00000000
00010000
00001000
,
00010000
00000000
00000000
00000100
00001000
00000000
00000000
00000010
,
00000000
00010000
00001000
00000000
00100000
00000000
00001000
00000000
,
00011000
02000000
00000000
03010000
,
10000000
01000000
00010000
00001000
,
00000100
00000000
00000002
00000000
00000000
00000000
00000013
00000100
,
00000000
00001000
00000000
00000010
00000000
00000000
00010000
00000000
,
00001000
00000000
00000000
00100000
00000000
00100000
00000000
01000000
,
00000000
00000000
01000000
00000000
00000000
00000000
00010000
00000000
00001000
00000000
00000000
00010000
00000000
00000000
00000100
00000000
,
00001000
00000020
00000000
00000130
,
00000001
00000000
00000010
00000000
00000100
00001000
00000100
00000000
,
00010000
00010000
00100000
00100000
,
10000000
00000000
01000000
00000000
00010000
00001000
00000000
00000000
,
00011000
00000200
00000000
00000310
,
00000001
00000000
00000100
00000000
00001000
00010000
00000000
00000000
,
00010000
00100000
00010000
00001000
,
00000010
00001000
00010000
00000000
,
00022000
00000000
00000000
00000000
,
00000000
00000000
00033000
00000000
,
00001000
01000000
00010000
10010000
,
10000000
01000000
00010000
00011000
,
00001000
00010000
00000100
00001100
,
00001000
00000001
00000100
00000101
,
00000001
00000010
00001000
00010000
,
00100000
10000000
00010000
01000000
,
02002000
03003000
00020200
00030300
,
00010000
00001000
00000000
00022000
00000000
00000000
00033000
00000000
,
00011000
00001000
00010000
00010000
,
00000100
00000000
00001000
00000020
00000000
00000000
00000030
00000000
,
00000100
00000001
00000010
00000100
,
00010000
00001000
00010000
00000000
00100000
00000000
01000000
00000000
,
00010000
10000000
01000000
00010000
,
00001000
00000000
00010000
00002000
00000000
00000000
00003000
00000000
,
00000100
00000000
00000000
00000000
00000001
00000000
00000000
00000000
00001000
00000000
00000000
00000100
00000000
00000000
00001000
00000000
,
00000100
00010000
00010000
00001000
,
00100000
00010000
01000000
00001000
,
00100000
00000000
00010000
20000000
00000000
00000000
30000000
00000000
,
01000000
00010000
01000000
00100000
,
00001000
00001000
00010000
00010000
,
00000100
00001000
00000001
00000100
,
00000220
00000000
00000330
00002002
00000000
00000000
00003003
00000000
,
00000001
00000000
00000000
00000000
00000100
00000000
00000000
00000000
00001000
00000000
00000000
00010000
00000000
00000000
00001000
00000000
,
00020000
00000000
00030000
00000000
,
00100000
00000000
00000000
00000000
10000000
00000000
00000000
00000000
00010000
00000000
00000000
10000000
00000000
00000000
00010000
00000000
,
20000000
00000000
30000000
00000000
,
02000000
00000000
03000000
00000000
,
00022000
00000000
00000000
00000000
,
00033000
00000000
00022000
00033000
,
00010000
00000100
00001000
00000001
,
00000100
00000000
00000100
00000000
00000010
00001000
00000010
00000000
,
00010000
00001000
00100000
00010000
,
01000000
00000000
01000000
00000000
00010000
10000000
00010000
00000000
,
00100000
00001000
00010000
00000010
,
00001000
00000000
00001000
00000000
00000001
00000100
00000001
00000000
,
00000010
00000100
00010000
00001000
,
01000000
00000000
01000000
00000000
00010000
10000000
00010000
10000000
,
01000000
00100000
00001000
00010000
,
00010000
00000000
00000100
00001000
00000100
00000000
00000010
00000000
,
00000001
00000100
00000010
00010000
,
00001000
00000000
01000000
00010000
01000000
00000000
00001000
00000000
,
00010000
01000000
00100000
00010000
,
00010000
00000000
10000000
01000000
10000000
00000000
00100000
00000000
,
01000000
00001000
00010000
00010100
,
00010100
00010100
00010100
01001000
,
01001000
01001000
01001000
00020020
,
00030030
00202000
00303000
00022000
,
00000000
00000000
00000000
00033000
;

//--------------- dance-double - forcednature ----------------
#NOTES:
     dance-double:
     forcednature:
     Medium:
     11:
     0,0,0,0,0:
00000000
00000000
00000000
00000000
,
00000000
00000000
00000000
00000000
,
00000000
00000000
00000000
00000000
,
00000000
00000000
00000000
00000000
,
00000000
00000000
00000000
00000000
,
00001000
01000000
00001000
01000000
00010000
10000000
00010000
10000000
,
01000000
00000000
00000000
00010000
00000000
00000000
00001000
00000000
00010000
00000000
00000000
00000000
00000200
00000000
00000000
00000000
,
00000310
00000001
00000010
00000000
00000100
00001000
00000100
00000000
,
00001000
00000010
00010000
00001000
00100000
00010000
00100000
00000000
,
01000000
10000000
01000000
00000000
10000000
00100000
10000000
00000000
,
01000000
00100000
00010000
01000000
00001000
00010000
00000100
00000000
,
00001000
00000001
00001000
00000000
00000100
00000010
00000100
00000000
,
00001000
00000010
00010000
00001000
01000000
00001000
00010000
00000000
,
00100000
01000000
00100000
00000000
10000000
00010000
10000000
00000000
,
01000000
00010000
00001000
00000100
,
00001001
00000000
00000000
00000000
00000000
00000000
00000000
00000100
,
00000100
00000000
00000000
00000000
00000000
00000000
00000000
00010000
,
00001000
00000000
00000000
00000000
00000000
00000000
00000000
01000000
,
01000000
00000000
01000000
00000000
01000000
00010000
01000000
00010000
,
00100000
00000000
00001000
00000000
00010000
00000000
00000010
00001000
,
00000100
00000000
00000010
00000000
00000001
00000000
00000100
00001000
,
00010000
00000000
00000000
00100000
00010000
00000000
00000000
00011000
,
00000000
00000100
00010000
00000000
00011000
00000000
01001000
00000000
,
01010000
00000000
20020000
00000000
00000000
00000000
30030000
10000000
,
00000000
01000000
00100000
00010000
01000000
00000000
00001000
00010000
,
00000000
00000000
00002200
00000000
00000000
00000000
00003300
00000001
,
00000000
00000010
00000001
00000100
00000000
00000010
00001000
00000100
,
00010000
00000000
00000000
00001000
00000000
00000100
00000000
00000001
,
00000000
00000000
00000010
00000000
00000000
00000000
00001000
00000000
00010000
00000000
00000000
00100000
00000000
00000000
10000000
00000000
,
00010000
02200000
00000000
03300000
,
01000000
00001000
00010000
00000000
00000100
00010000
00001000
00000000
,
00010010
00010010
00001001
00001001
,
00010100
00000000
00010100
00000000
00001000
01000000
00010000
00000000
,
10010000
02020000
00000000
03030000
,
00010000
00100000
00001000
00000000
00010000
00001000
00000010
00000000
,
00000100
00000000
00001000
00000100
00000000
00000000
00000010
00000000
00000000
00000001
00000000
00000000
,
00000100
00000000
00001000
00010000
00000000
00000000
00100000
00000000
10000000
00010000
00000000
00000000
,
20000000
01000000
00010000
00100000
,
02000000
00000000
33000000
00000000
,
10010000
00000000
00010000
01000000
00000000
00001000
00010000
00000100
,
00001000
00000000
00000001
00001000
00000000
00000100
00000010
00000001
,
00001000
00000000
00000010
00010000
00000000
00001000
00100000
00001000
,
00010000
00000000
00100000
01000000
00000000
00010000
10000000
01000000
,
00200000
00302000
00023000
00230000
,
01300000
00001000
00010000
00000000
00000100
00010000
00001000
00000000
,
00020200
00030300
02002000
03003000
,
00001000
00010000
00000000
00022000
00000000
00000000
00033000
00000000
,
00010100
00010100
00101000
00101000
,
00001000
00010000
00001000
00000000
00000100
00000000
00000010
00000000
,
00001000
00000100
00000010
00000000
00000001
00000000
00000100
00000000
,
00000010
00010000
00001000
00000000
00100000
00001000
00010000
00000000
,
01001000
01001000
00110000
00110000
,
00010000
10000000
00010000
00000000
01000000
00000000
00100000
00000000
,
00010000
00000000
00001000
00000000
00010000
00000000
00000000
00000000
00000100
00000000
00000000
00001000
00000000
00000000
00000001
00000000
,
00000200
00000000
00001000
00000000
00000310
00000100
00000010
00000000
,
00010010
00010010
00001001
00001001
,
00001000
00000100
00001000
00000000
00000010
00000000
00010000
00000000
,
00001000
00100000
00001000
00000000
00010000
00000000
00100000
00000000
,
10000000
00010000
10000000
00000000
01000000
00100000
01000000
00000000
,
01100000
01100000
00101000
00101000
,
00022000
00000000
00033000
00020200
00000000
00000000
00030300
00000000
,
00000100
00000000
00001000
00000000
00000100
00000000
00000000
00000000
00000010
00000000
00000000
00000001
00000000
00000000
00000100
00000000
,
00000020
00000001
00000100
00001030
,
00000010
00000000
00010000
00000000
00000010
00000000
00000000
00000000
00010000
00000000
00000000
00001000
00000000
00000000
00100000
00000000
,
00020000
01000000
10000000
00100000
,
02030000
10000000
00100000
00010000
,
00002000
00000000
00000000
00000000
,
03003000
00000000
00022000
00033000
,
00000100
00010000
00000100
00000000
00001000
00000001
00001000
00000000
,
00000010
00010000
00001000
00100000
00001000
00010000
00100000
00000000
,
01000000
00010000
01000000
00000000
00100000
10000000
00100000
00000000
,
10000000
01000000
00100000
00010000
01000000
00001000
00010000
00000000
,
00000100
00001000
00000100
00000000
00001000
00000001
00001000
00000000
,
00000010
00010000
00001000
00010000
00000100
00001000
00000100
00000000
,
00010000
00001000
00010000
00000000
00100000
01000000
00100000
00000000
,
10000000
00000000
01000000
00000000
00010000
00001000
00010000
00001000
,
00000100
00000000
00000001
00000010
00000001
00000000
00000100
00000010
,
00001000
00000001
00000010
00000100
00001000
00000000
00000100
00010000
,
00000100
00000000
00010000
00001000
00010000
00000000
00100000
01000000
,
00010000
10000000
01000000
00100000
00010000
00000000
01000000
00010000
,
01000000
00000000
00001000
00010000
00001000
00000000
00000010
00000100
,
00001000
00000010
00000100
00000001
00000010
00000000
00000100
00010000
,
00000100
00000000
00010000
00001000
00010000
00000000
00200000
00000000
,
02300000
03002000
00023000
02030000
,
03200000
00000000
00310000
10000000
00010000
10000000
01000000
00000000
,
00010000
00000100
00001000
00002002
,
00000000
00000000
00000000
00003003
;

//--------------- dance-double - forcednature ----------------
#NOTES:
     dance-double:
     forcednature:
     Hard:
     14:
     0,0,0,0,0:
00000000
00000000
00000000
00000000
,
00000000
00000000
00000000
00000000
,
00000000
00000000
00000000
00000000
,
00000000
00000000
00000000
00000000
,
00000000
00000000
00000000
00000000
,
00001000
00010000
00100000
01000000
00010000
10000000
01000000
00010000
,
00001000
00100000
00000000
00001000
00010000
00000000
00000010
00000000
00001000
00000000
00000000
00000000
00000002
00000000
00000000
00000000
,
00000103
00000001
00000100
00001000
00000100
00000010
00001000
00000001
,
00000010
00000100
00010000
00001000
00100000
00010000
10000000
00000000
,
00100000
01000000
00100000
00010000
00100000
10000000
00010000
00100000
,
01000000
00010000
00001000
00000010
00000100
00001000
00000001
00000000
,
00000100
00001000
00000100
00000001
00000010
00000100
00001000
00000010
,
00010000
00001000
00100000
00001000
00010000
00100000
01000000
00000000
,
00100000
00010000
00100000
10000000
00010000
00100000
00010000
01000000
,
01001000
00010010
00101000
00010100
,
00011000
00000000
00000000
00000000
00000000
00000000
00000000
00000100
,
00000100
00000000
00000000
00000000
00000000
00000000
00000000
00010000
,
00011000
00000000
00000000
00000000
00000000
00000000
00000000
01000000
,
01000000
00000000
00001000
00000000
00010000
00000010
00001000
00000100
,
00001100
00000000
00001000
00000000
00000001
00000000
00000100
00001000
,
00010000
00000000
00100000
00000000
10000000
00000000
01000000
00010000
,
00001000
00000000
00000000
00000010
00001000
00000000
00000000
00011000
,
00000000
00100000
00010000
00000000
01001000
00000000
00010100
00000000
,
00021000
00000000
00030200
00000000
00000010
00000000
00000300
00000100
,
00000000
00001000
00000001
00000100
00000010
00000100
00001000
00010000
,
00000000
00000000
02000000
00000000
00100000
00000000
03000000
01000000
,
00000000
10000000
00010000
01000000
00000000
00001000
00010000
00000100
,
00000110
00000000
00000000
00000011
00000000
00001001
00000000
00010010
,
00000000
00000000
00101000
00000000
00000000
00000000
00001000
00000000
00010000
00000000
00000000
00100000
00000000
00000000
10000000
00000000
,
00010000
00000000
00200000
00000000
01300000
00100000
00010000
01000000
,
00000000
00000000
00001000
00000000
00010000
00000000
00000000
00000000
00000100
00000000
00001000
00000000
00000001
00000100
00000001
00000000
,
00000101
00000000
00001001
00000000
00001100
00000000
00000100
00010000
,
00001000
00000000
01000000
00010000
00100000
00100000
00000000
00000000
,
01000000
10000000
00010000
10000000
00100000
10000000
01000000
00010000
,
01000000
00100000
00001000
00010000
00000010
00001000
00000001
00000000
,
00000100
00001000
00010000
01000000
,
00100000
00001000
00010000
00000010
,
00000200
00000000
00000000
00000000
,
00000000
00000300
00000101
00001010
,
00001001
00000000
00000001
00000010
00000100
00001000
00000010
00010000
,
00001000
00000100
00001000
00010000
00100000
00010000
00001000
00000000
,
01000000
00010000
00100000
01000000
00010000
01000000
10000000
00010000
,
01000000
00001000
00010000
01000000
00010000
00000000
00011000
00000000
,
00020010
00001000
01000000
00001000
,
00000100
00000000
00000000
00000000
00001000
00000000
00000000
00000000
00130000
00000000
00000000
00000000
00010000
00001000
00010000
00001000
,
00020000
00030000
00020020
00030030
,
00000001
00001000
00000000
00000110
00000000
00000001
00000001
00000001
,
00000011
00001100
00000101
00001010
,
00000010
00000000
00010000
00002000
00000000
00000100
00000000
00013000
,
00000000
00001000
00100000
00000000
01000000
10000000
00010000
01000000
,
00000000
10100000
00000000
01010000
00000000
00001000
00010000
01000000
,
00100000
00110000
00101000
00010100
,
00000100
00000000
00001000
00000002
00000000
00000100
00000000
00000013
,
00000000
00000000
00000001
00000000
00000100
00000000
00001000
00000000
00010000
00000000
00000000
01000000
00000000
00000000
10000000
00000000
,
00010000
01000000
00100000
10000000
01000000
00010000
00010000
00010000
,
00011000
00010100
01001000
00010010
,
00100000
00000000
01000000
00020000
00000000
00001000
00000000
00130000
,
00000000
00000000
00010000
00000000
00001000
00000000
00000010
00000000
00000100
00000000
00000000
00001000
00000000
00000000
00000001
00000000
,
00000100
00001000
00010000
00001000
00010000
01000000
00100000
00010000
,
10000000
10010000
01001000
00010100
,
00001001
00000000
00000000
00000110
00000000
00000001
00000100
00001000
,
00000000
00000000
00010000
00000000
00100000
00000000
10000000
00000000
00010000
00000000
00000000
10000000
00000000
00000000
01000000
00000000
,
00010000
00001000
00000010
00000001
00001000
00000100
00000010
00000001
,
00000000
00000000
00000100
00000000
00000010
00000000
00000000
00000000
00000100
00000000
00000000
00001000
00000000
00000000
00010000
00000000
,
00100000
10000000
00010000
10000000
01000000
00010000
00001000
00000010
,
00000001
00000000
00001000
00000000
00000010
00000000
00010000
00000000
00000100
00001000
00000100
00001000
00000100
00000000
00000000
00000000
,
00000020
00000001
00000000
00000000
,
00000130
00000000
00022000
00033000
,
01000000
00010000
00100000
01000000
00010000
00001000
01000000
00010000
,
00100000
00001000
00010000
00000010
00010000
00001000
00000100
00000000
,
00000001
00001000
00000100
00000001
00000100
00001000
00000010
00010000
,
00001000
00000010
00000100
00010000
00001000
00000100
00001000
00000000
,
00010000
00100000
01000000
00001000
00010000
01000000
00100000
00001000
,
00010000
00100000
10000000
00010000
10000000
01000000
00010000
00000000
,
00001000
00000010
00000001
00001000
00000010
00000100
00001000
00010000
,
00010100
00000000
00000000
00000000
01001000
00000000
00000000
00000000
00010000
00000000
00001000
00000000
00010000
00001000
00010000
00002000
,
00003100
00000001
00000010
00000100
00001000
00000010
00010000
00001000
,
00000010
00000100
00010000
00001000
00100000
00000000
01000000
00010000
,
01000000
10000000
00010000
01000000
00100000
00010000
00001000
00000010
,
00000001
00001000
00000100
00010000
00000010
00000000
00000100
00001000
,
00010000
01000000
10000000
00010000
00100000
00001000
00010000
00000100
,
00010000
00001000
00000010
00000001
00000100
00000000
00000010
00001000
,
00000010
00001000
00010000
01000000
00010000
01000000
01010000
00000000
,
01001000
00010100
00001100
00010010
,
01001000
00000000
00000000
00000000
00000100
00000000
00010000
00000000
00001000
00100000
00001000
00100000
00001000
00000000
00000000
00000000
,
01000000
00010000
00000100
00022000
,
00000000
00000000
00000000
00033000
;
