#VERSION:0.83;
#TITLE:LOST IN PARADISE;
#SUBTITLE:;
#ARTIST:ALI feat. AKLO;
#TITLETRANSLIT:;
#SUBTITLETRANSLIT:;
#ARTISTTRANSLIT:;
#GENRE:HOUSE POP;
#ORIGIN:;
#CREDIT:;
#BANNER:LOST IN PARADISE.png;
#BACKGROUND:LOST IN PARADISE-bg.png;
#PREVIEWVID:;
#JACKET:LOST IN PARADISE-jacket.png;
#CDIMAGE:;
#DISCIMAGE:;
#LYRICSPATH:;
#CDTITLE:cdtitle.png;
#MUSIC:LOST IN PARADISE.ogg;
#OFFSET:-0.124000;
#SAMPLESTART:39.430000;
#SAMPLELENGTH:15.000000;
#SELECTABLE:YES;
#DISPLAYBPM:122.000000;
#BPMS:0.000=122.000,
75.500=123.000,
80.000=122.000,
108.000=121.200,
112.000=122.000,
143.000=123.080,
144.000=122.000;
#STOPS:;
#DELAYS:;
#WARPS:;
#TIMESIGNATURES:0.000=4=4;
#TICKCOUNTS:0.000=4;
#COMBOS:0.000=1;
#SPEEDS:0.000=1.000=0.000=0;
#SCROLLS:0.000=1.000;
#FAKES:;
#LABELS:0.000=Song Start;
#BGCHANGES:0.000=LOST IN PARADISE.avi=1.000=0=0=0=StretchNoLoop==CrossFade_Fastest==,
99999=-nosongbg-=1.000=0=0=0 // don't automatically add -songbackground-
;
#KEYSOUNDS:;
#ATTACKS:
;

//---------------dance-single - Daff_4K----------------
#NOTEDATA:;
#CHARTNAME:Daff_4K;
#STEPSTYPE:dance-single;
#DESCRIPTION:Daff_4K;
#CHARTSTYLE:;
#DIFFICULTY:Beginner;
#METER:1;
#RADARVALUES:0.096309,0.148316,0.022472,0.000000,0.000000,60.000000,58.000000,2.000000,0.000000,0.000000,0.000000,0.000000,0.000000,0.000000,0.096309,0.148316,0.022472,0.000000,0.000000,60.000000,58.000000,2.000000,0.000000,0.000000,0.000000,0.000000,0.000000,0.000000;
#CREDIT:Daff_4K;
#DISPLAYBPM:122.000000;
#NOTES:
// measure 0
0000
0000
0000
0000
,  // measure 1
0000
0000
0000
0000
,  // measure 2
0000
0000
0000
0000
,  // measure 3
0000
0000
0000
0000
,  // measure 4
0001
0000
0000
0000
,  // measure 5
1000
0000
0000
0000
,  // measure 6
0100
0000
0010
0000
,  // measure 7
0100
0000
0000
0000
,  // measure 8
1000
0000
0000
0000
,  // measure 9
0001
0000
0000
0000
,  // measure 10
0100
0000
0010
0000
,  // measure 11
0100
0000
0000
0000
,  // measure 12
0001
0000
0001
0000
,  // measure 13
0100
0000
0000
0000
,  // measure 14
0010
0000
0100
0000
,  // measure 15
0010
0000
0000
0000
,  // measure 16
1000
0000
1000
0000
,  // measure 17
0100
0000
0000
0000
,  // measure 18
0010
0000
0100
0000
,  // measure 19
0010
0000
0000
0000
,  // measure 20
1001
0000
0000
0000
,  // measure 21
0001
0000
0010
0000
,  // measure 22
0001
0000
0000
0000
,  // measure 23
0100
0000
0000
0000
,  // measure 24
0001
0000
0000
0000
,  // measure 25
1000
0000
0010
0000
,  // measure 26
1000
0000
0000
0000
,  // measure 27
0100
0000
0000
0000
,  // measure 28
0010
0000
0010
0000
,  // measure 29
0010
0000
0000
0000
,  // measure 30
0001
0000
0001
0000
,  // measure 31
0100
0000
0000
0000
,  // measure 32
0010
0000
0010
0000
,  // measure 33
0010
0000
0000
0000
,  // measure 34
1000
0000
1000
0000
,  // measure 35
0100
0000
0000
0000
,  // measure 36
0010
0000
0001
0000
,  // measure 37
0010
0000
0000
0000
,  // measure 38
0001
0000
0001
0000
,  // measure 39
1000
0000
0000
0000
,  // measure 40
0010
0000
1000
0000
,  // measure 41
0010
0000
0000
0000
,  // measure 42
1000
0000
1000
0000
,  // measure 43
0001
0000
0001
0000
,  // measure 44
1001
0000
0000
0000
;

//---------------dance-single - Daff_4K----------------
#NOTEDATA:;
#CHARTNAME:Daff_4K;
#STEPSTYPE:dance-single;
#DESCRIPTION:Daff_4K;
#CHARTSTYLE:;
#DIFFICULTY:Easy;
#METER:3;
#RADARVALUES:0.191013,0.222474,0.011236,0.112361,0.000000,119.000000,118.000000,1.000000,10.000000,0.000000,0.000000,0.000000,0.000000,0.000000,0.191013,0.222474,0.011236,0.112361,0.000000,119.000000,118.000000,1.000000,10.000000,0.000000,0.000000,0.000000,0.000000,0.000000;
#CREDIT:Daff_4K;
#DISPLAYBPM:122.000000;
#NOTES:
0000
0000
0000
0000
,
0000
0000
0000
0000
,
0000
0000
0000
0000
,
0000
0000
0000
0000
,
1000
0000
0010
0100
,
0001
0000
0001
0010
,
0100
0000
0010
0000
,
0001
0000
1000
1000
,
0001
0000
0010
0100
,
1000
0000
1000
0010
,
0100
0000
0010
0000
,
1000
0000
0001
0001
,
1000
0010
0100
0001
,
0020
0000
0030
0100
,
1000
0000
0001
0000
,
0100
0010
1000
0000
,
0001
0010
0100
1000
,
0020
0000
0030
0100
,
0001
0000
1000
0000
,
0100
0010
0001
1000
,
0001
0001
0100
0010
,
1000
1000
0010
0100
,
0002
0000
0003
1000
,
0200
0300
0010
0001
,
1000
1000
0100
0010
,
0001
0001
0010
0100
,
2000
0000
3000
0001
,
0200
0300
0010
1000
,
0001
0010
0100
0010
,
0002
0000
0103
0000
,
0010
1000
0100
1000
,
0002
0000
1003
0000
,
1000
0010
0100
0010
,
2000
0000
3100
0000
,
0010
0001
0100
0001
,
2000
0000
3001
0000
,
1000
1000
0100
0000
,
0010
0001
1000
0000
,
1000
0010
0100
0000
,
0001
0000
1000
0000
,
0001
0001
0100
0000
,
0010
1000
0001
0000
,
0001
0010
0100
0000
,
1000
0000
0001
0000
,
1001
0000
0000
0000
;

//---------------dance-single - Daff_4K----------------
#NOTEDATA:;
#CHARTNAME:Daff_4K;
#STEPSTYPE:dance-single;
#DESCRIPTION:Daff_4K;
#CHARTSTYLE:;
#DIFFICULTY:Medium;
#METER:6;
#RADARVALUES:0.253614,0.271913,0.022472,0.134833,0.000000,158.000000,156.000000,2.000000,12.000000,0.000000,0.000000,0.000000,0.000000,0.000000,0.253614,0.271913,0.022472,0.134833,0.000000,158.000000,156.000000,2.000000,12.000000,0.000000,0.000000,0.000000,0.000000,0.000000;
#CREDIT:Daff_4K;
#DISPLAYBPM:122.000000;
#NOTES:
0000
0000
0000
0000
,
0000
0000
0000
0000
,
0000
0000
0000
0000
,
0000
0000
0000
0000
,
1000
0010
0001
0000
,
0001
0010
1000
0000
,
0001
0010
0001
0000
1000
0010
1000
0000
,
0100
0010
0100
0000
,
1000
0010
1000
0000
0001
0000
0000
0000
,
0001
0010
0001
0000
1000
0000
0000
0000
,
1000
0100
1000
0000
0001
0100
0001
0000
,
0010
0100
1000
0001
,
1000
0000
0010
0000
0100
0000
0001
1000
,
0000
0200
0000
0300
0000
0000
0010
0000
,
0001
0100
1000
0100
,
0001
0010
0100
1000
,
0001
0000
0010
0000
0100
0000
1000
0001
,
0000
0200
0000
0300
0000
0000
0010
0000
,
1000
0100
0001
0100
,
0020
0000
0130
1001
,
0001
0100
0001
1000
,
0001
0010
1000
0100
,
0002
0000
0003
0000
0010
0100
1000
0000
,
2000
0000
3000
0000
0010
0100
0001
0000
,
1000
0100
1000
0001
,
1000
0010
0001
0100
,
2000
0000
3000
0000
0010
0100
0001
0000
,
0002
0000
0003
0000
0010
0100
1000
0000
,
0001
0100
0010
1000
,
0200
0000
0310
0001
,
1000
0010
0100
0001
,
2000
0000
3000
0000
0100
0010
0001
0000
,
1000
0100
0010
0001
,
0200
0000
0310
1000
,
0001
0010
0100
1000
,
0002
0000
0003
0000
0100
0010
1000
0000
,
0001
0010
0100
0010
,
0001
0010
1000
0010
,
0001
0100
0010
1000
,
0200
0000
0310
0001
,
1000
0010
0100
0010
,
1000
0010
0001
0010
,
1000
0100
0010
0001
,
0100
0010
1000
0001
,
1001
0000
0000
0000
;

//---------------dance-single - Daff_4K----------------
#NOTEDATA:;
#CHARTNAME:Daff_4K;
#STEPSTYPE:dance-single;
#DESCRIPTION:Daff_4K;
#CHARTSTYLE:;
#DIFFICULTY:Hard;
#METER:8;
#RADARVALUES:0.304979,0.370791,0.011236,0.606748,0.000000,190.000000,189.000000,1.000000,54.000000,0.000000,0.000000,0.000000,0.000000,0.000000,0.304979,0.370791,0.011236,0.606748,0.000000,190.000000,189.000000,1.000000,54.000000,0.000000,0.000000,0.000000,0.000000,0.000000;
#CREDIT:Daff_4K;
#DISPLAYBPM:122.000000;
#NOTES:
0000
0000
0000
0000
,
0000
0000
0000
0000
,
0000
0000
0000
0000
,
0000
0000
0000
0000
,
1000
0000
0010
0000
0001
0010
1000
0000
,
0001
0000
0010
0000
0100
1000
0010
0000
,
2000
3001
0020
0130
,
2000
0000
3010
0000
0100
0001
1000
0000
,
0001
0000
0010
0000
1000
0010
0001
0000
,
1000
0000
0010
0000
0100
0001
0010
0000
,
0002
1003
0020
0130
,
0002
0023
0230
2300
,
3001
0000
0100
0000
0010
0000
1000
0200
,
0000
0020
0000
0330
0000
0000
0001
0000
,
0200
0310
2000
3001
,
2000
3020
0230
0302
,
1003
0000
0100
0000
0010
0000
0001
0200
,
0000
0020
0000
0330
0000
0000
1000
0000
,
0200
0000
0310
0000
0002
0000
1003
0001
,
0000
0100
0100
0010
0010
0000
1001
0000
,
2000
3100
0002
0013
,
2000
0000
3100
0010
0001
0000
2000
0000
,
0002
0000
3003
0000
0001
0100
0020
0000
,
0200
0000
0330
0000
0100
0001
1000
0000
,
0002
0103
2000
3010
,
0002
0000
0103
0010
1000
0000
0002
0000
,
2000
0000
3003
0000
1000
0100
0010
0000
,
0001
0000
1000
0000
0010
0010
0100
0000
,
0002
0023
0230
2300
,
3010
0000
0100
0000
0001
1000
0001
0000
,
0020
0230
2300
3002
,
0103
0100
0010
0000
1000
0001
0010
0100
,
2000
3020
0230
0302
,
0013
0000
0100
0000
1000
0001
1000
0000
,
0020
0230
0302
2003
,
3100
0100
0010
0000
0001
1000
0010
0000
,
2000
0000
0001
0000
3100
0010
0001
0000
,
0200
0000
0010
0000
0301
1000
0100
0000
,
0010
0001
1000
0000
0010
0100
0001
0000
,
0010
0100
1000
0000
0020
0000
0130
0000
,
0002
0000
1000
0000
0103
0010
1000
0000
,
0200
0000
0010
0000
1300
0001
0100
0000
,
0010
1000
0001
0000
0010
0100
1000
0000
,
0001
0100
0010
1000
0100
0010
0001
1000
,
0001
0000
0000
0000
;

//---------------dance-single - Daff_4K----------------
#NOTEDATA:;
#CHARTNAME:Daff_4K;
#STEPSTYPE:dance-single;
#DESCRIPTION:Daff_4K;
#CHARTSTYLE:;
#DIFFICULTY:Challenge;
#METER:11;
#RADARVALUES:0.430181,0.420229,0.247194,0.382027,0.095507,268.000000,246.000000,22.000000,34.000000,0.000000,0.000000,0.000000,0.000000,0.000000,0.430181,0.420229,0.247194,0.382027,0.095507,268.000000,246.000000,22.000000,34.000000,0.000000,0.000000,0.000000,0.000000,0.000000;
#CREDIT:Daff_4K;
#DISPLAYBPM:122.000000;
#NOTES:
0000
0000
0000
0000
,
0000
0000
0000
0000
,
0000
0000
0000
0000
,
0000
0000
0000
0000
,
1200
0000
0310
0000
0001
1000
0010
0000
,
0201
0000
0310
0000
1000
0001
0010
0000
,
0100
1000
0010
0000
0100
0001
0010
0000
,
0001
0100
0010
1000
0100
0010
0001
0000
,
1000
0010
0001
0010
1000
0001
0010
0000
,
0001
0010
1000
0010
0001
1000
0010
0000
,
1000
0010
0001
0000
0001
0010
1000
0000
,
0001
0010
0100
1000
0010
0100
0001
1000
,
0200
0000
0301
0000
0120
0000
0031
2000
,
0000
3010
0000
0101
0000
1010
0000
1000
,
0001
0000
1100
0000
1000
0001
0010
0100
,
2000
0000
3002
0000
0013
0100
1000
0001
,
0200
0000
1300
0000
0120
0000
1030
0002
,
0000
0013
0000
1100
0000
0011
0000
0001
,
1000
0000
0101
0000
0001
1000
0010
0200
,
0000
0301
0001
1000
1000
0000
1001
0000
,
0201
2300
3020
0032
,
1003
0010
0100
0001
0010
0100
1000
0001
,
0200
0000
0010
0000
0000
0010
0000
0000
0310
0000
1000
0001
0000
0000
0001
0020
,
0000
0000
0100
0000
0000
0100
0000
0000
0130
0000
1000
0000
0001
0000
0000
0000
,
1200
0302
0023
2030
,
3001
0010
0100
1000
0010
0100
0001
1000
,
0200
0000
0010
0000
0000
0010
0000
0000
0310
0000
0001
1000
0000
0000
1000
0000
,
0010
0100
0001
0010
0100
1000
0001
0000
,
2001
0000
3020
0000
0130
0001
0010
0200
,
0000
0000
1300
0000
0001
1000
0000
0001
0000
0100
0000
0000
0010
0000
1000
0000
,
0002
0000
0023
0000
1030
0010
0001
2000
,
0000
0000
3010
0000
0100
0010
0000
0100
0010
0000
1000
0000
0100
0000
0010
0000
,
0002
0000
0023
0000
0130
1000
0010
0200
,
0000
0000
0301
0000
1000
0001
0000
1000
0000
0100
0000
0000
0010
0000
0001
0000
,
2000
0000
3020
0000
0031
0010
1000
0002
,
0000
0000
0013
0000
0100
0000
1000
0001
1000
0000
0001
0000
0100
0000
0000
0000
,
0101
0000
1010
0000
0100
0001
0010
0000
,
0100
1000
0010
0000
0110
0000
1001
0000
,
0001
0010
1000
0000
0001
0100
1000
0000
,
0001
1000
0010
0100
0001
1000
0100
0000
,
1100
0000
0011
0000
0100
1000
0010
0000
,
0100
0001
0010
0000
0110
0000
1001
0000
,
1000
0010
0001
0000
1000
0100
0001
0000
,
1000
0000
0100
1000
0100
0000
0010
0001
0010
0000
0001
0000
0100
0000
0010
0000
,
1000
0000
0000
0000
;
