#TITLE:カマす犬;
#SUBTITLE:;
#ARTIST:PAN;
#TITLETRANSLIT:;
#SUBTITLETRANSLIT:;
#ARTISTTRANSLIT:;
#GENRE:;
#CREDIT:;
#MUSIC:Kamasu inu.ogg;
#BANNER:Kamasu inu.png;
#BACKGROUND:Kamasu inu-bg.png;
#CDTITLE:;
#SAMPLESTART:25.754;
#SAMPLELENGTH:15.000;
#SELECTABLE:YES;
#OFFSET:1.172;
#BPMS:0.000=205.000;
#STOPS:;
#BGCHANGES:;
#FGCHANGES:;

//--------------- dance-single - chrononical ----------------
#NOTES:
     dance-single:
     chrononical:
     Beginner:
     3:
     0,0,0,0,0:
0000
0000
0000
0000
,
0000
0000
0000
0000
,
0000
0000
0000
0000
,
0002
0000
1003
1000
,
0020
0000
0130
0100
,
0002
0000
0013
0010
,
0200
0000
1300
1000
,
0001
0000
0200
0000
,
0310
0010
0010
0000
,
1000
0000
0200
0000
,
0310
0010
0010
0000
,
1001
0000
1002
0000
,
1003
1000
1000
0000
,
0001
0000
0020
0000
,
0031
0100
0001
0000
,
0001
0000
0010
0000
,
1000
0000
0100
0000
,
0001
0000
0100
0000
,
1000
0000
0010
0000
,
0001
0000
0010
0000
,
1000
0000
0100
0000
,
0001
0000
1000
0000
,
2002
0000
0000
3003
,
2000
0000
3100
0000
,
0010
0010
0010
0000
,
0002
0000
1003
0000
,
0010
0010
0010
0000
,
1000
0001
1000
0000
,
0001
1000
0001
0000
,
2000
0000
3100
0000
,
0001
0000
0100
0000
,
1000
0000
1001
0000
,
0001
0100
0001
0000
,
1000
0000
1001
0000
,
1000
0100
1000
0000
,
0010
0000
0110
0000
,
1000
0001
1000
0000
,
0100
0000
0220
0000
,
0330
0000
0001
0000
,
2000
0000
3100
0100
,
0020
0000
0031
0001
,
2000
0000
3010
0010
,
0200
0000
0301
0001
,
1000
0000
1001
0000
,
0001
0000
1001
0000
,
1000
0000
1001
0000
,
0001
1000
0001
0000
,
2002
0000
0000
0000
,
3003
0000
0000
0000
,
0010
0000
0220
0000
,
0330
0000
0000
0002
,
1003
0000
2002
0000
,
3003
0000
0000
0000
,
0100
0000
0220
0000
,
0330
0000
1000
0000
,
0002
0000
0013
0000
,
1000
0000
0010
0000
,
0002
0000
0103
0000
,
1000
0000
0100
0000
,
0002
0000
0013
0000
,
1000
0000
0010
0000
,
0200
0000
0301
0000
,
0100
0000
1000
0000
,
0020
0000
0030
0000
,
0000
0000
0000
1000
,
0001
0000
0010
0000
,
1000
0000
0100
0000
,
0001
0000
0100
0000
,
1000
0000
0010
0000
,
0001
0000
0010
0000
,
1000
0000
0100
0000
,
0001
0000
0100
0000
,
0220
0000
0000
0330
,
0020
0000
0030
0000
,
1001
0000
0000
0000
,
2000
0000
3000
0000
,
1001
0000
2000
0000
,
3001
0000
0100
0000
,
0100
0000
1000
0000
,
0100
0000
0001
0000
,
1000
0000
0000
0001
,
2000
0000
3010
0000
,
0100
0100
0100
0000
,
0002
0000
1003
0000
,
0100
0100
0100
0000
,
1000
0100
1000
0000
,
0001
0100
0001
0000
,
2000
0000
3010
0000
,
0001
0000
0010
0000
,
1000
0000
1001
0000
,
0001
0010
0001
0000
,
1000
0000
1001
0000
,
1000
0010
1000
0000
,
0010
0000
0110
0000
,
1000
0001
1000
0000
,
0001
0000
2002
0000
,
3003
0000
0001
0000
,
2000
0000
3001
0100
,
0002
0000
1003
0001
,
2000
0000
3001
0010
,
0002
0000
1003
0001
,
1000
0000
2000
3000
,
0010
0000
2000
3000
,
0100
0000
2000
3000
,
0001
1000
0001
2000
,
3000
0001
0010
0000
,
0100
0000
1000
0000
,
2002
0000
0000
0000
,
3003
0000
0000
0000
;

//--------------- dance-single - chrononical ----------------
#NOTES:
     dance-single:
     chrononical:
     Easy:
     6:
     0,0,0,0,0:
0000
0000
0000
0000
,
0000
0000
0000
0000
,
0000
0000
0000
0000
,
2000
0000
0000
3010
0000
0010
0000
0000
,
0200
0000
0000
0301
0000
0001
0000
0000
,
0020
0000
0000
0130
0000
0100
0000
0000
,
1000
0010
1000
1001
,
0001
0010
0110
0000
,
2000
3010
0110
0000
,
0002
0013
0110
0000
,
1000
0010
0110
0000
,
0010
0100
1000
0100
,
0010
1000
0001
0000
,
0002
0013
1000
0010
,
0001
1000
0001
1001
,
1000
0010
0100
0001
,
0020
0000
0000
0130
0000
0000
1000
0000
,
0001
0100
0010
1000
,
0020
0000
0000
0130
0000
0000
0001
0000
,
1000
0100
0010
0100
,
2000
0000
0000
3010
0000
0000
0100
0000
,
0001
0010
0100
0010
,
0220
0000
0000
0330
,
0200
0000
0000
1300
0000
0001
0000
0110
,
0000
0000
0010
0000
0000
1000
0000
0000
,
0002
0000
0000
0013
0000
0100
0000
1100
,
0000
0000
1000
0000
0000
0010
0000
0000
,
0220
0000
0330
0000
0010
0000
0000
1000
,
0000
0001
0020
0130
,
2000
0000
3001
0000
0100
0000
0000
0010
,
0000
0100
0000
0000
0101
0000
0000
0000
,
0001
0000
0000
0110
0000
0000
0000
1000
,
0000
0010
0100
0020
,
1030
0000
0000
0110
0000
0000
0000
0001
,
0000
0010
0100
0020
,
0130
0000
0000
1100
0000
0000
0000
1000
,
0000
0001
0100
0020
,
0130
0000
0000
0101
0000
0000
0000
2002
,
3003
0000
1000
1001
,
0002
0000
0000
0103
0000
0010
0000
0000
,
2000
0000
0000
3100
0000
0010
0000
0000
,
0200
0000
0000
0310
0000
0001
0000
0000
,
1000
0010
1000
1001
,
0001
0000
0101
0000
,
1000
0000
1100
0000
,
0001
0000
0101
0000
,
1000
0100
0001
0100
,
1000
0000
0000
2020
0000
0000
3030
0000
,
0000
0000
0000
0000
,
0010
0000
0000
0220
0000
0000
0330
0000
,
0000
0000
0000
0200
,
0301
0000
0000
0202
0000
0000
0303
0000
,
0000
0000
0000
0000
,
0001
0000
0000
0022
0000
0000
0033
0000
,
0010
0100
1000
0001
,
1000
0000
0000
1010
0000
0000
0010
0000
,
0100
0000
0000
0001
0000
0000
0100
0000
,
0001
0000
0000
0011
0000
0000
0010
0000
,
0100
0000
0000
1000
0000
0000
0010
0000
,
0100
0000
0000
0110
0000
0000
0010
0000
,
0100
0000
0000
0001
0000
0000
1000
0000
,
0100
0000
0000
1100
0000
0000
1000
0000
,
0001
0000
0000
1000
0000
0000
0010
0000
,
2020
3030
0000
0000
,
0000
0000
0000
1001
,
1000
0100
0001
0100
,
0020
0000
0000
0130
0000
0000
1000
0000
,
0001
0100
1000
0100
,
0020
0000
0000
0130
0000
0000
0001
0000
,
1000
0100
0001
0010
,
2000
0000
0000
3010
0000
0000
0100
0000
,
0001
0010
0010
0100
,
0220
0000
0000
0330
,
1000
0000
1000
0000
1000
0000
0000
2001
,
0000
3001
0100
0001
,
2001
0000
0000
3100
0000
0010
0000
0011
,
0000
0011
0002
1003
,
0110
0000
0000
0100
0000
0000
0101
0000
,
0000
0001
0000
0000
1000
0000
1001
0000
,
0001
0000
0000
1000
0000
0010
0000
2020
,
3030
0000
0000
1001
,
0002
0000
0000
0013
0000
0100
0000
0110
,
0000
0000
0010
0000
0000
0100
0000
0000
,
0200
0000
0000
1300
0000
0001
0000
1001
,
0000
0000
1000
0000
0000
0001
0000
0000
,
0202
0000
0303
0000
0100
0000
0000
1000
,
0000
0100
0020
1030
,
0002
0000
0003
0000
0010
0000
0000
1000
,
0000
0010
0000
0000
0011
0000
0000
0000
,
0001
0000
0000
1001
0000
0000
0000
1000
,
0000
0100
0001
0200
,
1300
0000
0000
1100
0000
0000
0000
1000
,
0000
0010
0001
0020
,
0130
0000
0000
0110
0000
0000
0000
0010
,
0000
0100
1000
0200
,
0301
0000
0000
0011
0000
0000
0000
2002
,
3003
0000
1000
1010
,
0020
0000
0000
0130
0000
1000
0000
0000
,
0200
0000
0000
0301
0000
0010
0000
0000
,
2000
0000
0000
3010
0000
0100
0000
0000
,
1000
0010
0100
0101
,
0001
0000
1100
0000
,
0001
0000
1010
0000
,
0001
0000
1100
0000
,
0001
1000
0000
1010
,
0000
0001
0010
1000
,
0100
0010
0100
0010
,
0220
0000
0000
0000
,
0330
0000
0000
0000
;

//--------------- dance-single - chrononical ----------------
#NOTES:
     dance-single:
     chrononical:
     Medium:
     10:
     0,0,0,0,0:
0000
0000
0000
0000
,
0000
0000
0000
0000
,
0000
0000
0000
0000
,
2000
0000
3010
0000
0100
0001
0100
0000
,
0002
0000
0013
0000
0100
0010
0100
0000
,
2000
0000
3010
0000
0100
0010
0100
0000
,
0002
0013
1000
0010
,
0001
1000
0010
1010
,
2000
0000
3100
0010
0001
0000
0011
0000
,
0002
0103
0001
0101
,
0100
0010
1000
0000
0001
0000
1001
0000
,
1000
1100
1000
1001
,
0001
0100
0001
0000
0010
0000
0100
0000
,
2000
0000
3010
0100
0010
0000
1000
0100
,
0010
0001
1000
1001
,
1000
0000
1010
0000
0010
0100
0010
0000
,
0200
0000
0301
0010
0000
0000
0011
0000
,
0010
0000
0110
0000
0100
1000
0100
0000
,
2000
0000
3010
0100
0000
0000
0110
0000
,
0100
0000
0101
0000
0001
0010
0001
0000
,
0020
0000
0130
1000
0000
0000
1100
0000
,
1000
1010
0010
0100
,
0202
0000
0000
0303
,
0002
0000
0013
0100
0000
0100
0000
1000
,
0000
0010
0100
0001
0000
0101
0000
0000
,
0200
0000
0310
1000
0000
0100
0000
0010
,
0000
0100
0010
0100
0000
0110
0000
0000
,
0200
0000
1300
0001
1000
0000
0000
1010
,
0000
0010
1000
0001
1000
0000
0001
0000
,
0020
0000
0130
1000
0100
0000
0000
1100
,
0000
1000
0000
0010
1000
0010
0000
0000
,
1010
0000
0000
0011
0000
0000
0010
0100
,
0000
1000
0001
0100
0001
0000
1000
0000
,
1100
0000
0000
0101
0000
0000
0001
1000
,
0000
0001
0010
0100
1000
0000
0100
0000
,
1100
0000
0000
0110
0000
0000
0010
0001
,
0000
0100
0010
0100
0010
0000
1000
0000
,
1010
0000
0000
0110
0000
0000
0010
2000
,
3000
0000
0001
1001
,
1000
0000
0010
0000
0100
0010
0100
0000
,
0001
0000
0010
0000
0100
0010
0100
0000
,
1000
0000
0010
0000
1000
0001
1000
0000
,
0001
0100
1000
0100
,
0001
0010
1000
0100
,
0001
0010
1000
0010
,
0001
0100
1000
0010
,
0001
1000
0001
1000
,
1010
0000
0000
0220
0000
0000
0330
0000
,
0000
0000
0000
0000
,
0110
0000
0000
2020
0000
0000
3030
0000
,
0000
0000
0000
1000
,
1100
0000
0000
0220
0000
0000
0330
0000
,
0000
0000
0000
0000
,
0110
0000
0000
2200
0000
0000
3300
0000
,
1000
0010
0000
0010
0000
0010
0100
0000
,
0101
0000
0000
1100
0000
0000
1000
0000
,
0100
0010
0000
0001
0000
1000
0000
0000
,
1100
0000
0000
0101
0000
0000
0001
0000
,
0100
0010
0000
1000
0000
0001
0000
0000
,
0011
0000
0000
1010
0000
0000
1000
0000
,
0010
0100
0000
0001
0000
1000
0000
0000
,
1100
0000
0000
0101
0000
0000
0001
0000
,
1000
0010
0000
1000
0000
0001
0000
0000
,
2002
0000
3003
0000
,
0000
0000
0000
1001
,
1000
0000
1100
0000
1000
0100
0010
0000
,
0002
0000
0013
0100
0000
0000
0110
0000
,
0100
0000
1100
0000
1000
0010
0100
0000
,
0200
0000
0310
1000
0000
0000
1001
0000
,
0001
0000
0101
0000
0001
0010
0001
0000
,
0010
0000
0100
0010
0000
0000
0110
0000
,
0100
0000
1100
0000
1000
0010
0100
0000
,
0220
0000
0000
0330
,
0010
0000
1000
0000
0001
0000
0010
0200
,
0000
0000
1300
0001
1000
0000
0010
0000
,
1010
0000
0010
0000
0100
0001
0000
0101
,
0000
0000
0101
0000
0001
0010
0001
0000
,
1001
0000
0000
1010
0000
0000
1100
0000
,
0000
1001
0000
0000
0001
0000
1001
0000
,
1000
0000
0001
0010
0000
0100
1000
0002
,
0003
0000
0000
1001
,
2000
0000
3010
0100
0000
0001
0000
0010
,
0000
0100
1000
0001
0000
1001
0000
0000
,
2000
0000
3100
0010
0000
0001
0000
1000
,
0000
0010
0100
0001
0000
1001
0000
0000
,
0002
0000
0013
0100
1000
0000
0000
1100
,
0000
1000
0010
0100
0010
0000
0100
0000
,
0101
0000
0001
0010
0001
0000
0000
0101
,
0000
0100
0000
0001
0100
0001
0000
0000
,
0011
0000
0000
1010
0000
0000
1000
0001
,
0000
1000
0001
1000
0100
0000
1000
0000
,
1100
0000
0000
0101
0000
0000
0001
1000
,
0000
0001
0100
0001
0100
0000
0010
0000
,
0110
0000
0000
1010
0000
0000
1000
0010
,
0000
1000
0001
1000
0100
0000
0010
0000
,
0110
0000
0000
0011
0000
0000
0001
2000
,
3000
0000
1000
1001
,
0001
0000
0100
0000
0010
1000
0001
0000
,
0010
0000
0100
0000
1000
0001
1000
0000
,
0001
0000
0100
0000
0001
0010
0001
0000
,
0100
0010
1000
0001
,
0010
0001
1010
0001
,
0100
0001
1100
0001
,
0010
0001
1010
0001
,
0100
0001
0010
1100
,
0000
1000
0001
1000
0001
0000
0010
0000
,
1000
0010
0100
1000
,
2002
0000
0000
0000
,
3003
0000
0000
0000
;

//--------------- dance-single - chrononical ----------------
#NOTES:
     dance-single:
     chrononical:
     Hard:
     14:
     0,0,0,0,0:
0000
0000
0000
0000
,
0000
0000
0000
0000
,
0000
0000
0000
0000
,
1000
0010
0000
1010
0000
0011
0000
0001
,
0010
0100
0000
1100
0000
0101
0000
0001
,
0100
0010
0000
1010
0000
0011
0000
0001
,
0010
0100
0001
0100
0010
0000
0110
0000
,
0100
1000
0001
0100
0010
0000
0110
0000
,
0200
0000
0301
0010
0100
0000
1100
0000
,
0200
0000
1300
0010
1000
0000
1010
0000
,
1000
0100
0010
0100
1000
0000
1100
0000
,
0100
0000
0110
0000
0010
0001
1000
0010
,
0100
1000
0100
0010
0100
0000
0110
0000
,
0020
0000
0130
0001
0010
0000
0100
1000
,
0010
0100
0001
1000
0100
0000
0110
0000
,
0011
0000
1010
0000
0010
0100
0001
0000
,
0102
0000
0103
0010
0000
0010
1000
0000
,
1010
0000
0011
0000
0010
0100
1000
0000
,
2100
0000
3100
0010
0000
0010
0001
0000
,
1001
0000
1010
0000
1000
0010
0100
0000
,
0201
0000
0301
0010
0000
0100
1000
0000
,
1001
1100
0101
1001
,
2002
0000
0000
3003
,
0102
0000
0103
0010
0000
0110
0000
1010
,
0000
1000
0100
0001
0100
1000
0001
0100
,
0020
0000
1030
0100
0000
1100
0000
0110
,
0000
0010
1000
0010
0001
1000
0001
0100
,
0020
0000
1030
0010
0001
1000
0100
0002
,
0000
1003
0100
0010
0001
0100
0010
1000
,
0002
0000
0103
1000
0100
0010
0000
0110
,
0000
0101
0000
0001
0010
0100
1000
0001
,
1000
0010
0000
0010
0002
0000
0013
1000
,
0000
0100
0010
0001
1000
0000
2001
0000
,
3001
0010
0000
0010
2000
0000
3010
0001
,
0000
0100
0010
1000
0001
0000
1002
0000
,
1003
0100
0000
0100
0002
0000
0103
1000
,
0000
0010
0001
0010
0100
0001
2000
0000
,
3001
0100
0000
0100
2000
0000
3100
0002
,
0003
0000
1001
0011
,
0001
0010
0000
0110
0000
1100
0000
1000
,
0010
0100
0000
0110
0000
0101
0000
0001
,
0010
0100
0000
0110
0000
1100
0000
1000
,
0010
0001
0010
1000
0001
0000
1001
0000
,
0011
0010
0110
0100
,
1100
1000
1010
0010
,
0110
0100
0101
0001
,
1000
0100
0001
0100
1000
0000
1001
0000
,
0011
0000
0000
1010
0000
1000
0010
0100
,
0001
0010
0100
0010
0001
0000
1001
0000
,
1010
0000
0000
0011
0000
0001
0010
0100
,
1000
0010
0100
0010
1000
0000
1001
0000
,
0101
0000
0000
1100
0000
1000
0100
0002
,
0000
0103
0000
1000
0001
0000
1001
0000
,
1100
0000
0000
0101
0000
0001
0100
0010
,
0100
0010
1000
0001
1000
0000
1001
0000
,
0011
0000
0000
0110
0000
0000
1100
0000
,
1000
0010
0000
0010
0000
0010
1000
0000
,
1010
0000
0000
0110
0000
0000
0101
0000
,
0001
0010
0000
0010
0000
0010
0001
0000
,
0011
0000
0000
0110
0000
0000
0011
0000
,
0001
1000
0000
1000
0000
1000
0001
0000
,
0101
0000
0000
0110
0000
0000
1010
0000
,
1000
0001
0000
0001
0000
0001
1000
0000
,
2002
0000
3003
0000
,
0000
0000
0000
0011
,
1001
0000
1100
0000
0100
0010
0100
0000
,
1200
0000
1300
0010
0000
0010
0100
0000
,
1001
0000
0101
0000
0100
0010
0100
0000
,
0201
0000
0301
0010
0000
0010
0100
0000
,
1001
0000
1010
0000
1000
0100
0010
0000
,
0120
0000
0130
1000
0000
0001
1000
0000
,
1001
1100
1001
0101
,
0001
1000
0001
1000
0000
0000
0100
0010
0100
0010
0000
0000
,
0001
0000
0010
0000
0100
0000
1000
0002
,
0000
0000
1003
0010
0100
0001
1000
0001
,
2000
0000
3001
0010
0001
0100
0000
0110
,
0000
0000
0110
0000
0010
1000
0001
0000
,
1000
0000
0001
0010
0000
0010
0100
0000
,
0100
1000
0000
0010
0100
0000
0110
0000
,
0010
0000
1000
0010
0000
0100
0001
2000
,
3000
0000
0000
1001
,
2010
0000
3010
0100
0000
0110
0000
0101
,
0000
0001
0010
1000
0010
0100
1000
0001
,
0200
0000
0310
0100
0000
0110
0000
1010
,
0000
1000
0100
0001
0100
0010
0100
1000
,
0002
0000
1003
0100
0001
1000
0010
0002
,
0000
1003
0010
0100
0001
1000
0010
0100
,
0002
0000
0013
1000
0010
0100
0000
0110
,
0000
1100
0000
1000
0010
0100
0001
1000
,
0001
0100
0000
0100
2000
0000
3100
0010
,
0000
1000
0100
0010
0001
0000
0011
0000
,
0001
0010
0000
0010
2000
0000
3010
0100
,
0000
1000
0010
0100
0001
0000
0101
0000
,
0100
1000
0000
0100
0002
0000
1003
0100
,
0000
1000
0100
0001
0100
0010
0100
0000
,
0010
1000
0000
0010
0002
0000
1003
0020
,
0030
0000
1010
1001
,
0001
0010
0000
0011
0000
1010
0000
1000
,
0010
0100
0000
0101
0000
1100
0000
1000
,
0100
0010
0000
0011
0000
1010
0000
1000
,
0010
0001
0010
0100
0010
0000
1001
0000
,
0001
0010
0001
0000
1100
0000
0001
0000
,
0100
0001
0100
0000
1010
0000
0001
0000
,
0010
0001
0010
0000
1100
0000
0001
0000
,
0100
0001
0100
0000
0010
0000
1010
0000
,
0000
1000
0100
0001
0100
0010
0100
1000
,
0001
0100
1000
0100
0010
0100
0001
1000
,
0002
0000
0000
0000
,
0003
0000
0000
0000
;
