#TITLE:It Happened In Sun Valley;
#SUBTITLE:;
#ARTIST:Stan Marsh and Wendy Testaburger;
#TITLETRANSLIT:;
#SUBTITLETRANSLIT:;
#ARTISTTRANSLIT:;
#CREDIT:;
#BANNER:It Happened in Sun Valley.png;
#BACKGROUND:It Happened in Sun Valley-bg.png;
#LYRICSPATH:;
#CDTITLE:;
#MUSIC:It Happened in Sun Valley.ogg;
#OFFSET:-0.372;
#SAMPLESTART:47.173;
#SAMPLELENGTH:12.000;
#SELECTABLE:YES;
#BPMS:0.000=206.364,3.000=206.348,4.000=205.005,5.000=204.009,16.000=205.802,22.000=205.786,23.000=198.917,24.000=203.023,26.000=202.992,27.000=203.023,28.000=202.992,29.000=203.023,30.000=202.992,31.000=203.023,32.000=202.992,33.000=203.023,34.000=202.992,35.000=203.023,36.000=202.992,37.000=203.023,38.000=202.992,39.000=203.008,40.000=202.992,41.000=203.008,42.000=202.992,43.000=203.008,44.000=202.992,45.000=203.008,46.000=202.992,47.000=203.008,48.000=205.005,51.000=204.989,52.000=205.005,54.000=204.989,55.000=205.005,57.000=204.989,58.000=205.005,60.000=204.989,61.000=205.005,62.000=203.008,63.000=203.023,64.000=202.992,65.000=203.008,66.000=202.992,67.000=203.008,68.000=202.992,69.000=203.008,70.000=202.992,71.000=203.008,72.000=202.992,73.000=203.008,74.000=202.992,75.000=203.008,76.000=193.804,76.667=204.309,77.000=188.220,78.000=205.005,79.000=205.021,80.000=205.515,81.000=205.499,83.000=205.515,84.000=205.499,86.000=205.515,87.000=205.499,89.000=205.515,90.000=205.499,92.000=190.373,93.000=203.476,94.000=205.005,96.000=204.989,97.000=205.005,100.000=204.989,101.000=205.005,103.000=204.989,104.000=210.217,105.000=211.291,106.000=194.387,107.000=205.005,108.000=196.262,108.667=225.057,109.000=204.989,110.000=205.005,112.000=204.989,113.000=205.005,115.000=204.989,116.000=205.005,118.000=197.168,119.000=189.936,120.000=202.510,121.000=202.495,123.000=202.510,124.000=180.061,125.000=205.403,130.000=205.387,131.000=205.403,134.000=203.507,136.000=203.492,137.000=203.507,138.000=203.492,139.000=203.507,140.000=203.492,141.000=203.507,142.000=203.492,143.000=203.507,144.000=203.492,145.000=203.507,146.000=203.492,147.000=203.507,149.000=203.492,150.000=203.507,151.000=203.492,152.000=203.507,153.000=203.492,154.000=203.507,155.000=203.492,156.000=203.507,157.000=203.492,158.000=203.507,159.000=256.544,160.000=208.003,161.000=205.946,161.500=212.257,162.000=215.000,167.000=215.017,168.000=215.000,171.000=219.567,172.000=210.618,173.000=215.000,178.000=215.017,179.000=215.000,180.000=205.387,181.000=215.000,186.000=215.017,187.000=215.000,192.000=215.017,193.000=215.000,198.000=215.017,199.000=214.407,200.000=214.390,203.000=214.407,204.000=214.390,208.000=214.407,209.000=214.390,212.000=214.407,213.000=214.390,216.000=214.407,217.000=214.390,220.000=214.407,221.000=215.490,222.000=208.972,223.000=199.864,224.000=215.000,228.000=241.357,229.000=193.846,230.000=215.000,235.000=215.017,236.000=215.000,241.000=215.017,242.000=215.000,244.000=209.551,245.000=220.739,246.000=215.000,248.000=201.385,249.000=216.124,250.000=210.618,251.000=214.442,251.667=226.794,252.000=218.407,253.000=213.887,254.000=228.044,255.000=215.000,256.000=214.008,257.000=213.991,258.000=214.008,259.000=213.991,260.000=214.008,261.000=213.991,262.000=214.008,263.000=214.965,264.000=213.473,265.000=205.005,266.000=208.003,269.000=213.009,270.000=212.992,271.000=213.009,272.000=212.992,273.000=213.009,274.000=212.992,275.000=213.009,276.000=212.992,277.000=213.009,278.000=212.992,280.000=213.009,281.000=212.992,282.000=213.009,283.000=212.992,284.000=213.009,285.000=212.992,286.000=213.009,287.000=212.992,288.000=215.000,293.000=215.017,294.000=215.000,299.000=215.017,300.000=215.000,305.000=215.017,306.000=215.000,311.000=215.017,312.000=215.000,317.000=215.017,318.000=215.000,319.000=199.442,320.000=215.104,321.000=215.087,322.000=215.104,323.000=215.087,324.000=215.104,325.000=215.087,326.000=215.104,327.000=215.087,329.000=203.460,330.000=215.174,332.000=215.157,333.000=215.174,335.000=215.157,336.000=215.174,338.000=215.157,339.000=215.174,342.000=215.157,343.000=215.174,345.000=215.157,346.000=215.174,347.000=201.539,348.000=207.595,349.000=228.044,350.000=214.912,351.000=214.930,352.000=214.912,355.000=214.930,356.000=214.912,360.000=214.930,361.000=214.912,365.000=214.930,366.000=214.912,370.000=214.930,371.000=214.912,374.000=214.930,375.000=214.912,376.000=189.325,377.000=215.157,378.000=215.174,379.000=215.157,381.000=240.152,382.000=215.157,384.000=215.174,385.000=215.157,389.000=215.174,390.000=215.157,391.000=194.874,392.000=208.003,396.000=216.708,397.000=251.641,398.000=215.000,408.000=187.686,409.000=215.000,416.000=213.009,417.000=212.992,418.000=213.009,419.000=212.992,420.000=213.009,421.000=209.005,423.000=208.988,424.000=209.005,427.000=208.988,428.000=212.002,433.000=211.985,434.000=212.002,441.000=211.985,442.000=212.002,447.000=194.088,448.000=212.002,453.000=211.985,454.000=212.002,456.000=211.799,459.000=211.816,460.000=211.799,471.000=211.816,472.000=211.799,483.000=211.816,484.000=211.799;
#STOPS:;
#BGCHANGES:;

//---------------dance-single - ----------------
#NOTES:
     dance-single:
     :
     Easy:
     8:
     0.294,0.379,0.042,0.247,0.007: // measure 1
0000
0000
0000
0000
,  // measure 2
0000
0000
0000
0000
,  // measure 3
0000
0000
0000
0000
,  // measure 4
0000
0000
0000
0000
,  // measure 5
1000
0000
1000
0000
,  // measure 6
1000
0100
0010
0000
,  // measure 7
0001
0000
0001
0000
,  // measure 8
0001
0100
0010
0000
,  // measure 9
1000
0000
0100
0000
,  // measure 10
0001
0000
0100
0000
,  // measure 11
1000
1000
1000
0000
,  // measure 12
0010
0000
0000
0000
,  // measure 13
0100
0100
0100
0000
,  // measure 14
0001
0001
0001
0000
,  // measure 15
0010
0000
0000
0020
0000
0000
0000
0000
,  // measure 16
0030
0000
0001
0000
,  // measure 17
1000
1000
1000
0000
,  // measure 18
0010
0010
0010
0000
,  // measure 19
0100
0000
0000
0200
0000
0000
0000
0000
,  // measure 20
0300
0000
0000
0000
,  // measure 21
0001
0000
0001
0000
,  // measure 22
0001
0010
0100
0000
,  // measure 23
1000
0000
1000
0000
,  // measure 24
1000
0000
0010
0000
,  // measure 25
0001
0000
0010
0000
,  // measure 26
1000
0000
0100
0000
,  // measure 27
0010
0001
0001
0000
,  // measure 28
0000
0000
0000
0000
,  // measure 29
1000
0010
1000
0000
,  // measure 30
0001
0010
0001
1000
,  // measure 31
0002
0000
0000
0000
,  // measure 32
0003
0000
0000
0000
,  // measure 33
1000
0000
0100
0000
,  // measure 34
0001
0100
2000
0000
,  // measure 35
3001
0000
0100
0000
,  // measure 36
1000
0100
0002
0000
,  // measure 37
1003
0000
0200
0000
,  // measure 38
0301
0000
0100
0000
,  // measure 39
2000
0000
0000
0000
,  // measure 40
0000
3000
0000
0000
,  // measure 41
0001
0000
0000
0002
0000
0000
0000
0000
,  // measure 42
0003
0000
0100
0000
,  // measure 43
1000
0000
0000
2000
0000
0000
0000
0000
,  // measure 44
3000
0000
0100
0000
,  // measure 45
0001
0000
0000
0002
0000
0000
0000
0000
,  // measure 46
0003
0000
1000
0000
0000
0100
0000
0000
,  // measure 47
0002
0000
0000
0000
,  // measure 48
0003
0000
0100
0100
,  // measure 49
1000
0000
0010
0000
,  // measure 50
0100
0000
1000
0000
,  // measure 51
0200
0000
0000
0000
,  // measure 52
0300
0000
0001
0001
,  // measure 53
0010
0000
0100
0000
,  // measure 54
0001
0000
0100
0000
,  // measure 55
2000
0000
0000
0000
,  // measure 56
0000
3010
0000
0010
,  // measure 57
0100
0000
0000
0200
0000
0000
0000
0000
,  // measure 58
0300
0000
0001
0000
,  // measure 59
0010
0000
0000
0020
0000
0000
0000
0000
,  // measure 60
0030
0000
0001
0000
,  // measure 61
0100
0000
0000
0200
0000
0000
0000
0000
,  // measure 62
0300
0000
0100
0000
0000
0001
0000
0000
,  // measure 63
0020
0000
1000
0000
,  // measure 64
1030
0000
0010
0001
,  // measure 65
0200
0000
1000
0000
,  // measure 66
0001
0000
1000
0000
,  // measure 67
0310
0000
1000
0000
,  // measure 68
0100
0000
0010
0001
,  // measure 69
0100
0001
1000
0001
,  // measure 70
0100
0000
0010
0000
,  // measure 71
2000
0000
0100
0000
,  // measure 72
0010
0000
0100
0000
,  // measure 73
3002
0000
0000
0000
0000
0003
0000
0000
0000
0000
0000
0000
,  // measure 74
0000
1000
0100
0010
,  // measure 75
0200
0000
0000
0000
0000
0300
0000
0000
0000
0000
0000
0000
,  // measure 76
0000
0000
1000
0010
,  // measure 77
0200
0000
0000
0000
0000
0300
0000
0000
0000
0000
0000
0000
,  // measure 78
0000
0000
0000
2002
0000
0000
0000
0000
0000
0000
3003
0000
,  // measure 79
0000
0000
0001
0001
,  // measure 80
0010
0000
0100
1000
,  // measure 81
0200
0000
0000
0000
0000
0000
0000
0000
0000
0001
0000
0000
0000
0000
0000
0000
0000
0000
0000
0000
0000
0000
0310
0000
,  // measure 82
0000
0000
0100
1000
,  // measure 83
0001
0000
0100
0000
,  // measure 84
0010
0010
1000
0001
,  // measure 85
1000
0000
1100
0000
,  // measure 86
0001
0000
0000
0000
0000
0000
0101
0000
0000
0000
0000
0110
,  // measure 87
0000
0000
1000
0100
,  // measure 88
0010
0100
1000
1000
,  // measure 89
0001
0000
0000
0002
0000
0000
0000
0000
,  // measure 90
0003
0000
0100
0000
0000
0010
0000
0000
,  // measure 91
1000
0000
0000
2000
0000
0000
0000
0000
,  // measure 92
3000
0000
0100
0000
0000
0010
0000
0000
,  // measure 93
0001
0000
0000
0002
0000
0000
0000
0000
,  // measure 94
0003
0000
0001
0000
0000
0100
0000
0000
,  // measure 95
2000
0000
0000
0000
,  // measure 96
3000
0000
0100
0001
,  // measure 97
0020
0000
1000
0000
,  // measure 98
0001
0000
1000
0000
,  // measure 99
0130
0000
1000
0010
,  // measure 100
0100
0000
1000
0100
,  // measure 101
0010
1000
0001
1000
,  // measure 102
0200
0000
0320
0000
,  // measure 103
0032
0000
0100
0100
,  // measure 104
1003
0000
0001
0000
,  // measure 105
0100
0000
0100
0000
,  // measure 106
1000
0100
0010
1000
,  // measure 107
0100
0000
0100
0000
,  // measure 108
0001
0100
0010
0001
,  // measure 109
0100
0000
1000
0000
,  // measure 110
0100
0010
1000
0100
,  // measure 111
0010
0001
2002
0000
,  // measure 112
3003
0000
1000
0000
,  // measure 113
0010
0100
0000
0100
,  // measure 114
0001
0100
0000
0100
,  // measure 115
1000
0100
0000
0100
,  // measure 116
0001
0100
0000
0010
,  // measure 117
1000
0010
0000
0010
,  // measure 118
0001
0010
0000
0010
,  // measure 119
0100
0000
0001
0000
,  // measure 120
0011
0000
0000
0000
;

//---------------dance-single - ----------------
#NOTES:
     dance-single:
     :
     Medium:
     10:
     0.439,0.547,0.219,0.410,0.092:
0000
0000
0000
0000
,
0000
0000
0000
0000
,
0000
0000
0000
0000
,
0000
0000
0000
0000
,
1000
0010
1000
0001
,
1000
0100
0010
0000
,
0001
0100
0001
1000
,
0001
0100
0010
0000
,
1000
0100
0010
0000
,
0001
0100
0010
0000
,
1000
1000
0001
0020
,
1030
0000
0000
0000
,
0010
0010
0001
0000
,
1000
0010
1000
0001
,
0100
0000
0000
0200
0000
0000
0000
0000
,
0300
0000
1000
0100
,
0010
1000
0100
0100
,
0010
1000
0010
0010
,
0100
0000
0000
0200
0000
0000
0000
0000
,
1300
0000
0000
0000
,
1000
0010
1000
0100
,
0010
0100
1000
0000
,
0001
0100
0002
0003
,
0001
0100
0010
0000
,
0010
0100
0001
0000
,
1000
0100
0010
0000
,
0011
0000
0000
0001
0000
0000
1001
0000
0000
1000
0000
0001
,
0000
0000
0000
0000
,
1000
0010
0110
0000
,
0001
0010
0100
1000
,
2001
0000
0100
0000
,
3010
0000
0000
0000
,
0010
0100
1000
0100
,
0001
1000
0200
0000
,
0301
0100
1000
0100
,
0010
0001
2000
0000
,
3010
1000
1200
0000
,
0310
0001
0101
0001
,
2001
0000
0100
0000
,
0010
0010
3001
0001
,
0011
0000
0000
1002
0000
0000
1000
0000
,
0103
0000
0001
0000
0000
1000
0000
0000
,
0100
0000
0000
0120
0000
0000
0031
0000
,
1000
0000
0010
0000
0000
0100
0000
0000
,
0001
0000
0000
1002
0000
0000
0000
0000
,
0003
0000
0010
0000
0000
0100
0000
0000
,
1001
0000
1000
0000
0000
1000
0000
0000
0000
0010
0000
0000
,
0100
0000
0001
0010
,
0200
1300
0200
0310
,
0002
0100
2003
0100
,
3002
0013
0002
1003
,
0010
0100
0001
0010
,
0200
0000
0301
0000
0000
0000
0200
0000
1300
0000
0000
0000
,
0020
0000
0031
0000
0000
0000
0020
0000
1030
0000
0000
0000
,
0000
1000
1001
0000
,
1001
0001
0000
0010
,
0100
0000
0000
0000
0000
0000
0000
0000
0000
0002
0000
0000
0000
0000
0000
0000
0000
0000
0203
0000
0000
0000
0300
0000
,
0000
0000
1000
0000
0000
0010
0000
0000
,
0100
0000
0000
0000
0000
0000
0000
0000
0000
2000
0000
0000
0000
0000
0000
0000
0000
0000
3200
0000
0000
0000
0300
0000
,
0000
0000
0001
0000
0000
0010
0000
0000
,
0200
0000
0000
0000
0000
0000
0000
0000
0000
0302
0000
0000
0000
0000
0000
0000
0000
0000
2003
0000
0000
0000
3000
0000
,
0000
0000
0010
0000
0000
0001
0000
0000
,
0200
0000
0000
0010
0000
0000
0310
0000
0000
0010
0000
1000
,
0000
0000
1001
0000
0000
0000
0001
0000
0000
0010
0000
0000
,
0200
0301
0200
0310
,
0002
0103
0020
0130
,
1000
0000
0000
0100
0000
0000
0002
0000
0000
0000
0000
1000
,
0000
0000
1003
0000
0000
0000
1000
0000
0000
0100
0000
0000
,
0010
0100
0001
0100
,
2000
0000
0000
0000
0000
0000
0001
0000
0000
0000
3002
0000
,
0000
0000
0100
0100
,
1000
0000
0000
0000
0000
0010
0000
0000
0013
0000
0000
0000
,
0002
0000
0000
0000
0000
0003
0000
0000
0000
0000
0000
0000
,
0000
1000
1000
0100
,
0020
0000
0000
0000
0000
0030
0000
0000
0000
0000
0000
0000
,
0000
0000
0001
0100
,
0020
0000
0000
0030
0000
0000
0000
0000
,
0000
0000
0000
1000
0000
0000
0000
0000
0000
1000
0000
0100
,
0000
0010
0001
0100
,
0010
1000
0001
0000
,
0001
0000
0000
0000
0000
0000
0000
0000
0000
0022
0000
0000
0000
0000
0000
0033
0000
0000
0010
0000
0000
0000
0001
0000
,
0000
0000
1000
0010
,
0100
0000
0000
0000
0000
0000
1000
0000
0100
0000
0000
0010
,
0000
0000
1000
0000
0000
0001
0000
0000
0010
0000
0000
0100
,
0010
0000
1001
0000
,
0110
0000
0000
0000
0000
0000
1001
0000
0000
0000
0000
0011
,
0000
0001
0100
0010
,
1000
0100
0010
0001
,
0100
0000
0000
0220
0000
0000
0000
0330
,
1000
0000
0100
0000
0000
0010
0000
0000
,
0001
0000
0000
2002
0000
0000
3003
0000
,
1000
0000
0010
0000
0000
0100
0000
0000
,
0001
0000
0000
0022
0000
0000
0000
0033
,
0000
0000
0011
0000
0000
1000
0000
0000
,
1100
0000
0000
1000
0000
0000
0001
0000
0000
0001
0000
0100
,
0000
0000
0010
1000
,
0200
0301
0200
0310
,
2000
3010
0200
0310
,
0001
0000
0000
1000
0000
0000
0010
0000
0000
0100
0000
0001
,
0000
0000
1001
0000
0000
0000
1000
0000
0000
0010
0000
0000
,
0100
0010
1000
0001
,
0010
0000
0000
0000
0011
0000
0000
2002
,
0000
3000
0100
0100
,
1003
0000
0001
0000
,
1000
0100
0001
0100
,
1000
0100
0010
0000
,
0001
0100
1000
0100
,
0001
0100
0010
0000
,
1000
0100
0001
0000
,
0100
0010
0110
0000
,
1001
1000
2020
0000
,
3030
0000
0002
0000
,
1003
0100
0000
0001
,
0100
0010
0000
0001
,
0100
1000
0000
0100
,
0010
1000
0000
0100
,
0010
0001
0000
1000
,
0010
0100
0000
0001
,
2000
0000
0100
0000
,
3010
0000
0000
0000
,
0000
0000
0000
0000
,
0000
0000
0000
0000
,
0000
0000
0000
0000
,
0000
0000
0000
0000
,
0000
0000
0000
0000
;

//---------------dance-single - ----------------
#NOTES:
     dance-single:
     :
     Hard:
     14:
     0.685,0.673,0.523,0.283,0.463:
0000
0000
0000
0000
,
0000
0000
0000
0000
,
0000
0000
0000
0000
,
0000
0000
0000
0000
,
1000
0100
0010
0100
,
1000
0000
0010
0100
0010
0000
1000
0001
,
1000
0000
1000
0010
0000
0000
0001
0000
0000
0010
0000
0000
,
1000
0000
0001
0010
0001
0000
1000
0010
,
0100
0000
1000
0100
0001
0000
1000
0100
,
0010
0000
1000
0010
0001
0000
0100
0010
,
0001
0001
0011
0020
,
1030
0000
1000
0000
0000
1000
0100
0000
0100
0010
0000
0010
,
1000
0000
0000
0010
0000
0100
1000
0000
0000
0010
0000
0100
,
0001
0000
0001
0010
0000
0010
0100
0000
0000
0100
0000
0000
,
2000
0000
0000
3010
0000
0100
1000
0000
0100
0020
0000
0000
,
1030
0000
0000
0000
0000
0000
1000
0000
0000
0100
0000
0010
,
0001
0000
0000
1000
0000
0010
1000
0000
0000
0001
0000
0010
,
0100
0000
0100
1000
0000
0000
0010
0000
0000
0100
0000
0000
,
0001
0000
0000
0000
0000
0002
0000
0000
0000
0010
0000
0000
,
1003
0000
1000
0000
0000
1000
0010
0000
0010
0100
0000
0100
,
0001
0010
0110
0010
,
0011
0000
0001
1000
0010
0000
0010
0100
,
1000
0100
0220
0330
,
1010
0000
1000
0001
0010
0000
0100
0001
,
1000
0000
0010
0100
1000
0000
0010
0100
,
1000
0000
1000
0100
0001
0000
0010
0100
,
0101
0000
0000
0100
0000
0000
0110
0000
0000
0001
0000
0001
,
0000
0000
1000
0000
0000
1000
0010
0000
0010
0100
0000
0100
,
1000
0000
0000
0100
0000
0000
0210
0000
0000
0300
0000
0001
,
0010
0100
0110
0100
,
1002
1000
0100
0010
,
1003
0010
0100
0001
,
0011
0001
1001
0001
,
0011
0000
0010
0100
1000
0000
1000
0010
,
0110
0010
1010
0010
,
0110
0000
0100
0001
0010
0000
1000
0010
,
0001
0000
0100
0010
0001
0000
0010
1000
,
0100
0000
0001
0100
0010
0000
0001
0000
,
1000
0000
0010
0000
0000
0010
0100
0000
0100
0001
0000
0020
,
0000
0000
0130
1000
0000
0010
0000
0000
0000
0100
0000
0000
,
0101
0000
0000
0001
0000
1000
0200
0000
0000
0001
0000
0310
,
0100
1000
0010
0100
,
0001
0000
0000
0010
0000
0100
2000
0000
0000
0010
0000
3001
,
1000
0010
0100
1000
,
0100
0000
0000
0001
0000
0010
0200
0000
0000
0001
0000
0000
,
1300
0000
0010
0000
0000
0110
0000
0000
,
2001
0000
3010
0000
0000
0010
0200
0000
0000
0301
0000
1000
,
0100
0000
0100
0000
0000
0000
0100
0000
0000
0010
0000
0000
,
0002
0100
2003
0100
,
3002
0010
2003
0010
,
3001
0000
0000
0010
0000
0100
0010
0000
0100
0010
0000
0100
,
0010
0000
0010
0001
0000
0001
1000
0000
0000
0010
0000
0000
,
0200
0000
1000
0000
0000
0000
0302
0000
1000
0000
0000
0000
,
0023
0000
1000
0000
0000
0000
0032
0000
1000
0000
0000
0000
,
0013
0000
0001
0010
0000
0010
1000
0000
1000
0000
0000
0001
,
0100
0000
0100
1000
0000
1000
0010
0000
0000
0001
0000
0000
,
0011
0000
0000
0010
0000
0100
0002
0000
0013
0100
0000
0001
,
0000
0100
1000
0010
,
0100
0000
0000
1000
0000
0100
0002
0000
0013
0100
0000
0001
,
0000
1000
0010
0001
,
1000
0000
0000
0010
0000
0100
2000
0000
3100
0010
0000
0001
,
0000
0000
0010
0000
0000
0110
0000
0000
,
1002
0000
0000
0010
0000
0000
0013
0000
0000
0001
0000
1000
,
0000
0000
0010
0000
0000
0000
0100
0000
0000
0001
0000
0000
,
0011
1000
1010
0001
,
0101
1000
1100
0001
,
1001
0000
0000
0010
0000
0000
2002
0000
0000
3000
0000
0103
,
0000
0000
0101
0000
0000
0000
0100
0000
0000
0010
0000
0000
,
1000
0100
0001
0100
,
1000
0000
0010
0000
1010
0000
0000
1001
,
0000
0000
0011
0000
0000
0000
0110
0000
0000
1100
0000
0000
,
1001
0000
0101
0000
0000
1001
0000
0000
0011
0000
0000
0000
,
2001
0000
0000
0000
0000
3010
0000
0000
0010
0100
0000
0001
,
0000
0000
0001
1000
0000
0000
1000
0000
1000
0100
0000
0100
,
2000
0000
0000
0000
0000
3010
0000
0000
0010
0100
0000
0100
,
0010
0000
1010
1100
,
1002
0000
0000
0000
0000
0013
0000
0000
0010
0100
0000
0100
,
0010
0000
0000
0022
0000
0000
0033
0000
0000
1002
0000
0103
,
0000
0000
0001
1000
0000
1000
0010
0000
0010
0100
0000
0100
,
0001
0000
0001
0010
0000
0100
0000
0000
0000
1000
0100
0000
,
0010
0000
0000
0000
0000
1002
0000
0000
0003
1000
0000
0001
,
0000
0000
0001
0010
0000
0010
0100
0000
0000
1000
0000
0000
,
0100
0000
0000
0001
0000
0000
0100
0000
0010
0000
0000
0011
,
0000
0000
0101
0000
0000
0110
0000
0000
1010
0000
0000
1000
,
0001
0000
0010
0100
0000
0000
1000
0000
0010
0100
0000
0000
,
0001
0000
0010
0100
0000
0000
1000
0000
0010
0100
0000
0001
,
0000
0000
0000
1000
0000
1000
0100
0000
0100
0010
0000
2000
,
0000
0000
3010
0001
0000
1000
0010
0000
0000
0100
0000
0000
,
0101
0000
0000
0001
0000
0010
0200
0000
0000
0001
0000
1300
,
0100
0110
0001
1000
,
0010
0000
0000
0001
0000
1000
0200
0000
0000
0001
0000
1300
,
0100
1001
1000
0100
,
0010
0000
0001
0100
0000
0000
0010
0000
1000
0100
0000
0000
,
0010
0000
1001
0000
0000
0110
0000
0000
,
1001
0000
1000
0000
0000
1000
0001
0000
0010
0100
0000
0020
,
0030
0010
0000
0000
0010
0000
0001
0000
,
0101
0010
1100
0010
,
1001
0100
1010
0010
,
0101
0000
0000
0010
0000
0100
1000
0000
0000
0010
0000
0100
,
0000
0000
1001
0000
0000
0000
1000
0000
0000
0100
0000
0000
,
0101
0100
1100
1000
,
1010
0000
1000
0100
0000
0000
0011
0000
0001
0100
0000
0000
,
0110
0000
0000
1000
0000
0001
0010
0000
0100
1000
0000
0001
,
0100
0000
0110
1000
,
1100
0100
0001
0100
,
1000
0000
0010
0001
1000
0000
0100
0001
,
1000
0100
0001
0100
,
1000
0000
0010
0100
1000
0000
0001
0010
,
0100
0000
0001
0010
1000
0000
0010
0001
,
0100
0000
1000
0100
0001
0000
0010
0100
,
0101
0100
1100
1000
,
1001
0000
0110
0000
,
1001
0001
0001
0010
,
0100
0000
1000
0000
1000
0000
0010
0100
,
0010
0000
1000
0001
1000
0000
0100
0000
,
0010
0000
0001
0000
0001
0000
1000
0001
,
1000
0000
0010
0100
0010
0000
1000
0010
,
1000
0000
0001
0100
0001
0000
1000
0000
,
2100
0000
0001
0000
,
3010
0000
0000
0000
,
0000
0000
0000
0000
,
0000
0000
0000
0000
,
0000
0000
0000
0000
,
0000
0000
0000
0000
,
0000
0000
0000
0000
;

//---------------dance-single - ----------------
#NOTES:
     dance-single:
     :
     Challenge:
     12:
     0.493,0.676,0.170,0.346,0.240:
0000
0000
0000
0000
,
0000
0000
0000
0000
,
0000
0000
0000
0000
,
0000
0000
0000
0000
,
1000
0010
1000
0001
,
1000
0100
0010
0000
,
0001
0100
0001
1000
,
0001
0100
0010
0000
,
1000
0100
0010
0000
,
0001
0100
0010
0000
,
1000
1000
0001
0020
,
1030
0000
0000
0000
,
0010
0001
1001
0000
,
1000
0010
1000
0001
,
0100
0000
0000
0200
0000
0000
1000
0000
,
1300
0000
1000
0100
,
0010
1000
0100
0100
,
0010
1000
0010
0010
,
0100
0000
0000
0200
0000
0000
0000
0000
,
1300
0000
0001
0001
,
1000
0010
1000
0100
,
0010
0100
1000
0000
,
0001
0100
0002
0003
,
0001
0100
0010
0000
,
0010
0100
0001
0000
,
1000
0100
0010
0000
,
0011
0000
0000
0001
0000
0000
1001
0000
0000
1000
0000
0001
,
0000
0000
0010
0001
,
1000
0010
0110
0000
,
0001
0010
0100
1000
,
2001
0000
0100
0000
,
3010
0000
0000
0000
,
0010
0100
1000
0100
,
0001
1000
0200
0000
,
0301
0100
1000
0100
,
0010
0001
2000
0000
,
3010
1000
1200
0000
,
0310
0000
0001
0100
0001
0000
1000
0000
,
1001
0000
1000
0000
0000
1000
0100
0000
0100
0010
0000
0100
,
0000
0000
0010
0001
0000
1000
0000
0000
0000
0001
0000
0000
,
0011
0000
0000
0000
0000
0000
0000
0000
0000
1002
0000
0000
0000
0000
0000
0000
0000
0000
1003
0000
0000
0000
0001
0000
,
0100
0000
0010
0000
0000
1000
0000
0000
,
0100
0000
0000
0000
0000
0000
0000
0000
0000
0120
0000
0000
0000
0000
0000
0000
0000
0000
0031
0000
0000
0000
0001
0000
,
1000
0000
0010
0000
0000
0100
0000
0000
,
0001
0000
0000
1002
0000
0000
0000
0000
,
0003
0000
0010
0000
0000
0100
0000
0000
,
1001
0000
1000
0000
0000
1000
0000
0000
0000
0010
0000
0010
,
0100
0000
0100
0000
0000
0000
0001
0000
0000
0010
0000
0000
,
0200
1300
0200
0310
,
0002
0100
2003
0100
,
3002
0013
0002
1003
,
0010
0100
0001
0010
,
0200
0000
0301
0000
0000
0000
0200
0000
1300
0000
0000
0000
,
0020
0000
0031
0000
0000
0000
0020
0000
1030
0000
0000
0000
,
0000
0000
1000
0001
0000
1000
0001
0000
1000
0000
0000
0001
,
1000
0000
0001
1000
0000
0001
0000
0000
0000
0010
0000
0000
,
0100
0000
0000
0000
0000
0000
0000
0000
0000
0002
0000
0000
0000
0000
0000
0003
0000
0000
0001
0000
0000
0000
0100
0000
,
0000
0000
1000
0000
0000
0010
0000
0000
,
0100
0000
0000
0000
0000
0000
0000
0000
0000
2000
0000
0000
0000
0000
0000
3000
0000
0000
1000
0000
0000
0000
0100
0000
,
0000
0000
0001
0000
0000
0010
0000
0000
,
0200
0000
0000
0000
0000
0000
0000
0000
0000
0302
0000
0000
0000
0000
0000
0003
0000
0000
0001
0000
0000
0000
1000
0000
,
0000
0000
0010
0000
0000
0001
0000
0000
,
0200
0000
0000
0010
0000
0000
0310
0000
0000
0010
0000
1000
,
0000
0000
1001
0000
0000
0000
0001
0000
0000
0010
0000
0000
,
0200
0301
0200
0310
,
0002
0103
0020
0130
,
1000
0000
0000
0100
0000
0000
0002
0000
0000
0000
0000
1000
,
0000
0000
1003
0000
0000
0000
1000
0000
0000
0100
0000
0000
,
0010
0100
0001
0100
,
2000
0000
0000
0000
0000
0000
0001
0000
0000
0000
3002
0000
,
0000
0000
0100
0100
,
1003
0000
0100
0000
0000
0010
0000
0000
0010
0000
0000
0000
,
0002
0000
0000
0000
0000
0003
0000
0000
0000
0000
0000
0000
,
0000
0000
0000
1000
0000
0000
1000
0000
1000
0001
0000
0001
,
0200
0000
0000
0000
0000
0300
0000
0000
0000
0000
0000
0000
,
0000
0000
1000
0100
,
0020
0000
0000
0030
0000
0000
0000
0000
,
0000
0000
0000
1000
0000
0000
0000
0000
0000
1000
0000
0100
,
0000
MMMM
0001
0100
,
0010
0000
0000
1000
0000
0000
0001
0000
1000
0100
0000
0000
,
0010
0000
0000
0000
0000
0000
0000
0000
0000
0022
0000
0000
0000
0000
0000
0033
0000
0000
0010
0000
0000
0000
0001
0000
,
0000
0000
1000
0010
,
0100
0000
0000
0000
0000
0000
1000
0000
0100
0000
0000
0010
,
0000
0000
1000
0000
0000
0001
0000
0000
0010
0000
0000
0000
,
MMMM
0000
1000
0100
0000
0000
1001
0000
0001
0100
0000
0000
,
0110
0000
0010
1000
0000
0000
1001
0000
0001
0010
0000
0011
,
0000
0000
0000
0001
0000
0001
0100
0000
0100
0010
0000
1000
,
0000
0000
0100
0010
0000
0001
0100
0000
0000
0010
0000
0000
,
1000
0000
0000
0100
0000
0010
0200
0000
0000
0001
0000
0000
,
1300
0000
0010
0000
0000
0100
0000
0000
,
0001
0000
0000
0010
0000
0000
0100
0000
1000
0001
0000
0100
,
0010
0000
1000
0000
0000
0100
0000
0000
,
0010
0000
0000
0001
0000
0100
0020
0000
0000
0001
0000
0000
,
0130
0000
0110
0000
0000
0001
0000
0000
,
1001
0000
0000
0001
0000
0001
1000
0000
1000
0100
0000
0010
,
0000
0010
0000
0000
0010
0000
0001
0000
,
0200
1300
0200
0310
,
2000
3100
0002
0103
,
1000
0000
0001
0000
0000
0001
0010
0000
0000
0100
0000
1000
,
0000
0000
1001
0000
0000
0000
1000
0000
0000
0010
0000
0000
,
0100
0010
1000
0001
,
0010
0000
0000
0000
0011
0000
0000
2002
,
0000
0000
0000
3000
0000
1003
0001
0000
1000
0001
0000
1000
,
0001
0000
0001
0000
,
1000
0100
0001
0100
,
1000
0000
0100
0010
0001
0000
0000
0000
,
0001
0100
1000
0100
,
0001
0000
0100
0010
1000
0000
0001
1000
,
0100
0000
0010
0001
1000
0000
0010
0100
,
0001
0000
0010
0100
0010
0000
0001
1000
,
0001
0100
1002
0100
,
0013
0000
0002
0000
,
1003
0100
0000
0001
,
0100
0010
0000
0001
,
0100
1000
0000
0100
,
0010
1000
0000
0100
,
0010
0001
0000
1000
,
0010
0100
0000
0001
,
2000
0000
0100
0000
,
3010
0000
MMMM
0000
;
