#TITLE:インフェルノ;
#SUBTITLE:;
#ARTIST:Mrs. Green Apple;
#TITLETRANSLIT:INFERNO;
#SUBTITLETRANSLIT:;
#ARTISTTRANSLIT:;
#GENRE:J-ROCK;
#CREDIT:;
#BANNER:INFERNO.png;
#BACKGROUND:INFERNO-bg.png;
#LYRICSPATH:;
#CDTITLE:cdtitle.png;
#MUSIC:INFERNO.ogg;
#OFFSET:-0.584000;
#SAMPLESTART:38.022999;
#SAMPLELENGTH:15.000000;
#SELECTABLE:YES;
#BPMS:0.000000=185.000000
,80.000000=92.500000
,94.000000=185.000000
,182.000000=92.500000
,196.000000=185.000000
;
#STOPS:240.000000=0.973000
;
#BGCHANGES:0.000=INFERNO.avi=1.000=0=0=0=StretchNoLoop==CrossFade_Fastest==,
99999=-nosongbg-=1.000=0=0=0 // don't automatically add -songbackground-
;
#KEYSOUNDS:;
#ATTACKS:;

//---------------dance-single - Daff_4K----------------
#NOTES:
     dance-single:
     Daff_4K:
     Beginner:
     2:
     0.124672,0.198844,0.044188,0.000000,0.000000,79.000000,75.000000,4.000000,0.000000,0.000000,0.000000,0.124672,0.198844,0.044188,0.000000,0.000000,79.000000,75.000000,4.000000,0.000000,0.000000,0.000000:
0000
0000
0000
0000
,
0000
0000
0000
0000
,
0000
0000
0000
0000
,
0000
0000
0000
0000
,
1000
0000
0000
0000
,
0001
0000
0000
0000
,
0100
0000
0100
0000
,
0100
0000
0000
0000
,
0001
0000
0000
0000
,
1000
0000
0000
0000
,
0100
0000
0100
0000
,
0100
0000
0000
0000
,
0010
0000
0000
0000
,
0001
0000
0000
0000
,
1000
0000
1000
0000
,
0010
0000
0000
0000
,
0010
0000
0000
0000
,
1000
0000
0000
0000
,
0001
0000
0001
0000
,
0010
0000
0000
0000
,
0010
0000
0010
0000
,
0100
0000
0100
0000
,
1000
0000
0001
0000
,
0100
0100
0100
0000
,
0000
0000
0000
0000
,
0000
0000
1001
0000
,
0000
0000
1000
0000
,
0000
0000
0001
0000
,
0001
0000
1000
0000
,
0000
0000
0010
0000
,
0000
0000
0100
0000
,
0000
0000
0010
0000
,
0010
0000
0100
0000
,
0000
0000
1001
0000
,
0000
0000
0001
0000
,
0000
0000
1000
0000
,
1000
0000
0001
0000
,
0000
0000
0010
0000
,
0000
0000
0100
0000
,
0000
0000
0010
0000
,
0010
0000
0100
0000
,
0000
0000
1000
0000
,
1000
0000
1000
0000
,
0000
0000
0001
0000
,
0001
0000
0001
0000
,
0000
0000
1001
0000
,
0000
0000
0000
0000
,
0000
0000
1000
0000
,
1000
0000
0001
0000
,
0001
0000
0000
0000
,
1001
0000
0000
0000
,
1000
0000
0000
0000
,
0001
0000
0001
0000
,
0100
0000
0000
0000
,
0010
0000
0000
0000
,
0010
0000
0000
0000
,
0100
0000
0100
0000
,
0100
0000
0000
0000
,
0001
0000
0001
0000
,
1000
0000
1000
0000
,
0100
0000
0000
0000
;

//---------------dance-single - Daff_4K----------------
#NOTES:
     dance-single:
     Daff_4K:
     Easy:
     5:
     0.266704,0.332788,0.099422,0.353501,0.000000,169.000000,160.000000,9.000000,32.000000,0.000000,0.000000,0.266704,0.332788,0.099422,0.353501,0.000000,169.000000,160.000000,9.000000,32.000000,0.000000,0.000000:
0000
0000
0000
0000
,
0000
0000
0000
0000
,
0000
0000
0000
0000
,
0000
0000
0000
0000
,
1000
0001
1000
0000
,
0020
0000
0130
0000
,
0001
0001
1000
0000
,
0100
0010
0010
0000
,
0001
1000
0001
0000
,
0200
0000
0310
0000
,
1000
1000
0001
0000
,
0100
0010
0100
0000
,
0001
1000
0001
0000
,
0020
0000
0130
0000
,
1000
1000
0001
0001
,
0100
0010
0010
0000
,
1000
0001
1000
0000
,
0200
0000
0310
0000
,
0001
0001
1000
1000
,
0100
0010
0100
0000
,
2000
0000
3010
0100
,
0002
0000
0013
0100
,
2000
0000
3002
0000
,
0103
0010
0200
0000
,
0300
0000
2002
0000
,
3003
0000
2000
0000
,
3010
0100
0020
0000
,
1030
0001
2000
0000
,
3100
0010
0002
0000
,
1003
0000
0002
0000
,
0013
0100
0020
0000
,
0031
1000
0002
0000
,
0103
0010
0110
0000
,
1001
0000
2000
0000
,
3100
0010
0002
0000
,
0103
0010
0200
0000
,
0301
1000
0200
0000
,
0320
0000
0031
0100
,
0001
0000
1000
0100
,
1000
0000
0001
0010
,
0001
0000
1000
0010
,
1000
0000
0100
0100
,
0010
0010
0001
0001
,
1000
1000
0010
0100
,
0001
1000
1001
0000
,
0110
0000
1001
0000
,
0000
0000
0000
0000
,
0000
0000
0002
0000
,
2003
0000
3010
0100
,
0110
0000
1001
0000
,
0002
0000
0103
0010
,
2000
0000
3100
0010
,
0200
0000
1300
0001
,
0200
0000
0320
0000
,
1030
0100
1000
1000
,
0001
0100
0001
0001
,
1000
0010
1000
1000
,
0001
0010
0001
0001
,
0100
0100
0010
0010
,
1000
1000
0001
0001
,
2002
3003
0000
0000
;

//---------------dance-single - Daff_4K----------------
#NOTES:
     dance-single:
     Daff_4K:
     Medium:
     7:
     0.345611,0.399346,0.088375,0.629674,0.000000,219.000000,211.000000,8.000000,57.000000,0.000000,0.000000,0.345611,0.399346,0.088375,0.629674,0.000000,219.000000,211.000000,8.000000,57.000000,0.000000,0.000000:
0000
0000
0000
0000
,
0000
0000
0000
0000
,
0000
0000
0000
0000
,
0000
0000
0000
0000
,
1000
0010
0100
0010
,
2000
0100
3001
0000
,
1000
0100
0010
0001
,
0100
0010
1000
0001
,
1000
0100
0010
0100
,
2000
0010
3001
0000
,
1000
0010
0100
0001
,
0010
0100
0000
0010
0100
0000
1000
0000
,
0001
0010
0100
0010
,
0002
0100
1003
0000
,
0001
0100
0010
1000
,
0100
0010
0001
1000
,
0001
0100
0010
0100
,
0002
0010
1003
0000
,
0001
0010
0100
1000
,
0010
0100
0010
0000
2002
0000
3003
0000
,
2000
0000
3100
0010
0200
0000
1300
0000
,
0002
0000
0103
0010
0200
0000
0301
0000
,
1000
0100
1000
0000
0001
0100
0001
0000
,
0020
0100
0200
0000
,
0330
0000
2002
0000
,
0000
3003
2000
0010
,
3002
0010
2003
0100
,
3002
0100
0023
0100
,
0032
1000
0203
0010
,
0310
1000
0002
0010
,
2003
0010
3002
0100
,
2003
0100
3020
0100
,
2030
0000
0001
0000
3100
0010
0000
0000
,
0001
1000
0000
0000
0002
0000
0100
0000
,
2003
0010
3002
0010
,
2003
0100
3020
0100
,
2030
0001
3200
0010
,
1300
0001
1000
0010
,
1000
0001
0010
0001
,
1000
0100
1000
0001
,
0100
0000
0001
0000
0010
0000
0100
0010
,
0100
1000
0002
0010
,
1000
0100
2003
0010
,
0001
0100
3020
0230
,
0302
1003
1001
0000
,
0110
0000
1001
0000
,
0000
0000
0000
0000
,
0000
0000
0002
0013
,
2000
3010
0002
1003
,
0110
0000
1001
0000
,
2000
0100
3002
0010
,
2003
0010
3002
0100
,
0023
0100
0032
1000
,
0203
0010
0301
1000
,
0001
0010
0001
1000
,
0010
1000
0001
0100
,
0001
1000
0100
1000
,
0010
0000
0100
0010
0100
0000
0001
0000
,
2000
3200
0320
0031
,
0002
0203
0320
1030
,
2002
3003
0000
0000
;

//---------------dance-single - Daff_4K----------------
#NOTES:
     dance-single:
     Daff_4K:
     Hard:
     11:
     0.514471,0.599019,0.541299,0.806425,0.000000,326.000000,277.000000,49.000000,73.000000,0.000000,0.000000,0.514471,0.599019,0.541299,0.806425,0.000000,326.000000,277.000000,49.000000,73.000000,0.000000,0.000000:
0000
0000
0000
0000
,
0000
0000
0000
0000
,
0000
0000
0000
0000
,
0000
0000
0000
0000
,
2000
3010
0200
0310
,
2000
0000
3100
0010
0200
0000
1300
0000
,
0001
0100
0010
0000
0100
0001
1000
0000
,
0100
0010
0002
0000
2003
0000
3010
0100
,
0002
0013
0200
0310
,
0002
0000
0103
0010
0200
0000
0301
0000
,
1000
0100
0010
0000
0100
1000
0001
0000
,
0100
0010
0000
1000
0001
0000
1001
0000
,
2000
3200
0320
0032
,
2003
0000
3010
0100
0002
0000
1003
0000
,
0001
0010
0100
0010
0001
0000
1000
0000
,
0010
0100
0002
0000
2003
0000
3100
0010
,
0002
0203
0320
2030
,
3002
0000
0013
0100
2000
0000
3001
0000
,
1000
0010
0100
0010
1000
0000
0001
0000
,
0010
0100
1000
0000
2002
0000
3003
0000
,
0001
0010
0100
0010
2000
0000
3010
0001
,
1000
0010
0100
0010
0002
0000
0013
1000
,
0100
0100
0010
0010
0001
0100
0010
1000
,
0200
0010
0310
0000
2002
0000
0000
0000
,
3003
0000
0000
0000
0100
0010
0100
1000
,
0001
0000
0110
0000
2001
0000
3100
0010
,
0002
0000
1003
0010
0200
0000
0301
0010
,
0200
0000
1300
0001
0020
0000
0031
1000
,
0020
0000
0130
0001
0020
0000
1000
0000
,
0130
1000
0001
0000
1002
0000
0103
0010
,
2000
0000
3001
0010
0200
0000
1300
0010
,
0200
0000
0301
1000
0020
0000
1030
0001
,
0020
0130
2002
3003
,
0220
0000
0330
0000
1002
0000
0103
0010
,
2000
0000
3001
0010
0200
0000
1300
0010
,
0002
0000
0013
1000
0200
0000
0310
0001
,
2000
3010
0110
1001
,
1100
0000
0011
0000
0001
0100
0001
0000
,
1000
0100
1000
0000
0001
0010
0100
0000
,
1000
0010
0100
0000
0001
1000
0100
0000
,
0010
0001
1000
0000
2100
0000
3001
0000
,
0102
1003
1010
1001
,
1100
1001
0011
1001
,
0101
1001
0011
1100
,
1010
0101
2002
3003
,
0220
0330
1001
0000
,
0000
0000
0000
0000
,
0000
0000
2000
0010
,
3002
0000
0010
0000
0103
0001
1000
0000
,
2002
3003
0220
0330
,
2001
0000
3100
0010
0002
0000
1003
0010
,
0200
0000
0301
0010
2000
0000
3010
0001
,
0200
0000
0310
1000
0002
0000
0013
0000
,
0110
1001
0101
1010
,
1000
0100
0010
0100
1000
0001
0010
0000
,
0001
0100
0010
0100
0001
1000
0010
0000
,
1000
0100
0010
0000
0001
0100
0010
0000
,
0110
1001
0110
1001
,
1010
0101
1010
1001
,
0011
1100
0011
1001
,
0200
0310
0000
0000
;

//---------------dance-single - Daff_4K----------------
#NOTES:
     dance-single:
     Daff_4K:
     Challenge:
     14:
     0.656502,0.665577,0.618627,0.629674,0.237509,416.000000,360.000000,56.000000,57.000000,0.000000,0.000000,0.656502,0.665577,0.618627,0.629674,0.237509,416.000000,360.000000,56.000000,57.000000,0.000000,0.000000:
// measure 0
0000
0000
0000
0000
,  // measure 1
0000
0000
0000
0000
,  // measure 2
0000
0000
0000
0000
,  // measure 3
0000
0000
0000
0000
,  // measure 4
1010
0101
0011
1100
,  // measure 5
1002
0000
0103
0010
0200
0000
0301
1000
,  // measure 6
0001
0010
0100
1000
0001
1000
0010
0100
,  // measure 7
0001
1000
0100
0000
0110
0000
1001
0000
,  // measure 8
0011
1100
1010
0101
,  // measure 9
2001
0000
3100
0010
0200
0000
1300
0001
,  // measure 10
1000
0010
0100
0001
1000
0001
0010
0100
,  // measure 11
1000
0001
0100
0010
0100
0000
1001
0000
,  // measure 12
0011
1010
1100
0101
,  // measure 13
2001
0000
0000
0000
3010
0000
0100
0000
0002
0000
0000
0000
0013
0000
0100
0010
,  // measure 14
0100
1000
0001
1000
0010
0100
0001
0100
,  // measure 15
0010
1000
0100
0010
0001
0000
1001
0000
,  // measure 16
1010
0011
0101
1100
,  // measure 17
1002
0000
0000
0000
0013
0000
0100
0000
2000
0000
0000
0000
3010
0000
0100
0010
,  // measure 18
0100
0001
1000
0001
0010
0100
1000
0100
,  // measure 19
0010
0001
1000
0000
2002
0000
3003
0000
,  // measure 20
0001
0010
0010
1000
0001
0000
0110
0001
,  // measure 21
1000
0010
0010
0001
1000
0000
0110
1000
,  // measure 22
0001
0100
0100
1000
0010
0010
0001
1000
,  // measure 23
0020
0100
0130
0000
2002
0000
0000
0000
,  // measure 24
3003
0000
0000
0000
1000
0000
0001
0000
0010
0000
0100
0010
0100
0000
1000
0000
,  // measure 25
0001
0000
0110
0000
2001
0000
3010
0100
,  // measure 26
0002
0000
0000
0000
0013
0000
0100
0000
2000
0000
0000
0000
3001
0000
0100
0010
,  // measure 27
0200
0000
0000
0000
0301
0000
1000
0000
0200
0000
0000
0000
0310
0000
0001
1000
,  // measure 28
0002
0000
0000
0000
0103
0000
0010
0000
1000
0000
0000
0000
1001
0000
0000
0001
,  // measure 29
0010
0100
1000
0000
1002
0000
0013
0100
,  // measure 30
2000
0000
0000
0000
3010
0000
0100
0000
0002
0000
0000
0000
1003
0000
0100
0010
,  // measure 31
0200
0000
0000
0000
1300
0000
0001
0000
0200
0000
0000
0000
0310
0000
1000
0001
,  // measure 32
2000
0000
3100
0010
0001
2002
3003
0000
,  // measure 33
1000
0000
0001
0000
0100
0010
0100
0000
1002
0000
0000
0000
0013
0000
0100
0000
,  // measure 34
2000
0000
0000
0000
3010
0000
0100
0000
0002
0000
0000
0000
1003
0000
0010
0100
,  // measure 35
0020
0000
0000
0000
0130
0000
0001
0000
2000
0000
0000
0000
3001
0000
0010
0100
,  // measure 36
0020
0000
0130
1000
0001
0000
1001
0000
,  // measure 37
1000
0000
0001
0000
0100
0010
0100
0010
0100
0000
0000
0000
1001
0000
0000
1000
,  // measure 38
0100
0000
0010
0000
0001
0000
0000
0001
1000
0000
0010
0000
0100
0000
0010
0000
,  // measure 39
1000
0000
0001
0000
0010
0000
0000
0000
0110
0000
0000
0000
1001
0000
0000
0001
,  // measure 40
0100
0000
0010
0000
1000
0000
0000
1000
0001
0000
0010
0000
0100
0000
0010
0000
,  // measure 41
0001
0000
1000
0000
0010
0000
0000
0000
1010
0000
0000
1000
0001
0000
0000
0001
,  // measure 42
1000
0000
0000
1000
0100
0000
0010
0000
0001
0000
0000
0001
1000
0000
0000
1000
,  // measure 43
0001
0000
0000
0001
0100
0000
0010
0000
1000
0000
1000
0000
0001
0000
0001
0000
,  // measure 44
0010
0100
1000
0001
1001
2002
3003
0000
,  // measure 45
0110
0220
0330
0000
2002
0000
0000
0000
,  // measure 46
3003
0000
0000
0000
,  // measure 47
0000
0000
0000
0000
0000
0000
0000
0000
0002
0000
0000
0103
0020
0000
0000
0130
,  // measure 48
2000
0000
0000
3100
0020
0000
0000
0130
0002
0000
0013
0000
2000
0000
3010
0000
,  // measure 49
1001
2002
3003
0000
0110
0220
0330
0000
,  // measure 50
2001
0000
3010
0100
0002
0000
0013
0100
,  // measure 51
2000
0000
0000
0000
3001
0000
0010
0100
0020
0000
0000
0000
0130
0000
1000
0000
,  // measure 52
0002
0000
0000
0000
1003
0000
0010
0100
0020
0000
0000
0000
0130
0000
0001
0000
,  // measure 53
1000
0000
0000
0000
1001
0000
0000
0000
0001
0000
1000
0000
0100
0010
0100
0010
,  // measure 54
0100
0000
0000
0000
1001
0000
0000
0001
0100
0000
0010
0000
1000
0000
0000
1000
,  // measure 55
0100
0000
0010
0000
0001
0000
1000
0001
1000
0000
0010
0000
0100
0000
0000
0000
,  // measure 56
0110
0000
0000
0000
1001
0000
0000
1000
0100
0000
0010
0000
0001
0000
0000
0001
,  // measure 57
0100
0000
0010
0000
1000
0000
0001
1000
0001
0000
0010
0000
0100
0000
1000
0000
,  // measure 58
1001
0000
0000
0001
0010
0000
0000
0010
0100
0000
0000
0100
1000
0000
0001
0000
,  // measure 59
1001
0000
0000
1000
0010
0000
0000
0010
0100
0000
0000
0100
0001
0000
1000
0000
,  // measure 60
2002
3003
0000
0000
;
