#TITLE:Hummingbird;
#SUBTITLE:;
#ARTIST:Smile.dk;
#TITLETRANSLIT:;
#SUBTITLETRANSLIT:;
#ARTISTTRANSLIT:;
#GENRE:;
#CREDIT:;
#BANNER:banner.png;
#BACKGROUND:Hummingbird-bg.png;
#LYRICSPATH:;
#CDTITLE:;
#MUSIC:Hummingbird.ogg;
#OFFSET:-0.245000;
#SAMPLESTART:50.933041;
#SAMPLELENGTH:12.000000;
#SELECTABLE:YES;
#BPMS:0.000000=142.000000
,184.000000=71.000000
,210.000000=142.000000
;
#STOPS:
;
#BGCHANGES:;
#KEYSOUNDS:;
#ATTACKS:;

//---------------dance-single - ----------------
#NOTES:
     dance-single:
     :
     Beginner:
     2:
     0.104035,0.157671,0.020611,0.000000,0.000000,106.000000,103.000000,3.000000,0.000000,0.000000,0.000000,0.104035,0.157671,0.020611,0.000000,0.000000,106.000000,103.000000,3.000000,0.000000,0.000000,0.000000:
// measure 0
0000
0000
0000
0000
,  // measure 1
0000
0000
0000
0000
,  // measure 2
0000
0000
0000
0000
,  // measure 3
0000
0000
0000
0000
,  // measure 4
0000
0000
0000
0000
,  // measure 5
1000
0000
0000
0000
,  // measure 6
0001
0000
0000
0000
,  // measure 7
0100
0000
0000
0000
,  // measure 8
0010
0000
0000
0000
,  // measure 9
1000
0000
1000
0000
,  // measure 10
1000
0000
0000
0000
,  // measure 11
0100
0000
0100
0000
,  // measure 12
0100
0000
0000
0000
,  // measure 13
0010
0000
0010
0000
,  // measure 14
0010
0000
0000
0000
,  // measure 15
0001
0000
0001
0000
,  // measure 16
0001
0000
0000
0000
,  // measure 17
1000
0000
1000
0000
,  // measure 18
0010
0000
0010
0000
,  // measure 19
0000
0000
0100
0000
,  // measure 20
0100
0000
0001
0000
,  // measure 21
0001
0000
1000
0000
,  // measure 22
1000
0000
0001
0000
,  // measure 23
0000
0000
1000
0000
,  // measure 24
0010
0000
0010
0000
,  // measure 25
0100
0000
0000
0000
,  // measure 26
0001
0000
0000
0000
,  // measure 27
0010
0000
0000
0000
,  // measure 28
0100
0000
0000
0000
,  // measure 29
1001
0000
0000
0000
,  // measure 30
1000
0000
1000
0000
,  // measure 31
1000
0000
0000
0000
,  // measure 32
0001
0000
0001
0000
,  // measure 33
0001
0000
0000
0000
,  // measure 34
0100
0000
0100
0000
,  // measure 35
0100
0000
0000
0000
,  // measure 36
0010
0000
0010
0000
,  // measure 37
0010
0000
0000
0000
,  // measure 38
1000
0000
0000
0000
,  // measure 39
1000
0000
0000
0000
,  // measure 40
0100
0000
0000
0000
,  // measure 41
0100
0000
0000
0000
,  // measure 42
0010
0000
0000
0000
,  // measure 43
0010
0000
0000
0000
,  // measure 44
0001
0000
0000
0000
,  // measure 45
0001
0000
0000
0000
,  // measure 46
1001
0000
1000
0000
,  // measure 47
0001
0000
1000
0000
,  // measure 48
0010
0000
0100
0000
,  // measure 49
0010
0000
0100
0000
,  // measure 50
0001
0000
1000
0000
,  // measure 51
0100
0000
0100
0000
,  // measure 52
0000
0000
1000
0000
,  // measure 53
1000
0000
1000
0000
,  // measure 54
0000
0000
0001
0000
,  // measure 55
0001
0000
0001
0000
,  // measure 56
0000
0000
0100
0000
,  // measure 57
0100
0000
0100
0000
,  // measure 58
0000
0000
0010
0000
,  // measure 59
0010
0000
0010
0000
,  // measure 60
0000
0000
1000
0000
,  // measure 61
0100
0000
1000
0000
,  // measure 62
0000
0000
0001
0000
,  // measure 63
0100
0000
0001
0000
,  // measure 64
0000
0000
1000
0000
,  // measure 65
0010
0000
1000
0000
,  // measure 66
0000
0000
0001
0000
,  // measure 67
0010
0000
0001
0000
,  // measure 68
0000
0000
1000
0000
,  // measure 69
0000
0000
1000
0000
,  // measure 70
0000
0000
0010
0000
,  // measure 71
0010
0000
0010
0000
,  // measure 72
0000
0000
0100
0000
,  // measure 73
0000
0000
0100
0000
,  // measure 74
0000
0000
0001
0000
,  // measure 75
0001
0000
0001
0000
,  // measure 76
0001
0000
1001
0000
;

//---------------dance-single - ----------------
#NOTES:
     dance-single:
     :
     Easy:
     5:
     0.253216,0.289064,0.089313,0.219847,0.000000,258.000000,245.000000,13.000000,32.000000,0.000000,0.000000,0.253216,0.289064,0.089313,0.219847,0.000000,258.000000,245.000000,13.000000,32.000000,0.000000,0.000000:
0000
0000
0000
0000
,
0000
0000
0000
0000
,
0000
0000
0000
0000
,
0000
0000
0000
0000
,
0000
0000
0000
0000
,
1000
0010
0100
0001
,
0010
0100
1000
0000
,
0001
0000
0001
0000
,
1000
0000
1000
0000
,
0001
0100
0010
1000
,
0000
0001
0001
0001
,
1000
0010
0100
0001
,
0000
0001
1000
1000
,
0001
0010
0100
1000
,
0000
0001
0001
0001
,
1000
0100
0010
0001
,
0000
0001
1000
1000
,
0010
0010
1000
1000
,
0100
0010
0001
0000
,
0100
0010
0100
0100
,
0010
0100
0001
0000
,
1000
0001
1100
0000
,
0001
1000
0101
0000
,
1000
0001
0100
0100
,
0010
0100
0001
0000
,
1000
0100
0010
0001
,
0200
0320
2030
3000
,
0001
0010
0100
1000
,
0020
0230
0302
0003
,
2002
0000
0000
3003
,
1000
0100
0010
0001
,
0100
0100
0100
0000
,
0001
0010
0100
1000
,
0010
0010
0010
1001
,
1000
0100
0010
0001
,
1000
1000
1000
0000
,
0001
0010
0100
1000
,
0001
0001
0001
0110
,
0002
0100
1003
0000
,
2000
0100
3001
0000
,
0001
0010
0100
1000
,
0020
0230
0302
0003
,
2000
0010
3001
0000
,
0002
0010
1003
0000
,
1000
0010
0100
0001
,
0020
0230
2300
3000
,
2000
0000
3020
0000
0130
0100
0100
0000
,
0002
0000
0023
0000
0130
0100
0100
0000
,
2000
0000
3002
0000
0013
0010
0010
0000
,
0002
0000
2003
0000
3010
0010
0010
0000
,
1000
0000
0100
0000
,
0010
0000
0001
0000
,
0000
0000
1000
0100
,
0010
0001
1000
1000
,
1000
0000
0001
0010
,
0100
1000
0001
0001
,
0001
1001
1000
0010
,
0100
0001
1000
1000
,
1000
0000
0001
0100
,
0010
1000
1001
0000
,
0000
0000
1000
0100
,
0010
0001
0100
0100
,
0100
0000
0001
0010
,
0100
1000
0010
0100
,
0100
0100
0010
1000
,
0100
0010
0001
0001
,
0001
0000
1000
0010
,
0100
0001
0010
0010
,
0010
1001
1000
0001
,
1100
0000
0001
1000
,
0101
0000
1000
0010
,
0100
0001
0020
0230
,
2300
3000
0001
1000
,
0011
0000
1000
0001
,
1010
0000
0001
0010
,
0100
1000
0020
0230
,
0302
0003
1001
0000
;

//---------------dance-single - ----------------
#NOTES:
     dance-single:
     :
     Medium:
     8:
     0.343510,0.423205,0.288549,0.233587,0.000000,350.000000,308.000000,42.000000,34.000000,0.000000,0.000000,0.343510,0.423205,0.288549,0.233587,0.000000,350.000000,308.000000,42.000000,34.000000,0.000000,0.000000:
0000
0000
0000
0000
,
0000
0000
0000
0000
,
0000
0000
0000
0000
,
0000
0000
0000
0000
,
0000
0000
0000
0000
,
1000
0100
1000
0000
0001
0000
1000
0010
,
1000
1000
0001
0000
,
0100
0000
0100
0000
,
0010
0010
1000
1000
,
0001
0000
0010
0000
0001
0000
0100
0010
,
0000
1000
0000
1000
0000
1000
0000
0100
,
0010
0000
0100
0000
1000
0000
0001
0100
,
0000
0100
0010
0000
0100
0000
0100
0000
,
0001
0000
0010
0000
0001
0000
1000
0100
,
0000
1000
0000
1000
0000
1000
0000
0001
,
0010
0000
0100
0000
0010
0000
0001
1000
,
0000
0010
0100
0000
0001
0000
0001
0000
,
0010
2100
3001
0102
,
1003
2010
3001
0012
,
1003
0000
0001
0000
1000
0100
0010
0000
,
0001
0000
1000
0000
1000
0001
1000
0010
,
1000
0012
1003
2010
,
3001
0102
1003
2100
,
3001
0000
1000
0000
0001
0100
0010
0000
,
0100
0001
0001
0000
,
1001
0000
0001
0010
0100
1000
0001
0000
,
0200
0010
0310
0000
,
1001
0000
1000
0100
0010
0001
0100
0000
,
0020
0100
0130
0000
,
0220
0000
0000
0330
,
0001
0010
0100
0000
1000
0000
0010
0100
,
0001
1000
0001
0000
,
1000
0100
0010
0000
0001
0000
1000
0000
,
0020
0230
0302
2003
,
3001
0100
0010
0000
1000
0000
0100
0010
,
0001
1000
0001
0000
,
1000
0100
0010
0000
0001
0000
1000
0000
,
0010
0110
0110
1001
,
1100
0010
0101
0010
,
1100
0010
0101
0010
,
1000
0000
0100
0000
1000
0000
0010
0100
,
0010
0101
1001
0000
,
1010
0100
0011
0100
,
1010
0100
0011
0100
,
0001
0000
0010
0000
0001
0000
0100
0010
,
0100
1010
1001
0000
,
2000
0000
0100
0000
0010
0010
0010
0000
,
3002
0000
0010
0000
0100
0100
0100
0000
,
2003
0000
0100
0000
0001
0010
0001
0000
,
3002
0000
0010
0000
1000
0100
1000
0000
,
2003
0000
3200
0000
,
0320
0000
0032
0000
,
0000
0000
0000
0000
1003
0100
1000
0000
,
0010
0000
1000
0100
1000
0000
1000
0000
,
1000
0000
0000
0000
0001
0010
0001
0000
,
0001
0000
0100
0001
0010
0000
0001
0000
,
0101
0000
1001
0000
1000
0010
1000
0000
,
1000
0000
0100
1000
0010
0000
0010
0000
,
1000
0000
0000
0000
0001
0010
0100
0000
,
0010
0000
0001
0100
0002
0000
1000
0000
,
1000
0000
1003
0000
0001
0010
0100
0000
,
1100
0000
1000
0010
0100
0000
0101
0000
,
1010
0000
0000
0000
0001
0010
0100
0000
,
1010
0000
1000
0100
0010
0000
0011
0000
,
0101
0000
1001
0000
1000
0100
0010
0000
,
0110
0000
0010
0100
1000
0000
1010
0000
,
0101
0000
0000
0000
0001
0100
0010
0000
,
0110
0000
0010
0100
0001
0000
0110
0000
,
0110
1001
2000
0100
,
3001
1000
0002
0100
,
1003
0001
2000
0010
,
3001
0000
0001
1000
0002
0000
0010
0000
,
1003
0001
2000
0010
,
3100
1000
0002
0010
,
0103
0001
2000
0100
,
3001
0000
0001
1000
0002
0000
0100
0000
,
1000
1000
2000
0000
0000
0000
0000
0000
,
3003
0000
0000
0000
;

//---------------dance-single - ----------------
#NOTES:
     dance-single:
     :
     Hard:
     10:
     0.411231,0.449655,0.329770,0.212976,0.010305,419.000000,371.000000,48.000000,31.000000,0.000000,0.000000,0.411231,0.449655,0.329770,0.212976,0.010305,419.000000,371.000000,48.000000,31.000000,0.000000,0.000000:
0000
0000
0000
0000
,
0000
0000
0000
0000
,
0000
0000
0000
0000
,
0000
0000
0000
0000
,
0000
0000
0000
0000
,
1000
0100
0010
0000
0001
0000
1000
0010
,
0100
0001
0001
0000
,
1000
0000
0010
0000
,
0100
0000
0000
0000
0100
0000
1001
0001
,
1000
0100
0010
0001
0100
0010
1000
0001
,
0000
1010
0000
0101
0000
1001
0000
0001
,
1000
0100
0010
0001
0100
0010
1000
0001
,
0000
0010
0100
1000
0001
0001
0001
1000
,
0001
1000
0010
0100
0001
1000
0100
0010
,
0000
0011
0000
1100
0000
1001
0000
1000
,
0010
0100
0001
0010
0100
1000
0001
0100
,
0000
0010
0100
0001
1000
1000
1000
0000
,
0010
0000
0102
0000
1003
0000
0010
1000
,
0100
2010
3100
1000
,
0001
0000
1000
0000
0010
0100
0001
0000
,
1020
0000
0000
0000
0100
0000
0000
0000
1030
0000
0001
1000
0001
0000
0100
0000
,
0010
0000
2100
0000
3001
0000
0101
0100
,
0001
0000
0012
0000
1003
0000
1010
0010
,
0100
0000
0001
0000
0010
0100
1000
0000
,
0010
0000
1000
0000
0001
1000
1000
0000
,
1010
0000
1000
0100
0010
0001
0100
0000
,
0020
0001
1030
1010
,
1001
0000
1000
0100
0010
0001
0100
0010
,
2000
0100
3001
0000
,
0220
0000
0000
0000
0000
0000
0000
0000
0330
0000
0000
0001
1000
0000
0001
0000
,
1000
0100
0010
0000
0001
0000
0100
0010
,
2000
0100
3001
1001
,
0001
0100
0010
0000
1000
0000
0100
0010
,
0002
0100
0010
1003
,
0001
0010
0100
0000
1000
0000
0010
0100
,
0002
0100
1003
1001
,
1000
0100
0010
0000
0001
0000
0100
0010
,
2000
0000
0000
0000
0100
0000
0000
0000
3001
0000
0000
0001
1000
0000
0001
0000
,
2100
3010
0102
0013
,
2100
3010
0102
0013
,
2010
0000
3100
0000
0012
0000
0103
0100
,
2010
0000
3100
0000
0012
0000
0103
0010
,
1000
0100
0010
0001
0100
0010
1000
0001
,
0000
1010
0000
0101
0000
1001
0000
0001
,
0010
0100
1000
0010
0100
0001
0010
0100
,
0000
0100
0001
0100
1000
1000
1000
0000
,
2010
0000
0100
0000
3001
0100
1000
0000
,
0102
0000
0010
0000
1003
0100
0001
0000
,
0012
0000
0100
0000
1000
1000
1003
0000
,
2010
0000
0100
0000
0001
0001
3001
0000
,
2000
0000
3020
0000
,
0230
0000
0302
0000
,
0003
0000
0000
0000
1000
0100
0010
0000
,
0001
0000
0100
0010
1000
0000
1000
0000
,
1000
0000
0000
0000
0001
0010
0100
0000
,
1000
0000
0010
0100
0001
0000
0001
0000
,
0001
0000
1001
0000
1000
0010
0100
0000
,
0001
0000
0010
0100
1000
0000
1000
0000
,
1000
0000
0000
0000
0001
0010
0100
0000
,
1000
0000
0010
0100
0002
0000
1000
0000
,
1000
0000
1003
0000
0001
0010
0100
0000
,
1000
0000
0010
0100
0001
0000
0011
0000
,
1000
0000
1010
0000
1000
0100
0010
0000
,
0001
0000
0100
0010
1000
0000
1100
0000
,
0001
0000
0101
0000
1000
0100
0001
0000
,
0100
0000
0010
0001
1000
0000
1010
0000
,
0001
0000
0011
0000
0001
0100
1000
0000
,
0100
0000
0010
1000
0001
0000
0101
0000
,
1000
0000
1100
0000
1000
0100
0010
0001
,
1000
0000
0011
0000
0001
0010
0100
1000
,
0001
0000
1100
0000
1000
0010
0100
0000
,
0001
0100
0010
0000
1000
0100
0010
0001
,
0100
0010
1000
0000
1000
0010
0100
0001
,
1000
0000
0101
0000
0001
0100
0010
1000
,
0001
0000
1010
0000
1000
0100
0010
0000
,
0001
0100
0010
0000
1000
0100
0010
0001
,
0100
0100
0200
0000
0000
0000
0000
0000
,
0300
0000
0000
0000
;
