#VERSION:0.83;
#TITLE:GRADIUSIC CYBER;
#SUBTITLE:(DarkDisco Mix);
#ARTIST:TAKA;
#TITLETRANSLIT:;
#SUBTITLETRANSLIT:;
#ARTISTTRANSLIT:;
#GENRE:;
#ORIGIN:;
#CREDIT:;
#BANNER:;
#BACKGROUND:;
#PREVIEWVID:;
#JACKET:gradiusiccyber-jacket.png;
#CDIMAGE:;
#DISCIMAGE:;
#LYRICSPATH:;
#CDTITLE:cdtitle.png;
#MUSIC:gradiusiccyber.mp3;
#OFFSET:-0.193425;
#SAMPLESTART:28.415646;
#SAMPLELENGTH:12.000000;
#SELECTABLE:YES;
#BPMS:0.000=135.000;
#STOPS:;
#DELAYS:;
#WARPS:;
#TIMESIGNATURES:0.000=4=4;
#TICKCOUNTS:0.000=4;
#COMBOS:0.000=1;
#SPEEDS:0.000=1.000=0.000=0;
#SCROLLS:0.000=1.000;
#FAKES:;
#LABELS:0.000=Song Start;
#BGCHANGES:;
#KEYSOUNDS:;
#ATTACKS:
;

//---------------dance-single - ----------------
#NOTEDATA:;
#CHARTNAME:;
#STEPSTYPE:dance-single;
#DESCRIPTION:;
#CHARTSTYLE:;
#DIFFICULTY:Hard;
#METER:14;
#RADARVALUES:0.662089,0.684725,0.229437,0.000000,0.573592,404.000000,384.000000,20.000000,0.000000,0.000000,0.000000,0.000000,0.000000,0.000000,0.662089,0.684725,0.229437,0.000000,0.573592,404.000000,384.000000,20.000000,0.000000,0.000000,0.000000,0.000000,0.000000,0.000000;
#CREDIT:TonyAkita;
#NOTES:
0000
0000
0000
0000
,
0000
0000
0000
0000
,
0000
0000
0000
0000
,
0000
0000
0000
0000
,
0001
0010
1000
0000
1000
0010
0001
0000
,
0001
0100
0010
0000
0010
0100
0001
0000
,
1000
0100
0001
0000
0001
0100
1000
0000
,
1000
0010
0100
0000
0100
0010
1000
0000
,
1000
0100
0010
0001
1000
0010
0001
0000
,
0010
1000
0010
0100
0001
0010
0001
0000
,
1000
0010
0100
0001
1000
0100
0001
0000
,
0100
1000
0100
0010
0100
1000
0001
0000
,
1000
0010
0100
0001
1000
0100
0001
0100
,
1000
0010
0001
0010
1000
0100
0010
0001
,
0000
0000
1000
0010
0000
0000
0001
0010
,
0000
0000
1000
0100
0000
0000
0000
0000
,
1001
0000
1000
0100
0010
0000
0100
1000
0000
0100
1000
0000
0001
0000
0100
0010
,
0100
0010
1000
0000
0001
1000
0001
0010
0100
1000
0010
0000
0010
0000
0000
0000
,
1001
0000
0000
0000
0001
0000
0100
0001
0000
0100
0001
0000
0010
0000
0001
0000
,
1000
0010
0001
0010
1000
0100
0001
0100
1000
0010
0100
0000
0100
0000
0001
0000
,
1000
0000
0001
0010
0100
0000
1000
0010
0000
1000
0010
0000
0100
0000
0001
0010
,
0001
0010
0100
0000
1000
0001
1000
0010
0100
0001
0010
0000
0010
0000
0000
0000
,
1001
0000
0000
0000
1000
0000
0100
1000
0000
0100
1000
0000
0010
0000
1000
0000
,
0001
0010
1000
0010
0001
0100
1000
0100
0001
0010
0100
0000
0100
0000
0000
0000
,
1000
0001
1000
0001
0100
0000
0010
1000
0000
0010
0001
0000
0010
0000
1000
0000
,
0001
0010
0001
0010
0001
0000
1000
0100
1000
0010
1000
0000
0010
0000
0000
0000
,
0110
0000
0000
0000
0001
0000
0100
0001
0000
0010
0001
0000
0100
0000
0010
0000
,
1000
0100
0010
0001
1000
0010
0001
0010
1000
0010
0100
0000
0100
0000
0001
0000
,
1000
0001
1000
0001
0010
0000
0100
1000
0000
0100
0001
0000
0100
0000
1000
0000
,
0001
0100
0001
0100
0001
0000
1000
0010
1000
0100
1000
0000
0100
0000
0000
0000
,
0110
0000
0000
0000
0001
0000
1000
0010
0000
1000
0100
0000
1000
0000
0010
0000
,
0100
0001
0010
0001
0100
0010
1000
0010
0100
0010
0100
0000
0110
0000
0000
0000
,
1001
0000
0000
1000
0100
0000
0010
0000
0000
0010
0000
0000
0001
0000
1000
0000
,
0001
0000
0000
0100
0010
0000
1000
0000
0000
1000
0000
0000
1010
0000
0000
0000
,
0011
0000
0000
0001
0010
0000
0100
0000
0000
0100
0000
0000
1000
0000
0001
0000
,
1000
0000
0000
0010
0100
0000
0001
0000
0000
0001
0000
0000
0101
0000
0000
0000
,
1100
0000
0100
0010
0100
0000
1000
0000
0000
1000
0000
0000
0001
0000
0100
0000
,
0010
0000
1000
0010
1000
0000
0001
0000
0000
0001
0000
0000
0011
0000
0000
0000
,
1010
0000
0010
0100
0010
0000
1000
0000
0000
1000
0000
0000
0100
0000
0010
0000
,
0001
0000
1000
0001
1000
0000
0010
0000
0000
0010
0000
0000
0110
0000
0000
0000
,
0001
0000
0001
0100
0010
0000
1000
0010
0001
0010
1000
0000
0001
0000
1000
0000
,
0100
0000
0010
0001
0010
0000
0100
1000
0010
1000
0100
0000
1100
0000
0000
0000
,
0101
0000
0100
0010
1000
0000
0001
0010
0100
0010
0001
0000
1000
0000
0100
0000
,
0001
0000
0100
1000
0100
0000
1000
0010
0100
0001
1000
0000
1001
0000
0000
0000
,
1000
0000
1000
0010
0100
0000
0001
0100
1000
0100
0001
0000
1000
0000
0001
0000
,
0100
0000
0010
1000
0010
0000
0100
0001
0010
0001
0100
0000
0101
0000
0000
0000
,
1100
0000
0100
0010
0001
0000
1000
0010
0100
0010
1000
0000
0001
0000
0100
0000
,
1000
0000
0100
0001
0100
0000
0001
0010
0100
1000
0001
0000
1001
0000
0000
0000
;

//---------------dance-single - ----------------
#NOTEDATA:;
#CHARTNAME:;
#STEPSTYPE:dance-single;
#DESCRIPTION:;
#CHARTSTYLE:;
#DIFFICULTY:Medium;
#METER:8;
#RADARVALUES:0.444124,0.465613,0.435930,0.057359,0.022944,271.000000,233.000000,38.000000,5.000000,0.000000,0.000000,0.000000,0.000000,0.000000,0.444124,0.465613,0.435930,0.057359,0.022944,271.000000,233.000000,38.000000,5.000000,0.000000,0.000000,0.000000,0.000000,0.000000;
#CREDIT:TonyAkita;
#NOTES:
0000
0000
0000
0000
,
0000
0000
0000
0000
,
0000
0000
0000
0000
,
0000
0000
0000
0000
,
1000
0010
0001
0010
,
1000
0100
0001
0100
,
1000
1010
0001
0011
,
1000
1100
0001
0101
,
0100
0110
1000
1001
,
0010
0110
0001
1001
,
1000
1100
0010
1010
,
0100
0101
0001
0011
,
1001
1001
1010
0011
,
1100
0101
1001
2000
,
0000
0010
0000
0001
,
0000
0010
3000
0000
,
1001
0000
0001
0010
0000
1000
0010
0000
,
0001
0000
0001
0000
1000
0000
0010
0000
0000
0010
0000
0000
0110
0000
0000
0000
,
1001
0000
1000
0100
0000
0001
0100
0000
,
1000
0000
1000
0000
0001
0000
0100
0000
0000
0100
0000
0000
0110
0000
0000
0000
,
1010
0000
1000
0100
0000
1000
0010
0000
,
0100
0000
0100
0000
0001
0000
0010
0000
0000
0010
0000
0000
0011
0000
0000
0000
,
1001
0000
0001
0010
0000
0001
0100
0000
,
0010
0000
0010
0000
1000
0000
0100
0000
0000
0100
0000
0000
1100
0000
0000
0000
,
0001
1000
0001
1000
0000
0010
0100
0000
,
0001
0001
0010
0000
0001
0001
1000
0000
,
1001
0000
1000
0010
0100
0010
1000
0000
,
0100
0100
0001
0000
0100
0100
1000
0000
,
1000
0010
1000
0010
0000
0100
0001
0000
,
1000
1000
0001
0000
1000
1000
0010
0000
,
0110
0000
0001
0100
0010
0100
0001
0000
,
0100
0100
1000
0000
0100
0100
0001
0000
,
1001
0000
2000
0010
0000
0000
3010
0100
,
0001
0000
0002
0010
0000
0000
0013
0000
,
1000
0000
0002
0100
0000
0000
0103
0010
,
1000
0000
2000
0100
0000
0000
3100
0000
,
1001
0000
1000
0100
0000
0001
0100
0000
,
1001
0000
1000
0010
0000
0001
0010
0000
,
1001
0000
0010
1001
0000
0100
1001
0000
,
0110
0000
1000
1010
0000
0001
0011
0000
,
1000
1000
0001
0001
0100
0010
0100
0010
,
1000
1000
0001
0001
1000
0010
0001
0000
,
0010
0010
0100
0100
0001
1000
0001
1000
,
0100
0100
0010
0010
0001
1000
0001
0000
,
1000
0010
1000
0001
0100
0001
0010
0100
,
1000
0100
1000
0001
0100
0010
1000
0000
,
0001
0010
0001
1000
0100
1000
0010
0100
,
0001
0100
0001
1000
0100
0010
0001
0000
;

//---------------dance-single - ----------------
#NOTEDATA:;
#CHARTNAME:;
#STEPSTYPE:dance-single;
#DESCRIPTION:;
#CHARTSTYLE:;
#DIFFICULTY:Easy;
#METER:6;
#RADARVALUES:0.355627,0.438224,0.252380,0.011472,0.000000,217.000000,195.000000,22.000000,1.000000,0.000000,0.000000,0.000000,0.000000,0.000000,0.355627,0.438224,0.252380,0.011472,0.000000,217.000000,195.000000,22.000000,1.000000,0.000000,0.000000,0.000000,0.000000,0.000000;
#CREDIT:TonyAkita;
#NOTES:
0000
0000
0000
0000
,
0000
0000
0000
0000
,
0000
0000
0000
0000
,
0000
0000
0000
0000
,
1000
1000
0010
0010
,
0001
0001
0010
0010
,
1000
1000
0100
0100
,
0001
0001
0100
0100
,
1000
0010
0001
0010
,
1000
0100
0001
0100
,
1000
0010
1000
0100
,
0010
0001
0100
0001
,
0010
0100
1000
0001
,
0100
1000
0100
0020
,
0000
0000
0000
1000
0000
0000
0000
1000
,
0000
0000
0000
1000
0030
0000
0000
0000
,
1010
1000
0100
1000
,
0001
0010
0001
0000
0100
0000
0101
0000
,
1100
1000
0010
1000
,
0001
0100
0001
0000
0010
0000
0011
0000
,
1001
0001
0100
1000
,
0100
0001
0100
0000
0010
0000
0110
0000
,
1001
1000
0100
0001
,
0100
1000
0100
0000
0010
0000
0110
0000
,
1100
0000
1000
0010
1000
0010
0100
0000
,
0001
0010
0001
0010
0100
0000
1000
0000
,
1001
0000
0001
0100
0001
0100
1000
0000
,
0100
0001
0100
0001
1000
0000
0100
0000
,
0011
0000
0001
0100
0001
0100
0010
0000
,
1000
0100
1000
0100
0010
0000
0001
0000
,
1001
0000
1000
0010
1000
0010
0001
0000
,
0010
1000
0010
1000
0001
0000
1001
0000
,
0110
0000
0000
0001
0000
0000
0001
0000
,
1000
0000
0000
1000
0000
0000
0100
0000
,
0010
0000
0000
0001
0000
0000
0001
0000
,
1000
0000
0000
1000
0000
0000
0010
0000
,
0100
0100
0001
0001
,
1000
1000
0100
0100
,
0001
0001
0100
0100
,
1000
1000
0001
1001
,
1000
0000
0001
0010
0001
0000
0100
0000
,
0010
0000
1000
0010
1000
0000
1010
0000
,
0011
0000
0001
0100
0001
0000
0010
0000
,
0100
0000
1000
0100
1000
0000
1100
0000
,
1001
0000
0001
0100
0001
0000
1000
0000
,
0001
0000
1000
0010
1000
0000
1010
0000
,
0011
0000
0001
0010
0001
0000
1000
0000
,
0001
0000
0100
0010
0100
0000
0110
0000
;

//---------------dance-single - ----------------
#NOTEDATA:;
#CHARTNAME:;
#STEPSTYPE:dance-single;
#DESCRIPTION:;
#CHARTSTYLE:;
#DIFFICULTY:Challenge;
#METER:15;
#RADARVALUES:0.696504,0.770907,0.344155,0.137662,0.757141,425.000000,395.000000,30.000000,12.000000,0.000000,0.000000,0.000000,0.000000,0.000000,0.696504,0.770907,0.344155,0.137662,0.757141,425.000000,395.000000,30.000000,12.000000,0.000000,0.000000,0.000000,0.000000,0.000000;
#CREDIT:TonyAkita;
#NOTES:
// measure 0
0000
0000
0000
0000
,  // measure 1
0000
0000
0000
0000
,  // measure 2
0000
0000
0000
0000
,  // measure 3
0000
0000
0000
0000
0000
0000
0000
1000
,  // measure 4
0000
0000
0000
0100
0010
0000
0001
0000
0000
0000
0000
0010
0100
0000
1000
0000
,  // measure 5
0000
0000
0000
0001
0100
0000
1000
0000
0000
0000
0000
0100
0001
0000
1000
0000
,  // measure 6
0000
0000
0000
0100
0001
0000
0100
0000
0000
0000
0000
0010
0100
0000
1000
0000
,  // measure 7
0000
0000
0000
0001
0100
0000
1000
0000
0000
0000
0000
0100
0001
0000
0010
0000
,  // measure 8
0000
0000
0000
0100
1000
0000
0001
0000
0000
0000
0000
1000
0100
0000
0010
0000
,  // measure 9
0000
0000
0000
0001
0100
0000
1000
0000
0000
0000
0000
0100
0010
0000
1000
0000
,  // measure 10
0000
0000
0000
0001
0010
0000
0100
0000
0000
0000
0000
1000
0100
0000
0001
0000
,  // measure 11
0000
0000
0000
0100
1000
0000
0010
0000
0000
0000
0000
0100
0001
0000
1000
0000
,  // measure 12
0000
0000
0000
0100
0010
0000
0001
0000
0000
0000
0000
1000
0010
0000
0100
0000
,  // measure 13
0000
0000
0000
0001
0100
0000
1000
0000
0000
0000
0000
0100
0001
0000
0020
0000
,  // measure 14
0000
0000
0000
1000
0000
0000
0000
0001
,  // measure 15
0000
0000
0000
0200
0000
0000
0330
0000
,  // measure 16
1001
0000
1000
0100
0010
0000
0001
0100
0000
0001
0010
0000
0011
0000
0100
1000
,  // measure 17
0001
0100
0001
0100
1000
0100
1000
0100
0001
0100
0010
0000
1000
0000
0010
0000
,  // measure 18
0202
0000
0000
0000
0303
0000
1000
0100
0000
0001
0100
0000
1100
0000
0100
0010
,  // measure 19
0001
0100
0010
1000
0010
0100
0010
1000
0001
0010
0100
0000
1000
0000
0001
0000
,  // measure 20
1000
0000
0010
0100
0001
0000
1000
0100
0000
1000
0010
0000
1100
0000
0001
0100
,  // measure 21
0010
1000
0010
1000
0010
0001
0010
0001
0010
0100
0001
0000
0100
0000
0010
0000
,  // measure 22
2020
0000
0000
0000
3030
0000
0001
0010
0000
1000
0010
0000
0011
0000
0010
0100
,  // measure 23
1000
0010
0100
0001
0100
0010
0100
0001
1000
0100
0010
0000
0001
0000
1000
0000
,  // measure 24
1001
0000
1000
0010
0100
0000
0001
1000
0000
0100
0010
0000
0011
0000
1000
0010
,  // measure 25
0100
0001
0100
0010
0100
0001
1000
0100
0001
0100
1000
0000
0001
0000
1000
0000
,  // measure 26
2200
0000
0000
0000
3300
0000
0001
0100
0000
1000
0100
0000
0110
0000
0010
1000
,  // measure 27
0001
0010
0100
0010
1000
0010
0100
0010
0001
0010
0100
0000
1000
0000
0001
0000
,  // measure 28
0100
0000
0001
0010
0100
0000
1000
0001
0000
0100
0010
0000
1010
0000
0001
0010
,  // measure 29
0100
1000
0100
0010
0100
1000
0001
0100
1000
0100
0001
0000
1000
0000
0001
0000
,  // measure 30
0202
0000
0000
0000
0303
0000
1000
0100
0000
0001
0100
0000
0110
0000
0010
0001
,  // measure 31
1000
0010
0100
0010
0001
0010
0100
0010
1000
0010
0100
0000
0001
0000
0000
0000
,  // measure 32
1001
0000
1000
0001
0010
0000
0100
0000
0000
0100
0000
0000
0001
0000
0100
0000
,  // measure 33
1000
0000
0001
0100
0010
0000
1000
0000
0000
1000
0000
0000
1010
0000
0000
0000
,  // measure 34
1001
0000
0001
1000
0010
0000
0100
0000
0000
0100
0000
0000
1000
0000
0100
0000
,  // measure 35
0001
0000
1000
0100
0010
0000
0001
0000
0000
0001
0000
0000
0011
0000
0000
0000
,  // measure 36
1001
0000
1000
0010
0100
0000
0001
0010
0000
0001
0100
0000
0101
0000
1000
0000
,  // measure 37
0100
0000
0010
0001
1000
0000
0010
0100
0000
0010
0100
0000
0110
0000
0000
0000
,  // measure 38
1001
0000
0001
0010
0100
0000
1000
0010
0000
1000
0100
0000
1100
0000
0001
0000
,  // measure 39
0100
0000
0010
1000
0001
0000
0010
0100
0000
0010
0100
0000
0110
0000
0000
0000
,  // measure 40
1000
0000
0100
0010
0001
0000
1000
0010
0100
0010
1000
0000
0010
0000
0100
0000
,  // measure 41
0001
0000
1000
0100
0010
0000
0001
0100
0001
0010
0001
0000
0011
0000
0000
0000
,  // measure 42
0001
0000
0100
0010
1000
0000
0001
0010
0100
0010
0001
0000
0010
0000
0100
0000
,  // measure 43
1000
0000
0001
0100
0010
0000
1000
0100
1000
0010
1000
0000
1010
0000
0000
0000
,  // measure 44
1000
0000
0010
0100
0001
0000
1000
0100
1000
0010
0100
0000
0101
0000
0001
0000
,  // measure 45
0010
0000
0100
1000
0001
0000
0100
1000
0100
0001
0100
0000
0110
0000
0000
0000
,  // measure 46
0001
0000
0100
0010
1000
0000
0001
0010
0001
0100
0010
0000
1010
0000
1000
0000
,  // measure 47
0100
0000
0010
0001
1000
0000
0010
0001
0010
1000
0010
0000
0220
0000
0000
0000
,  // measure 48
0330
0000
0000
0000
;
