#TITLE:FURUCHANSU;
#SUBTITLE:City Pop Funk Mix Original;
#ARTIST:バーバパパ;
#TITLETRANSLIT:;
#SUBTITLETRANSLIT:;
#ARTISTTRANSLIT:;
#GENRE:;
#CREDIT:;
#MUSIC:Furuchansu - City Pop Funk Mix Original.ogg;
#BANNER:Furuchansu - City Pop Funk Mix Original.png;
#BACKGROUND:Furuchansu - City Pop Funk Mix Original-bg.png;
#CDTITLE:;
#SAMPLESTART:31.092;
#SAMPLELENGTH:15.484;
#SELECTABLE:YES;
#OFFSET:-0.125;
#BPMS:0.000=124.000;
#STOPS:;
#BGCHANGES:-0.525=Furuchansu - City Pop Funk Mix Original.avi=1.000=0=0=1=====,
99999=-nosongbg-=1.000=0=0=0 // don't automatically add -songbackground-;
#FGCHANGES:;

//--------------- dance-single - NOWHERE Dance Club ----------------
#NOTES:
     dance-single:
     NOWHERE Dance Club:
     Easy:
     5:
     0,0,0,0,0:
0000
0000
0000
0000
,
0000
0000
0000
0000
,
0000
0000
0000
0000
,
0000
0000
0000
0000
,
2000
0000
3001
0000
,
0020
0000
0130
0000
,
0020
0000
0031
0000
,
1000
0001
1000
0001
,
2000
0000
3100
0020
,
0032
0000
1003
1000
,
0020
0000
0130
0010
,
2000
0000
3001
0100
,
0002
1000
2003
0000
,
3002
0010
0013
0200
,
1300
0000
1000
0000
,
1001
0000
0020
0000
,
0130
0010
0100
0010
,
0100
1000
0100
1000
,
0200
0000
2300
0000
,
3002
0000
0023
0000
,
0031
1000
0100
1000
,
0001
0100
0001
0100
,
0002
0000
0023
0000
,
0230
0000
0320
0000
,
0032
1000
1003
0000
,
2000
0010
3020
2030
,
3001
0000
0100
0000
0002
0000
0000
0103
,
0000
0001
0000
1000
0000
0001
0000
2000
,
0001
0000
0000
0000
3001
0000
0000
0200
,
0000
0001
0000
0301
0000
2000
0000
0000
,
3100
2000
0000
0000
,
3002
0000
0013
0100
,
2000
0000
0000
0000
,
3002
0000
0000
0000
,
0203
0000
0000
0000
,
0320
0030
0000
0000
0020
0030
0000
0000
,
2000
0000
0000
0000
,
3002
0000
0000
0000
,
2003
0000
0000
0000
,
3020
0000
0100
0000
,
0130
0001
0200
0000
,
0302
0000
1000
0000
,
1003
0100
2000
0000
,
0001
0000
3010
0000
,
0020
0000
0100
0000
,
0230
0000
0010
0000
,
0302
0000
2003
0000
,
3010
1000
0010
1000
,
0001
0000
0100
0000
0001
0100
0001
2000
,
0000
0000
0000
3001
0000
1000
0000
0000
,
0001
0000
0010
0000
0001
0010
0001
2000
,
0000
0000
0000
3001
0000
1000
0000
0000
,
0002
0000
0103
0000
0002
0000
0000
0203
,
0000
0000
0000
0302
0000
2003
0000
0000
,
3001
0100
0001
0010
,
0200
0000
0000
0000
,
1300
0000
0100
0000
1000
0100
1000
0002
,
0000
0000
0000
1003
0000
0001
0000
0000
,
1000
0000
0010
0000
1000
0010
1000
0002
,
0000
0000
0000
1003
0000
0001
0000
0000
,
2000
0000
3100
0000
2000
0000
0000
3200
,
0000
0000
0000
2300
0000
3002
0000
0000
,
1003
0100
1000
0010
,
0200
0000
0000
0000
,
0310
1000
0010
1000
,
0100
1000
0001
1000
,
0001
0010
0001
0010
,
0001
0100
0001
0100
,
0001
0002
1000
2003
0000
3000
0000
0000
,
0001
0001
1000
1000
0000
0000
0000
0000
,
0100
0000
0010
0000
,
0100
0000
0010
0000
,
0200
0000
0000
0000
,
1000
0000
1000
0000
,
2300
0000
0000
0000
,
3000
0000
0000
0000
;

//--------------- dance-single - NOWHERE Dance Club ----------------
#NOTES:
     dance-single:
     NOWHERE Dance Club:
     Medium:
     9:
     0,0,0,0,0:
0000
0000
0000
0000
,
0000
0000
0000
0000
,
0000
0000
0000
0000
,
0001
0000
0001
0000
,
0002
0000
0103
0000
,
0200
0000
0301
0000
,
2000
3001
2000
3100
,
0100
0001
0001
0011
,
2000
3001
0002
0103
,
0001
1000
0010
0000
1000
0100
0010
0000
,
0002
0103
0200
0310
,
1000
0001
1000
0000
0001
0100
0001
0100
,
0001
1000
0001
0000
2000
0000
3200
0000
,
0320
0000
0031
0200
,
0301
0000
0000
0000
2000
0000
3000
0000
0020
0000
0030
0000
2000
3000
0000
0000
,
0020
0000
0000
0030
0000
0000
0000
0000
0000
0000
0000
0000
2000
0000
0000
3000
0000
0000
0000
0000
0000
0000
0000
0000
0002
0000
0003
0000
0000
0000
0000
0000
0000
0000
0000
0000
2000
0000
3000
0000
0000
0000
0000
0000
0000
0000
0000
0000
,
0200
0300
1001
0000
,
0202
0303
1001
0000
,
0020
0000
2030
0000
,
3002
0000
0000
0003
0100
0000
0002
0000
,
0203
0000
0000
0000
0302
0000
0103
0020
,
0000
0030
0200
0000
0301
0000
1000
0000
,
2100
3000
0021
0030
,
2002
3003
0000
0000
0011
0000
0001
0000
,
1000
0010
0100
0000
0010
1000
0001
0000
,
1000
0010
0100
0000
1000
0000
0002
0000
,
2003
0000
3000
0010
0200
0000
0310
0200
,
0000
0310
0000
2000
0000
3001
0000
0001
,
0200
0000
0000
0300
0000
0000
0001
0000
2000
0000
0000
0000
0000
0000
3002
0000
,
0000
0013
0000
0200
0000
1300
0000
0010
,
1000
0000
0001
2000
0000
0000
0000
0000
0000
0000
0000
0000
0010
0000
0000
0000
,
0000
0000
0010
0000
0000
3010
0000
0001
,
0000
2000
0000
3002
0000
0000
0000
0000
,
0000
0000
1003
0000
0000
0000
0010
0000
0000
0000
1000
0010
0000
0000
0200
0000
,
0000
1300
0000
0002
0000
0000
0000
0000
,
0000
0000
1003
0000
0000
0000
0100
0000
0000
0000
1000
0001
0000
0000
2000
0000
,
0000
0100
0000
3002
0000
0000
0000
0000
,
0003
0000
1000
0000
0000
0000
0100
0000
0000
0000
1000
0010
0000
0000
0200
0000
,
0000
0310
0000
0002
0000
0000
0000
0000
,
0000
0000
0013
0000
0000
0000
0001
0000
0000
0000
1000
0001
0000
0000
2000
0000
,
0000
3002
0000
0013
0000
0001
0100
0000
,
0000
0200
0000
0302
0000
1003
0001
0000
,
0000
0200
0000
0302
0000
0013
0011
0000
,
2002
0000
0000
3003
0020
0000
0000
0000
,
2030
0000
0000
3001
0100
0010
0000
0000
,
2000
0000
3000
0010
1000
0001
0000
0000
,
0002
0000
0000
1003
0010
1000
0000
0000
,
0001
0000
0001
0000
2000
0000
0000
3000
,
1000
0001
1000
0100
1000
0001
1000
0020
,
0000
0000
0000
2030
0000
3002
0000
0000
,
1003
0010
0100
0010
1000
0001
1000
0200
,
0000
2300
0000
3002
0000
0013
0000
0000
,
0001
0000
0100
0000
0010
0000
1000
0000
0100
0000
0000
0010
0000
0000
0002
0000
,
0000
0000
0000
0023
0000
0032
0000
0000
,
0103
0000
0001
0000
0100
0000
0001
0000
0100
0000
0000
0001
0000
0000
2000
0000
,
0000
0000
0000
3001
0001
1000
0002
0000
,
0013
0010
0001
1000
0001
0100
0010
2000
,
0000
0000
0000
3002
0000
0013
0000
0000
,
0001
1000
0010
1000
0010
0100
0001
2000
,
0000
3002
0000
2003
0000
3200
0000
0000
,
1300
0000
0100
0000
1000
0000
0100
0000
0010
0000
0000
0002
0000
0000
0203
0000
,
0000
0000
0000
0310
0000
1000
0000
0000
,
0001
0000
1000
0000
0010
0000
1000
0000
0100
0000
0000
0010
0000
0000
0002
0000
,
0000
0010
0000
1003
,
0001
1000
0010
2000
0000
0000
3000
0000
,
0001
1000
0001
0020
0000
0000
0030
0000
,
0001
1000
0001
0200
0000
0000
0300
0000
,
0010
1000
0001
0200
0000
0000
0300
0000
,
0001
0000
0100
0000
0010
0000
2000
0000
0000
0000
0000
0000
0000
3000
0000
0000
,
0001
1000
0001
0200
0000
0000
0310
0000
,
2000
0000
3002
0000
,
0100
0000
0000
0000
0000
0003
2000
0000
,
3002
0000
0000
0000
,
0023
0000
0000
0000
,
0230
0000
0000
0000
,
0300
0000
0000
0000
;

//--------------- dance-single - NOWHERE Dance Club ----------------
#NOTES:
     dance-single:
     NOWHERE Dance Club:
     Hard:
     11:
     0,0,0,0,0:
0000
0000
0000
0000
,
0000
0000
0000
0000
,
0000
0000
0000
0000
,
0001
0000
0001
0000
,
0002
0103
0001
0010
,
0200
0310
0001
0100
,
0002
0013
0002
0103
,
0020
0130
0001
0011
,
1000
0001
1000
0000
0002
0000
0103
0000
,
0001
1000
0010
0000
1000
0100
0020
0001
,
0031
0100
0001
0000
0200
0000
0310
0000
,
1000
0001
0010
0000
0001
0100
1000
0100
,
0001
1000
0001
0000
2000
0000
3200
0000
,
0310
0001
2000
0000
3001
0100
0020
1000
,
1030
0010
1000
0100
0020
0030
0002
0003
,
0020
0030
0000
0000
0200
0300
0000
0000
2000
3000
0000
0000
0002
0003
0000
0000
,
0200
0300
1001
0001
,
0202
0303
1001
1000
,
0020
0000
0000
1000
2030
0000
0000
0001
,
3002
0000
0000
0013
0100
1000
0002
0000
,
0203
0000
0000
0000
0301
0100
0001
0020
,
0000
0031
0200
0000
0301
0000
1000
0000
,
2100
3100
0021
0031
,
2002
3003
0000
0001
0011
0000
0001
0000
,
1000
0100
0010
0001
0010
0100
1000
0001
,
1000
0010
1000
0100
2000
0000
3002
0000
,
1003
0100
1000
0100
0010
0100
0010
0200
,
0000
0310
0000
0002
0000
1003
0000
0001
,
0200
0000
0000
0300
0000
0000
0001
0000
2000
0000
0000
0000
0000
0000
3002
0000
,
0000
0013
0000
0200
0000
1300
0000
0010
,
1000
0000
0001
2000
0000
0000
0000
0000
0000
0000
0000
0000
0010
0000
0000
0000
,
0000
0000
0001
0000
0000
3010
0000
0010
,
0000
2000
0000
3002
0000
0000
0000
0000
,
0000
0000
1003
0000
0000
0000
0010
0000
0000
0000
1000
0010
0000
0000
0100
0020
,
0000
1030
0000
0002
0000
0000
0000
0000
,
0000
0000
1003
0000
0000
0000
0100
0000
0000
0000
1000
0001
0000
0000
1000
0200
,
0000
2300
0000
3002
0000
0000
0000
0000
,
0003
0000
1000
0000
0000
0000
0100
0000
0000
0000
1000
0010
0000
0000
1000
0200
,
0000
1300
0000
0002
0000
0000
0000
0000
,
0003
0000
1000
0000
0000
0000
0001
0000
0000
0000
1000
0001
0000
0000
1000
0001
,
1000
0001
0100
0010
2000
0000
3001
0000
,
0010
0100
0010
0002
0000
2003
3001
0000
,
1000
0100
0010
0001
0100
0010
1000
0000
,
2000
0000
0000
3000
0002
0000
0000
0003
,
2000
0000
0000
3001
0100
0010
0100
0000
,
2000
0000
3000
0010
1000
0100
0010
0000
,
0002
0000
0000
1003
0010
1000
0001
0000
,
0001
0000
0001
0000
1000
0010
0010
0001
,
1000
0001
1000
0100
1000
0001
1000
0020
,
0000
0000
0000
2030
0000
3002
0000
0000
,
1003
0010
0100
0010
1000
0001
1000
0200
,
0000
2300
0000
3002
0000
0013
0000
0000
,
1000
0000
0010
0000
0001
0000
1000
0000
0100
0000
0000
0001
0000
0000
2000
0000
,
0000
0000
0000
3020
0000
2030
0000
0000
,
3100
0000
0001
0000
0100
0000
1000
0000
0100
0000
0000
0001
0000
0000
2000
0000
,
0000
0000
0000
3001
0001
1000
0001
0100
,
0010
0100
0001
1000
0001
0100
0010
2000
,
0000
0000
0000
3002
0000
0013
0000
0000
,
0001
1000
0010
1000
0001
0100
0001
0020
,
0000
0032
0000
2003
0000
3200
0000
0000
,
1300
0000
0100
0000
1000
0000
0100
0000
0010
0000
0000
0002
0000
0000
0203
0000
,
0000
0000
0000
0310
0000
1000
0000
0000
,
0001
0000
1000
0000
0010
0000
0001
0000
2000
0000
0000
3100
0000
0000
0002
0000
,
0000
0010
0000
1003
,
0001
1000
0010
2000
0000
0000
3000
0000
,
0001
1000
0001
0020
0000
0000
0030
0000
,
0001
1000
0001
0200
0000
0000
0300
0000
,
0001
0010
0001
0200
0000
0000
0300
0000
,
0001
0000
0100
0000
0010
0000
2000
0000
0000
0000
0000
0000
0000
3000
0000
0000
,
0001
1000
0001
0200
0000
0000
0310
0000
,
2000
0001
0000
3002
,
0100
0000
1000
0000
0000
0013
0000
0010
,
0002
0000
0000
0000
,
0023
0000
0000
0000
,
0230
0000
0000
0000
,
0300
0000
0000
0000
;
