#TITLE:DAWN -THE NEXT ENDEAVOUR-;
#SUBTITLE:;
#ARTIST:L.E.D. fw.堀澤麻衣子;
#TITLETRANSLIT:;
#SUBTITLETRANSLIT:;
#ARTISTTRANSLIT:L.E.D. fw. Maiko Horisawa;
#GENRE:DRUM & BASS;
#CREDIT:;
#MUSIC:DAWN -THE NEXT ENDEAVOUR-.ogg;
#BANNER:DAWN -THE NEXT ENDEAVOUR-.png;
#BACKGROUND:DAWN -THE NEXT ENDEAVOUR--bg.png;
#CDTITLE:;
#SAMPLESTART:69.756;
#SAMPLELENGTH:15.000;
#SELECTABLE:YES;
#OFFSET:1.043;
#BPMS:0.000=183.000;
#STOPS:;
#BGCHANGES:3.000=DAWN -THE NEXT ENDEAVOUR-.avi=1.000=0=0=1,
99999.000=-nosongbg-=1.000=0=0=0=StretchNoLoop====
;
#FGCHANGES:;

//--------------- dance-single - forcednature ----------------
#NOTES:
     dance-single:
     forcednature:
     Beginner:
     4:
     0,0,0,0,0:
0000
0000
0000
0000
,
0000
0000
0000
0000
,
0000
0000
0000
0000
,
0000
0000
0000
0000
,
0000
0000
0000
0000
,
0000
0000
0000
0000
,
0000
1000
0000
1000
,
0000
0001
0000
0001
,
0000
0100
0000
0100
,
0000
0010
0000
0010
,
1000
0000
0000
0000
,
0001
0000
0000
0000
,
0010
0000
0000
0000
,
0100
0000
0000
0000
,
1000
0000
0000
0000
,
1000
0000
0000
0000
,
0001
0000
0000
0000
,
0100
0000
0000
0000
,
1001
0000
0000
0010
,
0000
0000
0000
0010
,
0000
0000
0000
0010
,
0000
0000
0000
0000
,
0000
0100
0000
0100
,
0000
0001
0000
0000
,
0000
0100
0000
0100
,
0000
1000
0000
0000
,
0000
0010
0000
0010
,
0000
0001
0000
0000
,
0000
0010
0000
0010
,
0000
1000
0000
0000
,
0000
0001
0000
0001
,
0000
0010
0000
0000
,
0000
1000
0000
1000
,
0000
0010
0000
0000
,
0000
0001
0000
0001
,
0000
0100
0000
0000
,
0000
1000
0000
1000
,
0000
0100
0000
0000
,
1001
0000
0010
0000
,
0100
0000
0010
0000
,
0000
0000
1000
0000
,
0001
0000
1000
0000
,
0100
0000
0000
0000
,
0010
0000
0010
0000
,
0001
0000
0000
0000
,
0100
0000
0100
0000
,
1001
0000
0000
0000
,
0010
0000
0000
0000
,
1000
0000
0000
0000
,
0001
0000
0000
0000
,
0010
0000
0000
0000
,
0000
0000
0000
0000
,
0100
0000
0000
0000
,
0000
0000
0000
0000
,
1001
0000
0010
0000
,
1000
0000
0000
0000
,
0001
0000
0010
0000
,
0001
0000
0000
0000
,
0100
0000
0010
0000
,
1000
0000
0000
0000
,
0100
0000
0010
0000
,
0001
0000
0000
0000
,
1001
0000
0000
0000
,
0100
0000
0100
0000
,
0010
0000
0000
0000
,
0001
0000
0000
0000
,
1001
0000
0000
0000
,
1000
0000
1000
0000
,
1001
0000
0000
0000
,
0010
0000
0100
0000
,
1001
0000
0000
0000
,
0100
0000
0000
0000
,
0001
0000
0000
0000
,
0010
0000
0000
0000
,
0100
0000
0000
0000
,
1000
0000
0000
0000
,
0010
0000
0000
0000
,
1000
0000
0000
0000
,
1001
0000
0000
0000
,
0000
0000
0000
0001
,
0000
1000
0000
1000
,
0000
0001
0000
0001
,
0000
0000
0000
0100
,
0000
0100
0000
0100
,
0000
0000
0010
0000
,
1000
0000
0001
0000
,
1001
0000
0000
0000
,
0100
0000
0100
0000
,
0100
0000
0000
0000
,
0010
0000
0010
0000
,
1001
0000
0000
0000
,
0000
0000
0000
0000
,
0100
0100
0100
0100
,
0100
0000
0000
0100
,
0000
1000
0000
1000
,
0000
0001
0000
0001
,
0000
0100
0000
0010
,
0000
0100
0000
0010
,
0000
1000
0000
0001
,
0000
1000
0000
0001
,
0000
0010
0000
0100
,
0000
0010
0000
0000
,
1001
0000
0000
0000
,
0110
0000
0000
0000
,
1000
0000
0001
0000
,
1000
0000
0001
0000
,
1001
0000
0000
0000
,
0010
0000
0010
0000
,
1001
0000
0000
0000
,
0100
0100
0100
0000
,
2002
0000
0000
0000
,
0000
0000
0000
0000
,
3003
0000
0000
0000
;

//--------------- dance-single - forcednature ----------------
#NOTES:
     dance-single:
     forcednature:
     Easy:
     7:
     0,0,0,0,0:
0000
0000
0000
0000
,
0000
0000
0000
0000
,
0000
0000
0000
0000
,
0000
0000
0000
0000
,
0000
0000
0000
0000
,
0000
0000
0000
0000
,
1000
0010
1000
0001
,
0100
0001
0010
0000
,
0100
1000
0001
0100
,
0010
0010
0010
0000
,
1001
0001
0100
0010
,
1000
0100
0010
0000
,
0100
1000
0001
0100
,
0001
1000
0010
0000
,
1001
0100
1000
0001
,
0010
0100
1000
0000
,
0110
0001
1000
0001
,
0100
0010
1000
0000
,
1001
0100
0000
0100
,
0000
0100
0000
0100
,
0000
0100
0000
0100
,
0000
0100
0000
0000
,
1001
0000
0100
0000
,
1000
1000
0001
0001
,
0100
0000
0010
0000
,
1000
0100
0010
0001
,
0100
0000
0020
0000
,
1000
1000
1030
0000
,
0100
0000
0002
0000
,
0010
0010
0013
0010
,
1001
0000
0100
0000
,
1000
0001
1000
0000
,
0010
0000
0100
0000
,
0001
0010
0001
0000
,
0200
0000
0010
0000
,
0001
0001
0301
0000
,
0010
0000
1000
0000
,
0001
0001
0001
0001
,
1001
0000
0100
0000
,
1000
0010
1000
0000
,
0100
0000
0010
0000
,
0001
0100
0001
0000
,
0110
0000
1000
0000
,
0001
0000
0010
0000
,
0100
0100
0100
0000
,
0010
0010
0010
0010
,
1001
0000
0100
0000
,
1000
0001
1000
0000
,
0010
0000
0100
0000
,
0001
1000
0001
0000
,
2002
0000
0000
0000
,
0000
0000
3003
0000
,
0200
0000
0000
0000
,
0000
0000
0300
0000
,
1001
0001
0100
0001
,
1000
0010
1000
0100
,
0010
0001
0100
0010
,
2000
0001
3001
0000
,
0100
0010
0001
0100
,
0010
0100
0001
0010
,
0001
0100
0010
0100
,
0002
0010
0013
0000
,
1001
1000
0100
1000
,
0001
0100
0001
1000
,
0100
1000
0001
0100
,
0002
1000
1003
0000
,
1001
0010
1000
0001
,
0010
0001
1000
0010
,
1000
0001
0010
0001
,
0100
0010
1000
1000
,
0200
0000
0000
0300
,
0020
0000
0000
0030
,
0002
0000
0000
0003
,
0200
0000
0000
0300
,
0020
0000
0000
0030
,
2000
0000
3001
0010
,
0200
0000
0000
0300
,
2000
0000
0000
3000
,
1001
0100
0000
0100
,
0000
0010
0000
0010
,
1000
0001
0000
1000
,
0000
0100
0000
0010
,
0100
1000
0000
0010
,
1000
0001
0100
0001
,
0010
0100
0000
0100
,
0010
0001
0100
0010
,
1001
0100
0000
1000
,
1000
0010
0010
0001
,
0001
0010
0000
1000
,
1000
0100
0001
0100
,
2002
0000
0000
0000
,
0000
0000
3003
0000
,
1000
1000
0001
0100
,
0001
0001
1000
0100
,
1001
0010
0100
1000
,
0001
1000
0010
1000
,
0001
0100
0001
0010
,
0200
1000
1300
0000
,
1000
0001
0010
0001
,
0100
0010
1000
0100
,
1000
0010
0100
0001
,
2000
0100
3100
0000
,
1001
0100
0010
0000
,
1001
0010
0100
0000
,
1001
0000
0000
0100
0000
0000
1001
0000
,
0000
0010
0000
0000
1000
0000
0001
0000
,
1001
0000
0010
0000
,
1000
1000
0001
0001
,
1001
0000
0100
0000
,
0010
0010
0100
0100
,
2002
0000
0000
0000
,
0000
0000
0000
0000
,
3003
0000
0000
0000
;

//--------------- dance-single - forcednature ----------------
#NOTES:
     dance-single:
     forcednature:
     Medium:
     12:
     0,0,0,0,0:
0000
0000
0000
0000
,
0000
0000
0000
0000
,
0000
0000
0000
0000
,
0000
0000
0000
0000
,
0000
0000
0000
0000
,
0000
0000
0000
0000
,
1000
0000
0100
1000
0000
0001
0010
0001
,
0000
1000
0000
0001
0100
0000
0100
0000
,
0001
0000
0100
0001
0000
1000
0010
1000
,
0000
0001
0000
1000
0100
0000
0100
0000
,
0110
0000
1000
0001
0000
0100
0001
0100
,
0000
0010
0000
1000
0001
1000
0001
1000
,
0001
0000
0000
0010
0000
0100
1000
0010
,
0000
1000
0000
0001
0100
0001
0100
0001
,
0100
0000
0000
0010
0000
1000
0001
1000
,
0000
0100
0000
0010
0001
0010
0001
0010
,
0001
0000
0000
0100
0000
0010
1000
0001
,
0000
0010
0000
0100
1000
0100
1000
0100
,
1000
0001
0000
0001
,
0000
0000
0000
0000
1000
0000
0000
1000
0000
0000
0000
0000
1000
0000
0000
0000
,
0000
0001
0000
0001
,
0000
0000
1000
0001
0100
0100
0010
1000
,
0000
0000
0001
0000
0010
0100
0000
0020
,
0000
0031
0100
0010
,
2000
0000
0001
3001
0000
0100
0001
0100
,
0001
1000
0010
1000
,
0001
0000
0010
0200
0000
0000
0001
0000
,
0010
0000
1300
0000
0000
1000
0000
0200
,
0000
0000
1300
0002
0000
0000
0100
0000
,
0013
0001
1000
0001
0100
0010
1000
0001
,
1000
0000
0100
0000
0010
0001
0000
0200
,
0000
0000
0310
1000
0010
0000
0100
0000
,
0002
0000
1000
1003
0000
0000
0001
0010
,
0100
0000
1000
0001
0000
0100
0000
0020
,
0000
1000
0100
0001
,
0100
0000
0000
0000
1000
0000
0000
1000
0030
0000
0000
0000
0010
0000
0000
0000
,
0100
0100
0001
0000
1000
0100
0010
0000
,
0001
0100
0010
1000
0001
1000
0100
0010
,
0001
0000
0101
0000
0001
1000
0100
2000
,
0000
0000
3010
0020
0000
0100
0130
0000
,
0001
1000
0001
0000
0010
0100
1000
0010
,
0000
0100
0001
1000
0100
0000
0010
0001
,
0200
0010
0300
0010
,
1000
0000
0001
0000
1000
0000
0000
1000
0000
0000
0001
0000
0000
0000
0020
0000
,
0000
0000
0130
0200
0000
0000
1300
0000
,
0100
0010
0001
0100
0010
0100
0001
0010
,
0100
0000
1100
0000
0001
0100
0010
2000
,
0000
0000
0001
0002
0000
0000
3003
0000
,
1000
0000
0100
0000
0010
0001
0000
0200
,
0000
1000
0000
0010
0000
0301
0100
0010
,
2002
0000
0000
0000
,
0000
0000
0000
0003
,
0200
0000
0000
0000
3000
0000
0000
0010
,
0310
0010
0001
0100
0001
1000
0100
0000
,
1001
0000
0101
0000
0100
0000
0010
1000
,
0000
0001
1000
0100
0010
0000
0110
0000
,
0020
0000
0000
0032
0000
0000
0203
0000
,
0320
0001
0100
1030
,
0110
0000
1000
0000
0001
0000
0010
0100
,
0000
1000
0100
1000
0000
0000
0010
0100
,
0002
0000
0000
0023
0000
0000
0130
2000
,
0010
0001
0100
3001
,
1001
0000
0001
0000
0100
0000
1000
0200
,
0000
0000
0310
2000
0000
0000
3001
0010
,
0002
0000
0000
0023
0000
0000
0230
0000
,
0320
1000
0100
0031
,
0110
0000
1000
0000
0001
0100
0001
0000
,
1000
0000
0010
0000
1000
0000
0000
1000
0000
0000
0100
0000
0010
0000
0001
0000
,
0202
0000
0303
0002
0000
2003
0000
3200
,
0000
0302
0000
0203
0000
2300
0000
0000
,
3020
0000
0000
0000
,
0230
0000
0000
0302
,
2003
0000
0000
0000
,
3002
0000
0000
0000
,
0023
0000
0000
0000
,
0230
0000
0320
0032
,
0203
0000
0000
0000
,
0320
0000
0000
1000
1030
0010
0010
0100
,
0001
1100
0001
1100
,
0001
0000
0000
0000
1100
0000
0000
1100
0000
0000
0000
0000
2000
0000
3020
0000
,
0000
0230
0000
0302
0000
0023
0000
0230
,
0000
0320
0000
0032
0000
0203
0320
2030
,
3002
0000
0000
0000
0000
0000
0103
0200
,
0000
0000
0310
0020
0000
0000
0130
0200
,
0000
0000
0310
2000
3000
0002
0003
2000
,
3000
0200
0300
0020
0000
0000
0032
0000
,
0103
0001
0100
0001
0000
1000
0010
1000
,
0000
0001
0000
0010
0100
1000
0001
0000
,
1000
0000
0010
0100
0000
0001
1000
0001
,
0000
0010
0000
0100
1000
0100
1000
0000
,
2002
0000
0000
0000
,
0000
0000
3003
0000
,
0001
0000
1000
1000
0000
0001
0001
0000
,
0100
0100
0000
0010
0010
0000
0110
0000
,
1001
0000
1100
0000
0100
0000
0010
0001
,
0000
0100
0010
1000
0001
0000
0011
0000
,
0020
0000
0000
0230
0000
0000
2300
0000
,
3020
0100
0001
1030
,
0110
0000
0001
0000
1000
0000
0001
0100
,
0000
1000
0100
0010
0000
0000
1000
0001
,
2000
0000
0000
3200
0000
0000
0310
0002
,
0100
0010
0100
0013
,
1001
0000
0001
0100
1000
0100
0010
0000
,
1001
0000
1000
0100
0001
0100
0010
0000
,
0101
0000
0000
1100
0000
0000
0011
0000
,
0000
1010
0000
1000
1000
0001
0001
0100
,
0110
0000
1000
0000
0001
0010
0100
0000
,
0010
0000
0001
0000
0100
0000
0000
0100
0000
0000
0010
0000
1000
0000
0000
0000
,
2002
0000
3003
0002
0000
0203
0000
0320
,
0000
2030
0000
3200
0000
0320
0000
0000
,
0032
0000
0000
0000
,
0000
0000
0000
0000
,
0003
0000
0000
0000
;

//--------------- dance-single - forcednature ----------------
#NOTES:
     dance-single:
     forcednature:
     Hard:
     15:
     0,0,0,0,0:
0000
0000
0000
0000
,
0000
0000
0000
0000
,
0000
0000
0000
0000
,
0000
0000
0000
0000
,
0000
0000
0000
0000
,
0000
0000
0000
0000
,
0001
0100
0010
1000
0000
0001
0010
0100
,
0000
0000
0110
0000
0000
0000
0010
0001
0010
0000
0001
0000
1000
0000
0010
0000
,
0100
1000
0100
0001
0000
1000
0010
0001
,
0000
0000
0110
0000
0000
0000
1000
0001
1000
0000
0100
0000
0010
0000
0001
0000
,
0100
1000
0100
0010
1000
0001
0010
0100
,
1000
0000
0001
0000
0000
0000
0100
0001
0100
0000
0010
0000
1000
0000
0001
0000
,
0010
0100
1000
0001
1000
0010
0100
0001
,
0010
0000
0100
0000
0000
0000
0010
0001
0010
0000
0100
0000
1000
0000
0001
0000
,
1000
0010
0001
0010
0100
0001
1000
0100
,
0010
0000
1000
0000
0000
0000
0010
0001
0010
0000
0100
0000
1000
0000
0010
0000
,
0100
1000
0100
0001
1000
0100
0010
0001
,
0100
0000
0010
0000
0000
0000
1000
0100
1000
0000
0010
0000
0100
0000
0001
0000
,
0010
0100
0110
0000
0000
0100
0110
0000
,
1000
0000
0001
0000
1001
0000
0000
1001
0000
0000
0001
0000
0101
0000
0000
0000
,
1000
0010
1010
0000
0000
0001
0011
0000
,
1000
0100
0110
0010
0001
0001
0100
1000
,
0110
0000
1001
0000
1000
0010
0001
0010
,
0100
0000
0100
0000
0001
0000
1000
0001
0000
0000
1000
0000
1100
0000
0000
0000
,
0001
0100
0001
1000
0000
0010
0100
0001
,
1000
0000
0100
0000
0010
0000
0001
1000
0001
0000
0100
0000
0010
0000
0000
0000
,
1000
1000
0100
1000
0000
0010
0100
0000
,
0001
0000
0010
0000
0100
0000
0010
0001
0000
0000
0100
0000
0001
0000
0000
0000
,
1000
1000
0010
0100
0000
0001
0010
0000
,
0001
1000
0100
0010
0001
0100
0010
0001
,
0110
0000
1001
0000
1000
0001
0100
0010
,
0000
0000
1000
0000
0100
0000
0010
0001
0010
0000
0100
0000
1000
0000
0000
0000
,
0001
0100
1000
0100
0000
0010
1000
0001
,
0010
0000
0100
0000
0010
0000
0001
1000
0001
0000
0100
0000
0010
0000
0000
0000
,
1000
0100
0110
0000
0000
0001
1001
0000
,
0001
0000
0100
0000
1010
0000
0000
1010
0000
0000
1000
0000
1001
0000
0000
0000
,
0001
0010
0110
0000
1000
0001
1001
0000
,
1000
0001
0100
0010
1000
0100
0010
1000
,
0110
0000
1001
0000
0001
0100
1000
0100
,
0010
0000
1000
0000
0001
0000
1000
0100
0010
0000
0001
0000
0100
0000
0000
0000
,
0010
0000
1001
0000
1000
0100
0010
0001
,
0100
0000
0010
0000
1000
0000
0001
0010
0100
0000
0001
0000
0100
0000
1000
0000
,
0110
0000
1001
0000
1000
0010
0100
0000
,
0001
0000
0001
0000
1001
0000
0000
0110
0000
0000
1000
0000
0100
0000
0010
0000
,
0100
1000
0010
0100
0000
0001
0010
0000
,
0100
1000
0010
0001
1000
0100
0001
0010
,
0110
0000
1001
0000
0001
0100
1000
0000
,
0100
0000
0010
0000
1000
0000
0001
0010
0001
0000
0100
0000
0010
0000
0000
0000
,
1001
0000
0110
0000
1000
0010
0100
0000
,
0001
0000
0010
0000
0100
0000
1000
0010
1000
0000
0001
0000
0010
0000
0100
0000
,
0220
0000
0000
0000
,
0000
0000
0000
0330
,
2002
0000
0000
0000
0000
0000
3003
0001
,
0100
0001
0100
0001
0100
0000
0100
0000
0010
0000
0010
0000
1000
0000
0001
0000
,
1001
1000
0010
1000
0100
0010
0001
0100
,
0000
0000
0010
0000
1000
0000
0100
0010
0001
0000
1000
0000
0001
0000
0100
0000
,
0010
0100
0001
0010
0000
0100
0001
0100
,
0000
0000
1000
0000
0010
0000
1000
0100
1000
0000
0001
0010
0001
0000
1000
0001
,
0100
0010
1000
0100
0001
0100
0010
0001
,
0000
0000
1000
0000
0001
0000
0010
0100
1000
0000
0010
0000
0100
0000
0001
0000
,
1000
0100
0001
0100
0000
0010
0001
1000
,
0000
0000
0010
0000
0100
0000
0001
0010
0001
0000
1000
0100
1000
0000
0010
0100
,
0001
0010
0100
0001
0100
1000
0001
0100
,
0000
0000
0010
0000
1000
0000
0001
0010
0100
0000
0001
0000
0100
0000
1000
0000
,
0001
1000
0010
0001
0000
0010
0100
0001
,
1000
0000
0100
0000
0010
0000
0001
0100
0001
0000
1000
0100
0010
0000
0100
1000
,
0001
0100
0101
0000
1000
0100
1100
0000
,
0010
0000
0100
0000
0110
0000
0000
0110
0000
0000
0010
0000
1001
0000
0000
0000
,
1000
0100
0010
0001
0100
1000
0100
0001
,
0010
0000
0100
0000
1000
0000
0001
0100
0001
0000
1000
0100
0010
0001
1000
0000
,
0002
0000
0000
0000
,
0203
0000
0000
2300
,
3200
0000
0000
0000
,
0320
0000
0000
0000
,
2030
0000
0000
0000
,
3200
0000
0302
0203
,
0320
0000
0000
0000
,
0032
0000
0000
1003
1000
0010
0010
0100
,
0110
0010
1001
0000
1000
0100
0110
0000
,
0001
0000
0100
0000
0110
0000
0000
0110
0000
0000
0001
0000
2000
0000
3020
0000
,
0000
0230
0000
2300
0000
3200
0000
0302
,
0000
0023
0000
2030
0000
3020
0230
2300
,
3020
0000
0100
0000
0000
0000
1030
2000
,
0000
0000
3001
0002
0000
0000
1003
2000
,
0000
0000
3002
0203
0300
0020
0030
2000
,
3000
0200
0300
0020
0000
0000
0032
0000
,
1003
0001
0100
0010
0000
1000
0100
0010
,
0100
0000
1000
0000
0000
0000
0001
0100
0001
0000
1000
0000
0010
0000
0001
0000
,
0010
0000
0100
0001
0000
1000
0100
0010
,
0000
0000
0100
0000
0000
0000
1000
0001
1000
0000
0010
0000
0100
0000
0001
0000
,
2002
0000
0000
0000
,
0000
0000
3003
0000
,
1000
0100
1000
0000
0001
0000
1000
0100
1000
0000
0010
0000
0100
0001
0100
0000
,
0010
0000
1000
0001
1000
0000
0100
0010
0001
0000
1000
0001
1000
0001
1000
0000
,
1001
0001
0100
1000
0100
0010
1000
0001
,
0000
0000
0010
0000
0100
0000
0010
0001
1000
0000
0001
0000
0010
0000
0100
0000
,
1000
0100
0001
0100
0000
0010
0001
0100
,
0000
0000
1000
0000
0100
0000
0001
1000
0001
0000
1000
0100
1000
0000
0010
0100
,
0001
0010
0001
0100
1000
0100
0010
1000
,
0000
0000
0001
0000
0010
0000
0100
1000
0001
0000
0100
0000
1000
0000
0100
0000
,
0001
1000
0100
0001
0000
0100
0010
0001
,
0000
0000
0100
0000
0010
0000
1000
0100
1000
0000
0001
0100
0001
0000
1000
0100
,
0010
1000
0010
0001
1000
0001
0100
0000
,
0010
0001
0010
1000
0001
1000
0100
0000
,
2002
0000
3003
0220
0000
0330
2002
0000
,
3003
0000
0220
0000
0330
0000
0001
0010
0001
0000
1000
0010
1000
0000
0001
1000
,
0100
0010
0011
0000
0001
1000
1010
0000
,
1000
0000
0001
0000
1001
0000
0000
1001
0000
0000
0100
0000
0110
0000
0000
0000
,
1000
0100
0001
0100
1000
0010
0001
0010
,
1000
0000
0001
0000
0100
0000
0010
1000
0010
0000
1000
0100
0010
0001
0100
0000
,
2002
0000
0000
0000
,
0000
0000
0000
0000
,
3003
0000
0000
0000
;

//--------------- dance-double - forcednature ----------------
#NOTES:
     dance-double:
     forcednature:
     Easy:
     7:
     0,0,0,0,0:
00000000
00000000
00000000
00000000
,
00000000
00000000
00000000
00000000
,
00000000
00000000
00000000
00000000
,
00000000
00000000
00000000
00000000
,
00000000
00000000
00000000
00000000
,
00000000
00000000
00000000
00000000
,
00001000
00010000
00001000
00010000
,
00000100
00010000
00000100
00000000
,
00010000
00001000
00010000
00001000
,
01000000
00001000
01000000
00000000
,
00010000
00000000
00000000
10000000
,
10000000
00000000
00000000
01000000
,
00100000
00000000
00001000
00000000
,
00001000
00000000
00010000
00000000
,
00011000
00010000
00000100
00001000
,
00000001
00001000
00000010
00000000
,
00000110
00000100
00000001
00001000
,
00000001
00000010
00000100
00000000
,
00001100
00000100
00000000
00000100
,
00000000
00010000
00000000
00010000
,
00000000
00001000
00000000
00001000
,
00000000
01000000
00000000
00000000
,
00100000
10000000
00010000
00000000
,
10000000
01000000
00100000
00000000
,
01000000
00000000
00010000
00000000
,
00001000
00010000
00001000
00000000
,
00000100
00000000
00000000
00000020
00000000
00000000
00000000
00000000
,
00001000
00001000
00001030
00000000
,
00001000
00000000
00000000
00000200
00000000
00000000
00000000
00000000
,
00020300
00032000
02003000
03020000
,
00130000
01000000
10000000
00000000
,
00010000
01000000
00001000
00000000
,
00010000
00000100
00001000
00000100
,
00000010
00000001
00000010
00000000
,
00000200
00000000
00001000
00000000
,
00001000
00001000
00001300
00000000
,
00000100
00000000
00010000
00000000
,
00002000
02003000
03020000
20030000
,
31000000
00100000
00010000
00000000
,
01000000
00001000
00010000
00000000
,
00000010
00010000
00001000
00010000
,
00000100
00001000
00000001
00000000
,
00000100
00000000
00001000
00000000
,
00010000
00001000
01000000
00001000
,
00010000
00000000
00000010
00000000
,
00020000
00030200
00002300
00003002
,
00000103
00000000
00000010
00000000
,
00001000
00000100
00010000
00000000
,
00001000
01000000
00010000
10000000
,
00010000
00100000
00001000
00000000
,
00022000
00000000
00000000
00000000
,
00000000
00000000
00000000
00000000
,
00000000
00000000
00000000
00000000
,
00000000
00000000
00033000
00000000
,
00011000
00000000
00000100
00001000
,
00000001
00001000
00000010
00000000
,
00010000
00001000
00100000
00010000
,
02000000
00000000
00000000
03000000
,
00100000
00000000
10000000
00010000
,
10000000
01000000
00100000
00000000
,
00001000
00010000
00000010
00001000
,
00000002
00000000
00000000
00000003
,
00001001
00000000
00001000
00000100
,
00010000
00000010
00010000
00000000
,
00000100
00010000
00001000
01000000
,
00020000
00000000
00000000
00030000
,
10010000
00000000
10000000
01000000
,
00100000
00001000
00010000
00000000
,
00011000
00000000
00001000
00010000
,
00000010
00001000
00000001
00000000
,
00002001
00000000
00000000
00000000
,
00003200
00000000
00000000
00020300
,
00032000
00000000
00000000
00000000
,
02003000
00000000
00000000
00000000
,
03020000
00000000
00000000
00000000
,
20030000
00000000
32000000
03200000
,
02300000
00000000
00000000
00000000
,
03020000
00000000
00031000
00001000
,
00011000
00010000
00000000
00010000
,
00000000
00010000
00000000
00000100
,
00001000
00000100
00000000
00000010
,
00000001
00000010
00000000
00000001
,
00000200
00000000
00000000
00000010
,
00000000
00000010
00000000
00000310
,
00000000
00000010
00010000
00001000
,
00100000
00010000
01000000
00000000
,
10010000
00000000
10000000
00010000
,
01000000
00001000
00010000
00000100
,
00001000
00000000
00000001
00000100
,
00000001
00001000
00000100
00010000
,
00022000
00000000
00000000
00000000
,
00000000
00000000
00033000
00000000
,
00001000
00010000
00001000
00010000
,
01000000
00100000
01000000
00100000
,
00010000
00000000
10000000
00010000
,
01000000
00001000
00010000
00000010
,
00010000
00000100
00001000
00000001
,
00000200
00000000
00000000
00000300
,
00000010
00000000
00010000
00001000
,
00010000
00000100
00001000
00000010
,
00010000
00001000
00100000
00010000
,
02000000
00000000
00000000
03000000
,
10010000
00000000
00100000
00000000
,
00011000
00000000
00000010
00000000
,
00000100
00000000
00000000
00000100
00000000
00000000
00000010
00000000
,
00000000
00000010
00000000
00000000
00000100
00000000
00000000
00000000
,
00001001
00000000
00001000
00000100
,
00010000
00001000
01000000
00010000
,
10010000
00000000
00010000
01000000
,
00001000
00010000
00000100
00001000
,
00002002
00000000
00000000
00000000
,
00000000
00000000
00000000
00000000
,
00003003
00000000
00000000
00000000
;

//--------------- dance-double - forcednature ----------------
#NOTES:
     dance-double:
     forcednature:
     Medium:
     11:
     0,0,0,0,0:
00000000
00000000
00000000
00000000
,
00000000
00000000
00000000
00000000
,
00000000
00000000
00000000
00000000
,
00000000
00000000
00000000
00000000
,
00000000
00000000
00000000
00000000
,
00000000
00000000
00000000
00000000
,
00001000
00000000
00010000
00000100
00000000
00001000
00000000
00001000
,
00000000
00000010
00000000
00000100
00000001
00000000
00001000
00000000
,
00000100
00000000
00010000
00001000
00000000
01000000
00000000
01000000
,
00000000
00001000
00000000
00100000
00010000
00000000
10000000
00000000
,
10010000
00000000
00010000
00000000
01000000
00001000
01000000
00010000
,
00000000
00100000
00000000
00001000
00010000
00000000
00010000
00000000
,
00000100
00000000
00001000
00000001
00000000
00001000
00000010
00010000
,
00000000
00001000
00000000
00100000
00010000
00000000
01000000
00000000
,
01010000
00000000
00010000
00000000
10000000
01000000
10000000
00010000
,
00000000
01000000
00001000
00000000
00010000
00000000
00000010
00000000
,
00000110
00000000
00000010
00000000
00001000
00000001
00001000
00000100
,
00000000
00010000
00001000
00000000
00001000
00000000
00100000
00000000
,
01002000
01000000
00000000
00010000
,
00000000
00100000
00000000
00010000
,
00000000
00000100
00000000
00010000
,
00000000
00020000
00000000
00033000
,
00011000
00000000
00000100
00000000
00001000
00000001
00000000
00000200
,
00000000
00000310
00010000
00011000
,
02000000
00000000
00000000
03010000
00000000
00000000
10000000
01000000
,
10000000
00000000
00100000
00010000
00001000
01000000
00001000
00000000
,
00100000
00000000
00010000
02000000
00000000
00000000
00100000
00000000
,
00000000
00000000
00100000
00000000
03000000
01000000
00000000
00002000
,
00000000
00000000
00013000
00000200
00000000
00000000
00000010
00000000
,
00000300
00000100
00001000
00000100
00000010
00000001
00001000
00000001
,
00000100
00000000
00000010
00000000
00001000
00000001
00000000
00000200
,
00000000
00000000
00001300
00010000
00100000
01000000
00100000
00000000
,
20000000
00000000
00000000
30010000
00000000
00000000
00000000
10000000
,
01000000
00000000
00100000
00020000
00000000
02030000
00000000
03002000
,
00000000
00010000
00000000
00100000
,
00000000
00010000
00000000
00013000
,
00001000
00010000
00001000
00000000
00000000
00001000
00000100
00000000
,
00000000
00001000
00010000
00001000
01000000
00001000
01000000
00010000
,
10000000
00000000
00010000
00100000
01000000
10000000
01000000
00200000
,
00000000
00000000
01300000
20000000
00000000
00000000
30010000
00000000
,
01000000
00000000
00001000
00000000
00010000
00000100
00000000
00002000
,
00000000
00000000
00003001
00000100
00000000
00000010
00001000
00000001
,
00002000
00000100
00003100
00000000
00001000
00000000
00000010
00000000
,
00001000
00001000
00000001
00000000
00000000
00000100
00000000
00000020
,
00000000
00000000
00000130
00002000
00000000
00000000
00013000
00000000
,
00000000
00001000
00010000
00001000
00100000
00010000
00100000
01000000
,
10000000
00000000
00010000
00000000
10000000
01000000
00100000
00010000
,
01000000
00001000
00100000
00020000
00000000
00000000
01030000
00000000
,
00001000
00001000
00010000
00000000
00000100
00000000
00000000
00002000
,
00000000
00000100
00000000
00000001
00000000
00003010
00001000
00000000
,
00002001
00000000
00000000
00000000
,
00000000
00000000
00000000
00000000
,
00003200
00000000
00000000
00000000
00000000
00000000
00000000
00001000
,
00001300
00000100
00010000
00001000
,
00011000
00000000
00001000
00000000
01000000
00000000
00010000
20000000
,
00000000
00000000
31000000
00200000
00000000
01000000
01300000
00000000
,
20000000
00000000
00000000
30020000
00000000
00000000
02030000
00000000
,
03002000
00000000
00010000
00000000
00100000
00000000
00013000
00010000
,
00010000
00000000
00000100
00000000
00001000
00000000
00000001
00000100
,
00000000
00000010
00001000
00000010
00000000
00000000
00000010
00000100
,
00002000
00000000
00000000
00023000
00000000
00000000
00130000
02000000
,
00000000
10000000
00100000
03010000
,
10010000
00000000
00010000
00000000
00100000
00000000
00001000
00020000
,
00000000
00000000
00030010
00002000
00000000
00000000
00003001
00000000
,
00000020
00000000
00000000
00000230
00000000
00000000
00002300
00000000
,
00003020
00000000
00000001
00000000
00000100
00000000
00001030
00001000
,
00002001
00000100
00000000
00000100
,
00000000
00000000
00003010
00001000
00000100
00010000
00000100
00000000
,
00022000
00000000
00033000
00020000
00000000
00230000
00000000
02300000
,
00000000
03020000
00000000
20030000
00000000
32000000
00000000
00000000
,
03200000
00000000
00000000
00000000
,
00302000
00000000
00000000
00023000
,
00030020
00000000
00000000
00000000
,
00002030
00000000
00000000
00000000
,
00003002
00000000
00000000
00000000
,
00002003
00000000
00003200
00020300
,
00032000
00000000
00000000
00000000
,
02003000
00000000
00000000
03010000
00010000
10000000
10000000
00010000
,
00010000
11000000
00010000
11000000
,
00010000
00000000
11000000
00000000
00010000
00000000
10000000
00020000
,
00000000
02030000
00000000
03002000
00000000
00023000
00000000
00030200
,
00000000
00002300
00000000
00003002
00000000
00000103
00000001
00000100
,
00000002
00000000
00001000
00000000
00000000
00000000
00000023
00000100
,
00000000
00000000
00000230
00000010
00000000
00000000
00000320
00000100
,
00000000
00000000
00000230
00001000
00000000
00020300
00000000
00032000
,
00000000
02003000
00000000
03020000
00000000
00000000
00230000
00000000
,
01300000
10000000
01000000
10000000
00000000
01000000
01000000
10000000
,
00000000
00010000
00000000
00010000
01000000
00010000
01000000
00001000
,
00010000
00000000
00010000
00000100
00000000
00001000
00000010
00001000
,
00000000
00000100
00000000
00000010
00000010
00000001
00000100
00000000
,
00002002
00000000
00000000
00000000
,
00000000
00000000
00003003
00000000
,
00000001
00000000
00000100
00001000
00010000
00000000
01000000
00000000
,
00100000
00001000
00010000
00000000
00100000
00010000
00001000
00000000
,
00011000
00000000
00001000
00000000
01000000
00000000
00010000
20000000
,
00000000
00000000
31000000
00200000
00000000
00010000
00310000
00000000
,
02000000
00000000
00000000
03002000
00000000
00000000
00023000
00000000
,
00030020
00000000
00001000
00000000
00000001
00000000
00000130
00000100
,
00000101
00000000
00000001
00000000
00000010
00000000
00000001
00000200
,
00000000
00000000
00000310
00001000
00000000
00001000
00000100
00010000
,
00000200
00000000
00000000
00020300
00000000
00000000
00031000
02000000
,
00010000
10000000
00100000
03010000
,
10010000
00000000
10000000
01000000
00100000
00010000
01000000
00000000
,
00011000
00000000
00001000
00010000
00000100
00001000
00000001
00000000
,
00001010
00000000
00000000
00001100
00000000
00000000
00000011
00000000
,
00000000
00000101
00000000
00000100
00000001
00001000
00000100
00000000
,
00001001
00000000
00000001
00000000
00000100
00001000
00010000
00000000
,
01000000
00000000
00010000
00001000
00010000
00100000
01000000
00000000
,
10010000
00000000
10000000
00000000
01000000
00010000
00001000
00000000
,
00000100
00000000
00001000
00010000
00001000
00000010
00000100
00000000
,
00002002
00000000
00000000
00000000
,
00000000
00000000
00000000
00000000
,
00003003
00000000
00000000
00000000
;

//--------------- dance-double - forcednature ----------------
#NOTES:
     dance-double:
     forcednature:
     Hard:
     15:
     0,0,0,0,0:
00000000
00000000
00000000
00000000
,
00000000
00000000
00000000
00000000
,
00000000
00000000
00000000
00000000
,
00000000
00000000
00000000
00000000
,
00000000
00000000
00000000
00000000
,
00000000
00000000
00000000
00000000
,
00001000
00010000
00100000
01000000
00000000
00010000
10000000
01000000
,
00000000
00000000
00100000
00000000
00000000
00000000
00001000
00010000
00001000
00000000
00000100
00000000
00000001
00000000
00001000
00000000
,
00000100
00000000
00000010
00001000
00000000
00000010
00000001
00000100
,
00000000
00000000
00001000
00000000
00000000
00000000
00010000
00000100
00010000
00000000
00001000
00000000
01000000
00000000
00010000
00000000
,
00100000
01000000
00010000
00001000
00000000
00000010
00000100
00001000
,
00000000
00000000
00000001
00000000
00000000
00000000
00000100
00000010
00000100
00000000
00001000
00000000
00010000
00000000
00100000
00000000
,
01000000
00000000
00010000
10000000
00000000
01000000
00100000
00001000
,
00000000
00000000
00010000
00000000
00000000
00000000
00100000
10000000
00100000
00000000
01000000
00000000
00001000
00000000
00010000
00000000
,
00000100
00000010
00000001
00001000
00000000
00000010
00000001
00000010
,
00000100
00000000
00000001
00000000
00000000
00000000
00000010
00000100
00000010
00000000
00000001
00000000
00001000
00000000
00000010
00000000
,
00010000
00001000
00100000
00001000
00000000
00010000
00100000
01000000
,
00010000
00000000
10000000
00000000
01000000
00000000
00100000
00010000
00100000
00000000
01000000
00000000
00010000
00000000
00001000
00000000
,
00000010
00000100
00001000
00000000
00000000
00000001
00000100
00000000
,
00000010
00000000
00010000
00000000
00001000
00000000
00000000
00001000
00000000
00000000
00100000
00000000
00010000
00000000
00000000
00000000
,
01000000
10000000
01000000
00000000
00000000
00100000
10000000
00000000
,
01000000
00010000
00001000
00000100
00000001
00000001
00000010
00000000
,
00000110
00000000
00001000
00000000
00000001
00000100
00000010
00000000
,
00001000
00000100
00000010
00000100
00010000
00001000
00000100
00000000
,
00001000
00010000
00100000
00010000
00000000
00001000
00010000
01000000
,
00100000
00010000
10000000
00010000
01000000
00100000
10000000
00000000
,
01000000
00000000
00100000
00010000
00000000
01000000
00001000
00000000
,
00010000
00100000
01000000
00001000
00010000
00000100
00001000
00000000
,
00000010
00000000
00010000
00001000
00000000
00000100
00000001
00000000
,
00000010
00000001
00000100
00000010
00001000
00010000
01000000
00100000
,
10000000
00000000
00010000
00000000
10000000
01000000
00100000
00001000
,
00010000
00100000
01000000
00000000
00010000
10000000
01000000
00000000
,
00100000
00001000
00010000
00000100
00000000
00001000
00000010
00000000
,
00000100
00000001
00000010
00000001
00000000
00000100
00001000
00000000
,
00010000
00100000
00010000
00000000
00001000
00010000
01000000
00000000
,
00100000
00000000
00001000
00000000
00010000
00000000
00000000
00010000
00000000
00000000
00100000
00000000
01000000
00000000
00000000
00000000
,
00001000
00010000
00000100
00000000
00010000
00001000
01000000
00000000
,
00100000
10000000
01000000
00100000
00010000
00001000
00000100
00000010
,
00000001
00000100
00000001
00000100
00000010
00001000
00000010
00001000
,
00000001
00000010
00000100
00001000
00000010
00010000
00001000
00000000
,
00100000
00010000
00100000
00010000
01000000
10000000
01000000
10000000
,
01000000
00010000
00100000
00001000
00010000
00100000
01000000
00000000
,
00010000
00100000
00001000
00000000
00010000
00100000
01000000
00000000
,
00001000
00000000
00010000
00000000
00000100
00000000
00000000
00000100
00000000
00000000
00000010
00000000
00000001
00000000
00000000
00000000
,
00001000
00000010
00000100
00000001
00000000
00001000
00000100
00000000
,
00000010
00000001
00000100
00001000
00010000
01000000
10000000
00100000
,
01000000
00010000
10000000
00000000
01000000
00100000
00001000
00000000
,
00010000
00100000
01000000
00001000
00010000
00000100
00001000
00000000
,
00000010
00010000
00001000
00000000
00000010
00000001
00000100
00000000
,
00000010
00000000
00010000
00000000
00001000
00000000
01000000
00010000
01000000
00000000
00100000
00000000
10000000
00000000
01000000
00000000
,
00200000
00000000
00000000
00000000
,
00000000
00000000
00000000
00000000
,
00002000
00300000
00000000
00000000
00000000
00000000
00000000
00000000
00000000
00000000
00000000
00000000
00000000
00000000
00000000
00000000
00000000
00000000
00000000
00000000
00000000
00003100
00000000
00000000
,
00000001
00001000
00000100
00000010
00000100
00010000
00001000
00000000
,
01000000
00010000
01000000
10000000
01000000
00100000
10000000
00010000
,
00000000
00000000
00100000
00000000
00001000
00000000
00010000
00000010
00001000
00000000
00000001
00000000
00000010
00000000
00001000
00000000
,
00000010
00000100
00001000
00000001
00000000
00000100
00001000
00010000
,
00000000
00000000
00100000
00000000
10000000
00000000
00010000
00100000
00010000
00000000
10000000
00100000
10000000
00000000
01000000
00100000
,
00010000
01000000
00001000
00010000
00100000
00010000
00001000
00100000
,
00000000
00000000
01000000
00000000
00010000
00000000
00001000
00010000
00000100
00000000
00001000
00000000
00000001
00000000
00000100
00000000
,
00001000
00000100
00000010
00001000
00000000
00010000
01000000
00100000
,
00000000
00000000
10000000
00000000
01000000
00000000
00100000
00010000
00100000
00000000
00001000
00010000
00001000
00000000
01000000
00010000
,
00100000
00001000
00010000
00000010
00000100
00000001
00000010
00001000
,
00000000
00000000
00000010
00000000
00000001
00000000
00001000
00000010
00000100
00000000
00000001
00000000
00001000
00000000
00000100
00000000
,
00010000
00001000
01000000
00100000
00000000
00010000
00100000
10000000
,
01000000
00000000
00100000
00000000
00010000
00000000
01000000
00001000
01000000
00000000
00001000
00010000
00001000
00000000
00010000
00000100
,
00001000
00000100
00000010
00000000
00000001
00000100
00001000
00000000
,
00010000
00000000
00100000
00000000
01100000
00000000
00000000
01100000
00000000
00000000
10000000
00000000
00010000
00000000
10000000
00000000
,
01000000
00100000
00010000
01000000
00001000
00010000
01000000
00010000
,
00001000
00000000
00000100
00000000
00000010
00000000
00001000
00000001
00001000
00000000
00000010
00001000
00000010
00001000
00000100
00000000
,
00000020
00000000
00000000
00000000
,
00002030
00000000
00000000
00023000
,
02030000
00000000
00000000
00000000
,
03200000
00000000
00000000
00000000
,
00302000
00000000
00000000
00000000
,
00023000
00000000
00230000
20300000
,
32000000
00000000
00000000
00000000
,
03200000
00000000
00000000
00301000
00010000
00000100
00010000
00001000
,
00000100
00000001
00000101
00000000
00000000
00000000
00001010
00000000
,
00000000
00000000
00000000
00000000
00011000
00000000
00000000
00011000
00000000
00000000
00000000
00000000
00020000
00000000
02030000
00000000
,
00000000
03200000
00000000
00302000
00000000
00023000
00000000
00230000
,
00000000
20300000
00000000
32000000
00000000
03020000
00032000
00003020
,
00000032
00000000
00000000
00000000
00000000
00000000
00000203
00000302
,
00000000
00000000
00002003
00003200
00000000
00000000
00020300
00032000
,
00000000
00000000
02003000
03200000
00300000
20000000
30000000
02000000
,
03000000
00020000
00030000
00002000
00000000
00000000
00003020
00000000
,
00000031
00000100
00001000
00010000
00000000
00000100
00010000
00001000
,
00000000
00000000
01000000
00000000
00000000
00000000
00010000
10000000
00010000
00000000
00100000
00000000
01000000
00000000
00010000
00000000
,
00001000
00000000
00000100
00000010
00000000
00010000
00001000
00000010
,
00000000
00000000
00000100
00000000
00000000
00000000
00001000
00000001
00001000
00000000
00000010
00000000
00000100
00000000
00001000
00000000
,
00020000
00000000
00000000
00000000
,
00000000
00000000
00030000
00000000
,
00001000
01000000
00100000
00010000
00001000
00100000
01000000
00010000
,
00001000
00000010
00000100
00010000
00001000
00000100
00000001
00000000
,
00000010
00001000
00000010
00000001
00001000
00000001
00000100
00001000
,
00000000
00000000
00010000
00000000
00100000
00000000
10000000
00010000
10000000
00000000
01000000
00000000
00100000
00000000
00010000
00000000
,
01000000
00001000
00010000
00000100
00000000
00000010
00001000
00000010
,
00000000
00000000
00000001
00000000
00000100
00000000
00000010
00001000
00000010
00000000
00010000
00001000
00010000
00000000
00000100
00001000
,
00000001
00000100
00000010
00001000
00000100
00010000
00001000
01000000
,
00000000
00000000
00100000
00000000
10000000
00000000
00010000
00100000
01000000
00000000
10000000
00000000
00010000
00000000
01000000
00000000
,
00100000
00010000
00001000
00000010
00000000
00000100
00010000
00001000
,
00000000
00000000
00000100
00000000
00000001
00000000
00001000
00000100
00001000
00000000
00000010
00001000
00000010
00000000
00010000
00001000
,
01000000
00100000
00010000
00001000
00000010
00001000
00010000
00000000
,
00000100
00000010
00001000
00010000
00100000
00010000
00001000
00000000
,
02002000
00000000
03003000
00020200
00000000
00030300
00202000
00000000
,
00303000
00000000
00010010
00000000
00000000
00000000
00000001
00000100
00000001
00000000
00001000
00000010
00001000
00000000
00000100
00010000
,
00001000
01000000
00010000
00000000
10000000
01000000
00010000
00000000
,
00001000
00000000
00000010
00000000
00000011
00000000
00000000
00000011
00000000
00000000
00000000
00000000
00001001
00000000
00000000
00000000
,
00000001
00000100
00001000
00010000
00100000
10000000
01000000
00010000
,
00001000
00000000
00000010
00000000
00000001
00000000
00001000
00000100
00001000
00000000
00000010
00010000
00000010
00010000
00001000
00000000
,
00022000
00000000
00000000
00000000
,
00000000
00000000
00000000
00000000
,
00033000
00000000
00000000
00000000
;
