#VERSION:0.83;
#TITLE:Coconuts;
#SUBTITLE:;
#ARTIST:Kim Petras;
#TITLETRANSLIT:;
#SUBTITLETRANSLIT:;
#ARTISTTRANSLIT:;
#GENRE:;
#ORIGIN:;
#CREDIT:Venom;
#BANNER:banner.png;
#BACKGROUND:Coconuts-bg.png;
#PREVIEWVID:;
#JACKET:jacket.png;
#CDIMAGE:;
#DISCIMAGE:;
#LYRICSPATH:;
#CDTITLE:;
#MUSIC:Coconuts.ogg;
#OFFSET:-0.425000;
#SAMPLESTART:55.553013;
#SAMPLELENGTH:12.000000;
#SELECTABLE:YES;
#BPMS:0.000=112.000;
#STOPS:;
#DELAYS:;
#WARPS:;
#TIMESIGNATURES:0.000=4=4;
#TICKCOUNTS:0.000=4;
#COMBOS:0.000=1;
#SPEEDS:0.000=1.000=0.000=0;
#SCROLLS:0.000=1.000;
#FAKES:;
#LABELS:0.000=Song Start;
#BGCHANGES:;
#KEYSOUNDS:;
#ATTACKS:
;

//---------------dance-single - ----------------
#NOTEDATA:;
#CHARTNAME:;
#STEPSTYPE:dance-single;
#DESCRIPTION:;
#CHARTSTYLE:;
#DIFFICULTY:Beginner;
#METER:2;
#RADARVALUES:0.107117,0.136467,0.019995,0.000000,0.000000,75.000000,73.000000,2.000000,0.000000,0.000000,0.000000,0.000000,0.000000,0.000000,0.107117,0.136467,0.019995,0.000000,0.000000,75.000000,73.000000,2.000000,0.000000,0.000000,0.000000,0.000000,0.000000,0.000000;
#CREDIT:Venom;
#NOTES:
// measure 0
0000
0000
0000
0000
,  // measure 1
0000
0000
0000
0000
,  // measure 2
1000
0000
1000
0000
,  // measure 3
0100
0000
0100
0000
,  // measure 4
0010
0000
0000
0000
,  // measure 5
0010
0000
0000
0000
,  // measure 6
0001
0000
0001
0000
,  // measure 7
0100
0000
0100
0000
,  // measure 8
0010
0000
0000
0000
,  // measure 9
0010
0000
0000
0000
,  // measure 10
1000
0000
1000
0000
,  // measure 11
0100
0000
0100
0000
,  // measure 12
0010
0000
0010
0000
,  // measure 13
0001
0000
0001
0000
,  // measure 14
1000
0000
1000
0000
,  // measure 15
0010
0000
0010
0000
,  // measure 16
0100
0000
0100
0000
,  // measure 17
0001
0000
0000
0000
,  // measure 18
1000
0000
1000
0000
,  // measure 19
0100
0000
0100
0000
,  // measure 20
0010
0000
0010
0000
,  // measure 21
0001
0000
0001
0000
,  // measure 22
1000
0000
1000
0000
,  // measure 23
0010
0000
0010
0000
,  // measure 24
0100
0000
0000
0000
,  // measure 25
0001
0000
0001
0000
,  // measure 26
1000
0000
0000
0000
,  // measure 27
0100
0000
0100
0000
,  // measure 28
0010
0000
0000
0000
,  // measure 29
0001
0000
0001
0000
,  // measure 30
1000
0000
0000
0000
,  // measure 31
0010
0000
0010
0000
,  // measure 32
0100
0000
0000
0000
,  // measure 33
0010
0000
0100
0000
,  // measure 34
0001
0000
0001
0000
,  // measure 35
1000
0000
0000
0000
,  // measure 36
1000
0000
1000
0000
,  // measure 37
0001
0000
0000
0000
,  // measure 38
1000
0000
0000
0000
,  // measure 39
0010
0000
1000
0000
,  // measure 40
0100
0000
0100
0000
,  // measure 41
0010
0000
0100
0000
,  // measure 42
1001
0000
0000
0000
,  // measure 43
0100
0000
0100
0000
,  // measure 44
1001
0000
0000
0000
,  // measure 45
0010
0000
0010
0000
;

//---------------dance-single - ----------------
#NOTEDATA:;
#CHARTNAME:;
#STEPSTYPE:dance-single;
#DESCRIPTION:;
#CHARTSTYLE:;
#DIFFICULTY:Easy;
#METER:4;
#RADARVALUES:0.197096,0.229945,0.099976,0.119971,0.000000,138.000000,128.000000,10.000000,12.000000,0.000000,0.000000,0.000000,0.000000,0.000000,0.197096,0.229945,0.099976,0.119971,0.000000,138.000000,128.000000,10.000000,12.000000,0.000000,0.000000,0.000000,0.000000,0.000000;
#CREDIT:Venom;
#NOTES:
0000
0000
0000
0000
,
0000
0000
0000
0000
,
1000
0000
1000
0000
,
0001
0001
1000
1000
,
0100
0000
1000
1000
,
0000
0001
0001
1000
,
1000
0000
0010
0000
,
1000
1000
0010
1000
,
0100
0000
0010
0100
,
0000
0010
0100
0000
,
1000
1000
0100
0000
,
0010
0010
0001
0000
,
1000
1000
0010
0000
,
0100
0100
0001
0000
,
1000
0001
0100
0000
,
0001
1000
0100
0000
,
1000
0001
0010
0000
,
1001
0000
1001
0000
,
1000
1000
0010
0010
,
0000
0100
0100
0000
,
0001
0001
0010
0010
,
0100
0100
0110
0110
,
0000
0010
0010
0001
,
0000
1000
1000
0000
,
0000
0010
0010
1000
,
0100
0100
1000
1000
,
0010
0010
1000
0000
,
0001
0100
0001
1000
,
0100
0000
1000
1000
,
0000
0001
0001
0000
,
1000
0010
0100
0000
,
0010
1000
0010
1000
,
0100
0000
0010
0100
,
0000
0010
0100
0000
,
1000
1000
0001
0001
,
0100
0100
0100
0000
,
0001
0001
1000
1000
,
0100
0100
0100
0000
,
1000
1000
0001
0000
,
0010
0001
1000
0010
,
0100
0000
0010
1000
,
0000
1000
0100
0000
,
0220
0000
0000
0330
,
2002
3003
2002
3003
,
0220
0000
0000
0330
,
2002
3003
2002
0000
,
3003
0000
0000
0000
;

//---------------dance-single - ----------------
#NOTEDATA:;
#CHARTNAME:;
#STEPSTYPE:dance-single;
#DESCRIPTION:;
#CHARTSTYLE:;
#DIFFICULTY:Medium;
#METER:7;
#RADARVALUES:0.289930,0.298928,0.109974,0.149964,0.000000,203.000000,192.000000,11.000000,15.000000,0.000000,0.000000,0.000000,0.000000,0.000000,0.289930,0.298928,0.109974,0.149964,0.000000,203.000000,192.000000,11.000000,15.000000,0.000000,0.000000,0.000000,0.000000,0.000000;
#CREDIT:Venom;
#NOTES:
0000
0000
0000
0000
,
0000
0000
0000
0000
,
1000
0000
0100
0100
0100
0000
0000
0000
,
1000
0100
1000
0000
0010
0000
1000
0001
,
1000
0000
0000
0000
0001
0100
0001
0000
,
0000
0000
1000
0010
1000
0000
0100
0000
,
1000
0000
0001
0010
0001
0000
0000
0000
,
1000
0010
1000
0000
0010
0000
1000
0010
,
0100
0000
0000
0000
0010
1000
0100
0000
,
0000
0000
0010
0001
0100
0000
0000
0000
,
0100
0000
0001
0000
1000
1000
1000
0000
,
0100
0000
1000
0000
0001
0001
0001
0000
,
0010
0000
0001
0000
1000
1000
1000
0000
,
0010
0000
1000
0000
0001
0001
0001
0000
,
0010
0000
0001
0000
0100
0010
0100
0000
,
0010
0000
1000
0000
0100
0010
0100
0000
,
1000
0000
0010
0000
0100
0100
0100
0000
,
0220
0000
0000
0330
,
1000
0100
1000
0000
1000
0010
1000
0000
,
0001
0001
0010
0001
0100
0000
0000
0000
,
0001
0010
0001
0000
0001
0100
0001
0000
,
1000
0100
0010
0000
0110
0000
1001
0000
,
0000
0000
0001
0000
1000
0100
1000
0000
,
0001
0000
0010
0001
1000
0000
0000
0000
,
0010
0000
1000
0000
0100
1000
0010
0000
,
0200
0010
0310
0110
,
1001
0000
0001
1000
0100
0000
0000
0000
,
1000
0001
0100
0000
0010
0000
1000
0010
,
1000
0000
0000
0000
0001
0010
0001
0000
,
1000
0000
0100
1000
0100
0000
1000
0000
,
0001
0000
0100
0001
1000
0000
0000
0000
,
0001
1000
0001
0000
0010
0000
0001
0100
,
0100
0000
0001
0000
0010
0001
0100
0000
,
0001
1000
0010
1000
0100
0000
1000
0000
,
0001
0000
0001
0000
0100
0000
0010
1000
,
0100
0100
0100
1000
,
0001
0000
0010
0000
0001
0000
1000
0001
,
0100
0100
0100
0001
,
1000
0000
0001
0010
0100
0000
0000
0000
,
1000
0001
0100
0000
0001
0000
1000
0100
,
1000
0000
0000
0000
0001
0100
0001
0000
,
1000
0000
0001
0010
0001
0000
0000
0000
,
2020
0000
0000
3030
,
0202
0303
0022
0033
,
2200
0000
0000
3300
,
0220
0330
2002
0000
,
3003
0000
0000
0000
;

//---------------dance-single - ----------------
#NOTEDATA:;
#CHARTNAME:;
#STEPSTYPE:dance-single;
#DESCRIPTION:;
#CHARTSTYLE:;
#DIFFICULTY:Hard;
#METER:10;
#RADARVALUES:0.374196,0.367912,0.209950,0.279933,0.044989,262.000000,241.000000,21.000000,28.000000,0.000000,0.000000,0.000000,0.000000,0.000000,0.374196,0.367912,0.209950,0.279933,0.044989,262.000000,241.000000,21.000000,28.000000,0.000000,0.000000,0.000000,0.000000,0.000000;
#CREDIT:Venom;
#NOTES:
0000
0000
0000
0000
,
0000
0000
0000
0002
,
1003
0000
1100
0001
1000
0000
1000
0000
,
0001
0100
1000
0100
0001
0000
1000
0001
,
1000
0000
0001
0010
1000
0010
0001
0000
,
1000
0010
0001
0010
1000
0000
0002
0000
,
1003
0000
0011
1000
0001
0000
0001
0000
,
1000
0001
1000
0000
0010
0000
0010
1000
,
0100
0000
1000
0001
0010
0001
0100
0000
,
0001
1000
0010
1000
0100
0000
1001
0000
,
1000
0000
0000
1000
0000
0000
0100
0000
0001
0000
0001
0000
0001
0000
0100
0000
,
1000
0000
0000
1000
0000
0000
0010
0000
0001
0000
0001
0000
0001
0000
0010
0000
,
1000
0000
0000
0001
0000
0000
0010
0000
1000
0000
1000
0000
0020
0000
0000
0000
,
0031
0000
0000
0001
0000
0000
0100
0000
1000
0000
0100
0000
0002
0000
0000
0000
,
1003
0000
0000
1100
0000
0000
0001
0000
0010
0000
0100
0000
1000
0000
0000
0000
,
0001
0000
0000
0101
0000
0000
1000
0000
0010
0000
0100
0000
0001
0000
0000
0000
,
0210
0000
0000
1000
0000
0000
0010
0000
0001
0000
0001
0000
0301
0000
0000
0000
,
2002
0000
0000
3003
,
1000
0100
0001
0100
0010
0001
1000
0000
,
0010
0001
0010
0100
0001
0000
1001
0000
,
0001
0100
0010
1000
0100
0010
0001
0000
,
0200
0000
1000
0000
0001
0001
0301
0000
,
1000
0100
0010
0001
0100
0010
1000
0000
,
0100
0001
0100
0010
0001
0000
1001
0000
,
0001
0100
1000
0100
0010
1000
0100
0000
,
0220
0330
1001
0002
,
1003
0000
0101
1000
0010
0000
0010
0000
,
1000
0001
0100
0010
1000
0000
0100
1000
,
0010
0000
1000
0001
0010
0001
1000
0000
,
0001
1000
0010
1000
0001
0000
2000
0000
,
3001
0000
1010
0001
0100
0000
0100
0000
,
0001
1000
0010
0000
1000
0000
0010
1000
,
0100
0000
1000
0001
0010
0001
0100
0000
,
0001
1000
0010
1000
0100
0010
0001
0100
,
0020
0000
0001
0000
1000
0000
0130
0001
,
0020
0000
0000
1000
0000
0000
1030
0000
0000
0000
0010
0000
0001
0000
0100
0000
,
0020
0000
1000
0000
0001
0000
0130
0001
,
0020
0000
0000
0100
0000
0000
0001
0000
0031
0000
0000
0000
1100
0000
0000
0000
,
0011
0000
1000
0001
0100
0000
0100
0000
,
0001
0100
1000
0100
0001
0000
0010
0100
,
1000
0000
0001
0100
1000
0100
0010
0000
,
1000
0100
0001
0100
0010
0000
0010
0000
,
0220
0000
0000
0330
,
0022
0033
2200
3300
,
2002
0000
0000
3003
,
2020
3030
0202
0000
,
0303
0000
0000
0000
;
