#TITLE:カジノファイヤーことみちゃん;
#SUBTITLE:;
#ARTIST:ARM feat. 山本椛+Brasscapsule;
#TITLETRANSLIT:Casino fire Kotomi-chan;
#SUBTITLETRANSLIT:;
#ARTISTTRANSLIT:ARM feat. Momiji Yamamoto + Brasscapsule;
#GENRE:電波;
#CREDIT:;
#MUSIC:Casino fire Kotomi-chan.ogg;
#BANNER:Casino fire Kotomi-chan.png;
#BACKGROUND:Casino fire Kotomi-chan-bg.png;
#CDTITLE:;
#SAMPLESTART:73.527;
#SAMPLELENGTH:15.000;
#SELECTABLE:YES;
#OFFSET:0.544;
#BPMS:0.000=230.000;
#STOPS:;
#BGCHANGES:4.000=Casino fire Kotomi-chan.avi=1.000=0=0=1,
99999.000=-nosongbg-=1.000=0=0=0=StretchNoLoop====
;
#FGCHANGES:;

//--------------- dance-single - forcednature ----------------
#NOTES:
     dance-single:
     forcednature:
     Beginner:
     6:
     0,0,0,0,0:
0000
0000
0000
0000
,
0000
0000
0000
0000
,
0000
0000
0000
0000
,
0000
0000
0000
0000
,
0000
0000
0000
0000
,
0000
0000
0000
0000
,
0000
0000
0000
0000
,
0000
0000
0000
0000
,
0000
0000
0000
0000
,
0010
0000
0100
0000
,
0000
0000
0100
0000
,
0010
0000
0100
0000
,
0000
0000
0100
0000
,
1001
0000
0010
0000
,
0000
0000
0010
0000
,
0100
0000
0100
0000
,
0100
0100
0100
0100
,
0010
0000
0000
0000
,
1000
0000
0000
0000
,
0001
0000
0000
0000
,
0010
0000
0010
0000
,
0100
0000
0000
0000
,
1000
0000
0000
0000
,
0001
0000
0000
0000
,
0100
0000
0000
0000
0100
0000
0000
1001
,
0000
0000
0000
0000
0000
0000
0000
0110
,
0000
0000
0000
0000
0000
0000
0000
1001
,
0000
0000
0000
1001
0000
0000
0000
1001
,
0000
0000
0000
1001
0000
0000
0000
0000
,
0220
0000
0000
0000
,
0000
0000
0000
0000
,
0330
0000
2002
0000
,
0000
0000
3003
0000
,
1000
0000
1000
0000
,
1000
0000
0000
0000
,
0001
0000
0001
0000
,
0001
0000
0000
0000
,
0100
0000
0010
0000
,
0100
0000
0010
0000
,
0100
0000
0000
0000
,
0010
0000
0010
0000
,
1000
0000
1000
0000
,
1000
0000
0000
0000
,
0001
0000
0001
0000
,
0001
0000
0000
0000
,
0010
0000
0100
0000
,
0010
0000
0100
0000
,
0010
0000
0000
0000
,
0000
0000
2002
0000
,
3003
0000
0000
0000
,
0000
0000
0000
0000
,
0000
0000
0000
0000
,
0000
0000
1001
0000
,
0110
0000
0001
0000
,
0000
0000
0001
0000
,
0000
0000
1000
0000
,
0000
0000
1000
0000
,
0000
0000
0010
0000
,
0000
0000
0010
0000
,
0000
0000
0100
0000
,
0000
0000
0100
0000
,
1001
0000
0010
0000
,
0000
0000
0010
0000
,
0000
0000
1000
0000
,
0000
0000
1000
0000
,
0001
0000
0001
0000
,
1000
0000
1000
0000
,
0010
0000
0100
0000
,
0010
0000
0000
0000
,
2002
0000
0000
0000
,
3003
0000
0000
0000
,
1000
0000
0001
0000
,
1000
0000
0000
0000
,
0001
0000
0100
0000
,
0001
0000
0100
0000
,
0001
0000
1000
0000
,
0001
0000
0000
0000
,
1000
0000
0100
0000
,
1000
0000
0100
0000
,
0010
0000
0000
0000
0000
0000
0010
0000
0000
0000
0000
0010
,
0000
0000
0000
0000
,
0100
0000
0000
0000
0000
0000
0100
0000
0000
0000
0000
0100
,
0000
0000
0000
0000
,
1000
0000
1000
0000
,
0001
0000
0001
0000
,
0100
0000
0000
0000
0000
0100
0000
0000
0000
0000
0000
0000
,
0010
0000
0000
0000
0000
0010
0000
0000
0000
0000
0000
0000
,
2002
0000
0000
0000
,
3003
0000
0000
0000
,
1000
0000
0001
0000
,
1000
0000
0000
0000
,
0001
0000
0100
0000
,
0001
0000
0001
0000
,
0001
0000
1000
0000
,
0001
0000
0000
0000
,
1000
0000
0100
0000
,
1000
0000
1000
0000
,
1001
0000
0000
0000
,
0000
0000
0000
0000
,
0000
0000
0000
0000
,
0000
0000
0000
0000
,
2002
0000
0000
0000
,
0000
0000
0000
0000
,
0000
0000
0000
0000
,
0000
0000
0000
0000
,
3003
0000
2002
0000
,
0000
0000
3003
0000
;

//--------------- dance-single - forcednature ----------------
#NOTES:
     dance-single:
     forcednature:
     Easy:
     9:
     0,0,0,0,0:
0000
0000
0000
0000
,
0000
0000
0000
0000
,
0000
0000
0000
0000
,
0000
0000
0000
0000
,
0000
0000
0000
0000
,
0000
0000
0000
0000
,
0000
0000
0000
0000
,
0000
0000
0000
0000
,
0000
0000
0000
0000
,
1001
0000
0001
0100
,
0010
1000
0010
0010
,
0100
0000
0001
1000
,
0100
0010
0001
0001
,
1001
0000
1000
0010
,
0100
0001
0010
0010
,
0100
0000
0100
0000
,
0100
0100
1000
0001
,
0100
0000
0000
0001
0000
0000
1000
0000
,
0100
0000
0000
1000
0000
0000
0001
0000
,
0100
0000
0000
0010
0000
1000
0000
0000
,
0001
1000
0001
0000
1000
0001
1000
0000
,
0100
0000
0000
0010
0000
0000
0001
0000
,
0100
0000
0000
0010
0000
0000
1000
0000
,
0100
0000
0000
0010
0000
0001
0000
0000
,
1000
0001
1000
0000
0001
1000
0001
1000
,
0000
0000
0010
0000
0000
0000
0000
1001
,
0000
0000
0010
0000
0000
0000
0000
1001
,
0000
0000
0000
0110
0000
0000
0000
1001
,
0000
0000
0000
0110
0000
0000
0000
0000
,
2002
0000
0000
0000
,
0000
0000
0000
0000
,
3003
0000
0220
0000
,
0000
0000
0330
0000
,
1000
0001
1000
0010
,
1000
0001
0100
0000
,
0001
0010
0100
1000
,
0100
0010
0100
0000
,
1000
0000
0000
1000
0000
0000
0001
0000
,
0001
0000
0000
0001
0000
0000
1000
0000
,
0020
0000
0100
0000
,
1030
0000
0001
0000
1000
0001
1000
0001
,
1000
0010
1000
0100
,
0010
0001
0100
0000
,
0010
0100
0001
0010
,
0100
0000
0000
0010
0000
0000
0001
0000
1000
0000
0001
0000
,
1000
0000
0000
1000
0000
0000
1000
0000
,
0001
0000
0000
0001
0000
0000
0001
0000
,
2002
0000
0000
0000
,
3003
0000
0220
0000
,
0330
0000
0000
0000
,
0000
0000
0000
0000
,
0000
0000
0000
0000
,
0000
0000
0110
0000
,
1001
0000
0001
0000
,
0000
0000
0001
1000
,
0001
0000
0001
0000
,
0000
0000
0001
1000
,
1000
0000
1000
0000
,
0000
0000
1000
0001
,
1000
0000
1000
0000
,
0000
0000
1000
0001
,
1001
0000
0110
0000
,
0100
0010
0100
0000
,
0010
0000
0110
0000
,
0100
0010
0100
0000
,
1001
0000
0010
0100
,
0010
0000
1001
0000
,
0110
0000
1000
0001
,
1000
0001
0100
0000
,
2002
0000
0000
3003
,
0010
0010
0010
0010
,
1001
0000
1000
0001
,
0100
0001
1000
0000
,
0100
0100
0010
0010
,
0100
1000
0001
0000
,
1001
0000
1000
0100
,
1000
0001
0100
0000
,
0010
0010
0100
0100
,
0001
0010
0100
0000
,
1001
0000
0000
0000
0000
0000
0010
0000
0000
0000
0000
0110
,
0000
0000
0000
0000
,
1001
0000
0000
0000
0000
0000
0100
0000
0000
0000
0000
0110
,
0000
0000
0000
0000
,
1100
0001
0001
1000
,
0101
1000
1000
0001
,
1001
0000
0000
0000
0000
0110
0000
0000
0000
1000
0000
0000
,
1001
0000
0000
0000
0000
0110
0000
0000
0000
0001
0000
0000
,
2002
0000
0000
3003
,
0010
0010
0010
0100
,
1001
0001
0100
0001
,
1000
0100
0010
0001
,
0100
0010
1000
0001
,
0010
0100
0010
0100
0010
0100
0010
0100
,
1000
0001
0100
0010
,
1000
0100
1000
0010
,
0100
0001
0010
0001
,
1000
0001
1000
0001
1000
0001
1000
0001
,
0200
0000
0000
0000
,
0000
0000
0000
0000
,
0000
0000
0000
0000
,
0000
0000
0300
0000
,
0220
0000
0000
0000
,
0000
0000
0000
0000
,
0000
0000
0000
0000
,
0000
0000
0000
0000
,
0330
0000
2002
0000
,
0000
0000
3003
0000
;

//--------------- dance-single - forcednature ----------------
#NOTES:
     dance-single:
     forcednature:
     Medium:
     12:
     0,0,0,0,0:
0000
0000
0000
0000
,
0000
0000
0000
0000
,
0000
0000
0000
0000
,
0000
0000
0000
0000
,
0000
0000
0000
0000
,
0000
0000
0000
0000
,
0000
0000
0000
0000
,
0000
0000
0000
0000
,
0000
0000
0000
0000
,
1001
0000
0000
0000
1000
0000
0000
0100
,
0000
1000
0000
0000
0010
0000
0100
0000
,
0001
0000
0000
0000
0010
0000
0000
0100
,
0000
0010
0000
0001
1000
0000
0001
0000
,
1001
0000
0000
0000
0001
0000
0000
0100
,
0010
0000
1000
0001
0020
0000
0000
0000
,
0130
0000
0100
0000
,
1000
0000
0001
0000
1000
0001
1000
0001
,
0100
0000
0001
1000
0000
0010
1000
0000
,
0001
0000
0010
0100
0000
0010
0001
0000
,
0100
0000
0010
1000
0000
0001
0000
0010
,
0100
1000
0100
1000
0100
1000
0100
1000
,
0001
0000
0100
0001
0000
1000
0010
0000
,
1000
0000
0100
0010
0000
0100
1000
0000
,
0010
0000
0100
0001
0000
1000
0100
0010
,
0001
0100
0001
0100
0001
0100
0001
0100
,
0000
0010
1000
0001
0000
0010
0000
0110
,
0000
0100
1000
0001
0000
0100
0000
0110
,
0000
1000
0000
0110
0000
0001
0000
1001
,
0000
0100
0000
1001
0000
0010
0000
0000
,
2002
0000
0000
0000
,
0000
0000
0000
0000
,
0000
3003
0000
0000
0220
0000
0000
0000
,
0000
0000
0000
0330
,
1000
0100
1000
0000
0001
0000
0100
0010
,
0000
1000
0000
0001
0010
0000
0000
0100
,
0010
0001
0010
0000
0100
0000
1000
0001
,
0000
0100
0000
0010
1000
0000
0000
0000
,
0012
0000
0000
0100
0000
0000
1003
0000
,
2010
0000
0000
0100
0000
0000
3001
0000
,
2002
0000
0000
3003
,
0110
0000
0110
0000
1000
0001
1000
0001
,
0100
0010
0100
0000
0001
0000
1000
0100
,
0000
0010
0000
0001
0100
0000
0000
0010
,
1000
0010
1000
0000
0001
0000
0010
0100
,
0000
0000
0000
0010
0000
0000
0000
0000
0000
0001
0000
0000
1000
0000
0000
0000
1000
0000
0000
0000
1000
0000
0000
0000
,
1002
0000
0000
0010
0000
0000
0103
0000
,
2001
0000
0000
0010
0000
0000
3100
0000
,
2002
0000
0000
0000
,
3003
0000
0220
0330
,
1000
0000
0000
1000
0000
0000
0001
0000
,
0000
0001
0000
0000
0100
0000
0010
0000
,
1000
0000
0000
1000
0000
0000
0001
0000
,
0000
0001
0000
0000
0010
0000
0100
0000
,
0110
0000
0000
1000
0001
0000
0100
0000
,
0000
0010
0000
0000
1000
0000
0001
0000
,
0110
0000
0000
0001
1000
0000
0100
0000
,
0000
0010
0000
0000
0001
0000
1000
0000
,
0101
0000
0000
1000
0010
0000
1000
0000
,
0000
0100
0000
0000
0010
0000
0001
0000
,
1100
0000
0000
0001
0010
0000
0001
0000
,
0000
0100
0000
0000
0010
0000
1000
0000
,
1001
0000
0000
0001
0100
0000
0001
0100
,
0000
0001
0100
0000
0010
0000
1000
0000
,
1001
0000
0000
1000
0100
0000
1000
0100
,
0000
1000
0100
0000
0010
0000
0001
0000
,
1002
0000
0010
0103
,
2001
0000
0010
3100
,
1001
0000
0001
1000
0100
0000
1000
0001
,
0100
0000
0010
0000
1000
0100
0010
0001
,
0200
0000
0000
0000
,
0010
0010
0010
0310
,
1001
0000
0001
0100
0000
0010
0000
0000
1000
0000
0000
0100
,
0000
0000
0010
0001
0000
0100
0000
0000
0110
0000
0000
0000
,
1001
0100
1001
0010
,
1000
0000
0010
0000
0000
0100
0000
0000
1001
0000
0000
0000
,
0110
0000
0001
1000
0000
0100
0000
0000
0010
0000
0000
0001
,
0000
0000
1000
0010
0000
0100
0000
0000
0110
0000
0000
0000
,
1001
0100
1001
0010
,
0001
0000
0010
0000
0000
0100
0000
0000
1000
0001
0000
0000
,
0101
0000
0000
0000
0000
0000
1100
0000
0000
0000
0000
1001
,
0000
0000
0000
1000
0000
0100
0000
0000
0010
0001
0000
0000
,
1100
0000
0000
0000
0000
0000
0101
0000
0000
0000
0000
1001
,
0000
0000
0000
0001
0000
0100
0000
0000
0010
1000
0000
0000
,
2100
0001
0010
3001
,
0101
0000
0000
1000
0000
0010
0000
0000
1000
0001
0000
0000
,
0011
0000
0000
0000
0000
1100
0000
0000
1000
0001
0000
0000
,
1010
0000
0000
0000
0000
0101
0000
0000
0001
1000
0000
0000
,
0220
0000
0000
0330
,
1001
0000
1001
0000
0100
0010
0100
0000
,
1001
0000
0001
0100
0000
0010
1000
0000
,
0100
0000
0010
0001
0000
0100
0010
0000
,
1000
0000
0001
0010
0000
0100
0000
1000
,
0001
0100
0001
0100
0001
0100
0001
0100
,
0010
0000
1000
0001
0000
1000
0100
0000
,
0010
0000
0100
1000
0000
0010
0100
0000
,
0001
0000
0010
0100
0000
0010
0001
0100
,
0010
1000
0010
1000
0010
1000
0010
1000
,
0200
0000
0000
0000
,
0000
0000
0000
0000
,
0000
0000
0000
0000
,
0000
0000
0000
0010
0300
0000
0000
0000
,
2002
0000
0000
0000
,
0000
0000
0000
0000
,
0000
0000
0000
0000
,
0000
0000
0000
0000
,
0000
3003
2002
0000
,
0000
0000
3003
0000
;

//--------------- dance-single - forcednature ----------------
#NOTES:
     dance-single:
     forcednature:
     Hard:
     15:
     0,0,0,0,0:
0000
0000
0000
0000
,
0000
0000
0000
0000
,
0000
0000
0000
0000
,
0000
0000
0000
0000
,
0000
0000
0000
0000
,
0000
0000
0000
0000
,
0000
0000
0000
0000
,
0000
0000
0000
0000
,
0000
0000
0000
0000
,
1001
0000
0000
0001
0100
0001
0000
1000
,
0000
0010
1000
0000
0001
0000
1000
0000
,
0100
0000
0000
0010
0001
0010
0100
0000
,
0000
1000
0000
0010
0010
0000
0100
0000
,
1001
0000
0000
1000
0001
0100
0000
0010
,
1000
0001
0000
1000
0200
0000
0000
0000
,
0310
0000
0010
0000
,
0010
0000
0010
0000
0010
0100
0010
0100
,
1000
0001
1000
0010
0100
0001
1000
0000
,
0001
1000
0001
0010
0100
1000
0001
0000
,
1000
0100
0010
0001
0000
0100
0000
0001
,
1000
0100
0010
0100
0001
0100
0010
0100
,
1000
0001
0100
0010
0100
0001
1000
0000
,
0001
1000
0100
0010
0100
1000
0001
0000
,
1000
0010
0100
0001
0000
1000
0001
0100
,
0010
0001
0010
0100
0010
1000
0010
0110
,
0000
1000
0100
0001
0000
0100
0000
0110
,
0000
0001
0100
1000
0000
0100
0000
0110
,
0000
1000
0100
1100
0000
0001
0100
0101
,
0000
1000
0010
1010
0000
0001
0010
0000
,
0021
0001
0001
0100
,
0100
1000
1000
0200
,
0000
0330
0000
0000
2002
0000
0000
0000
,
0000
0000
0000
3003
,
0001
0100
0001
1000
0010
1000
0001
1000
,
0100
0010
0001
0100
0010
0000
1000
0001
,
1000
0010
1000
0001
0010
0000
0100
0010
,
0000
0001
0100
0010
1000
0001
1000
0100
,
0020
0000
0130
0020
0000
0031
1000
0001
,
0200
0000
0310
0200
0000
0310
1000
0001
,
2000
0000
0010
0000
,
3001
0000
0100
0000
0001
0000
0100
0000
0010
1000
0010
0000
1000
0010
1000
0000
,
0001
1000
0100
0010
0100
1000
0001
0100
,
0000
0010
1000
0001
1000
0100
0000
1100
,
0000
0101
0000
0001
1000
0000
0010
1000
,
0001
0000
0000
0010
0000
0000
0100
0000
0000
0010
0000
0000
0001
0000
0000
0000
0101
0000
0000
0000
1010
0000
0000
0000
,
1001
0000
1000
0100
0010
0100
1000
0001
,
0100
0000
0000
0000
0010
0000
1000
0000
0001
1000
0001
0000
1000
0001
1000
0000
,
0001
0100
0000
0010
0000
1000
0001
1000
,
0200
0300
0220
0330
,
0110
0000
0000
1000
0000
0000
0001
0000
,
0000
0100
0000
0000
0001
0000
1000
0000
,
0100
0000
0000
1000
0000
0000
0001
0000
,
0000
0100
0000
0000
0010
0010
0100
0000
,
1001
0000
0000
0000
0000
0000
0001
0000
0100
0000
0001
0000
0100
0000
0000
0010
0000
1000
0000
0010
0000
1000
0000
0000
,
0001
0000
0010
0000
0001
0000
0010
0000
0000
0100
0000
1000
0000
0100
0000
1000
0000
0000
0001
0000
1000
0000
0001
0000
,
1000
0000
0000
0100
0000
0010
0000
0100
0000
0010
0000
0000
0001
0000
1000
0000
0001
0000
1000
0000
0000
0010
0000
0100
,
0000
0000
0010
0000
0000
0000
0100
0000
0000
0000
0000
0000
0001
0000
0000
0000
1000
0000
0000
0000
0001
0000
0000
0000
1000
0000
0000
0000
0001
0000
0000
0000
1000
0000
0000
0000
0001
0000
0000
1000
0000
0000
0001
0000
0000
1000
0000
0000
,
0000
0000
0000
0000
0000
0000
0100
0000
0000
0010
0000
0000
0001
0000
1000
0000
0000
0001
0000
0000
0000
0100
0000
0000
,
0000
0010
0000
0000
0000
1000
0000
0000
0000
0100
0000
0000
0000
0000
0010
0000
0000
0000
0001
0000
0000
0000
0000
0000
,
0200
0001
0320
1000
,
0130
0000
0000
0001
0000
0000
1000
0000
0100
1000
0000
0000
,
1001
0000
0000
0001
0000
0000
0100
0000
0001
1000
0000
0100
,
0000
0000
1000
0000
0001
0000
0000
0000
0000
0010
0000
0000
0000
0001
0000
1000
0000
0000
0000
0000
0010
0000
0000
0000
,
1000
0001
1000
0000
0100
0000
0010
0001
0010
0000
0001
0000
,
0000
1000
1000
0000
0010
0100
0001
0000
,
1000
0000
1000
0200
0000
0000
0320
0000
0000
0031
0000
0000
,
0100
0000
0000
0001
0000
0000
0200
0000
0000
0000
0000
0000
0000
0000
0000
0000
0000
0000
0000
0000
0000
0000
0000
0000
0000
0000
0000
0000
0000
0000
0300
0000
0000
0000
0000
0000
0010
0000
0000
0000
0000
0000
0000
0000
1000
0000
0000
0000
,
0002
0000
0000
0000
0013
0000
0100
1000
0000
0000
0010
0000
,
0000
0100
0000
0000
0000
0001
0000
1000
0000
0000
0100
0000
0010
0000
0001
0000
0000
0000
1000
0000
0000
0000
0010
0000
,
0200
0000
0000
0000
,
0310
1100
0101
1001
,
0001
0000
0100
0001
0000
1001
0000
0000
1100
0000
0000
0011
,
0000
0000
0001
0100
0000
0110
0000
0000
1001
0000
0000
0000
,
1100
1010
1100
1010
,
1000
0000
0100
0010
0000
0001
0000
0000
1001
0000
0000
0000
,
0001
0000
0100
0010
0000
1010
0000
0000
0011
0000
0000
1001
,
0000
0000
1000
0100
0000
0110
0000
0000
1001
0000
0000
0000
,
0101
0011
0101
0011
,
0001
0000
1000
0010
0000
0100
0001
0000
0010
0100
0000
0000
,
2200
0000
0000
3300
0000
0000
0102
0000
0000
0000
0000
0013
,
0000
0000
0000
0001
0000
0100
0000
0000
0010
1000
0000
0000
,
0202
0000
0000
0303
0000
0000
2100
0000
0000
0000
0000
3010
,
0000
0000
0000
1000
0000
0100
0000
0000
0010
0001
0000
0000
,
0101
0000
0001
0100
0000
0100
0010
0000
0010
1000
0000
0000
,
1100
0000
1000
0100
0000
0100
0010
0000
0010
0001
0000
0000
,
1001
0000
0000
0000
0000
0201
0000
0000
1300
0100
0000
0000
,
1001
0000
0000
0000
0000
1200
0000
0000
0301
0100
0000
0000
,
2002
0000
0000
3003
,
0110
0000
0110
0000
1000
0001
0100
0000
,
0010
1000
0100
0010
0001
0100
1000
0000
,
0100
0010
1000
0001
0010
0100
0001
0000
,
0100
1000
0001
0100
0000
0010
1000
0001
,
0010
1000
0010
0001
0010
1000
0010
0001
,
0010
0100
1000
0001
0100
0010
0001
0000
,
0010
1000
0001
1000
0100
0010
1000
0000
,
0010
0001
1000
0010
0000
0100
0010
1000
,
0100
0001
0100
1000
0100
0001
0100
1000
,
0020
0000
0000
0000
,
0000
0000
0000
0000
,
0000
0000
0000
0000
,
0000
0000
0000
0000
0000
0030
0100
0010
0100
0000
0000
0000
0000
0000
0000
0000
,
0220
0000
0000
0000
,
0000
0000
0000
0000
,
0000
0000
0000
0000
,
0000
0000
0000
0000
,
0000
0330
2002
0000
,
0000
0000
3003
0000
;

//--------------- dance-double - forcednature ----------------
#NOTES:
     dance-double:
     forcednature:
     Easy:
     9:
     0,0,0,0,0:
00000000
00000000
00000000
00000000
,
00000000
00000000
00000000
00000000
,
00000000
00000000
00000000
00000000
,
00000000
00000000
00000000
00000000
,
00000000
00000000
00000000
00000000
,
00000000
00000000
00000000
00000000
,
00000000
00000000
00000000
00000000
,
00000000
00000000
00000000
00000000
,
00000000
00000000
00000000
00000000
,
00011000
00000000
00010000
00001000
,
01000000
00010000
10000000
10000000
,
01000000
00000000
00100000
00001000
,
00010000
00000010
00000100
00000100
,
00001001
00000000
00000001
00000100
,
00001000
00010000
01000000
01000000
,
00100000
00000000
00100000
00000000
,
00100000
00100000
00001000
00010000
,
00100000
00000000
00000000
10000000
00000000
00000000
00010000
00000000
,
10000000
00000000
00000000
01000000
00000000
00000000
00010000
00000000
,
00001000
00000000
00000000
00000010
00000000
00000001
00000000
00000000
,
00001000
00000001
00001000
00000000
00000001
00001000
00000001
00000000
,
00000100
00000000
00000000
00001000
00000000
00000000
00010000
00000000
,
01000000
00000000
00000000
00100000
00000000
00000000
00001000
00000000
,
00010000
00000000
00000000
00000010
00000000
00000100
00000000
00000000
,
00001000
00010000
00001000
00000000
00010000
00001000
00010000
00001000
,
00000000
00000000
00100000
00000000
00000000
00000000
00000000
00011000
,
00000000
00000000
00000010
00000000
00000000
00000000
00000000
00011000
,
00000000
00000000
00000000
01001000
00000000
00000000
00000000
00011000
,
00000000
00000000
00000000
00010100
00000000
00000000
00000000
00000000
,
00022000
00000000
00000000
00000000
,
00000000
00000000
00000000
00000000
,
00033000
00000000
00022000
00000000
,
00000000
00000000
00033000
00000000
,
00001000
00010000
01000000
10000000
,
00010000
01000000
00100000
00000000
,
00010000
00001000
00000010
00000100
,
00001000
00000001
00000100
00000000
,
00001000
00000000
00000000
00001000
00000000
00000000
00010000
00000000
,
00010000
00000000
00000000
00010000
00000000
00000000
00001000
00000000
,
00200000
00000000
01000000
00000000
,
00301000
00000000
00010000
00000000
00001000
00010000
00001000
00010000
,
00001000
00000010
00000001
00000100
,
00001000
00010000
00100000
00000000
,
10000000
01000000
00010000
00001000
,
00000010
00000000
00000000
00000001
00000000
00000000
00001000
00000000
00001000
00000000
00001000
00000000
,
00000100
00000000
00000000
00010000
00000000
00000000
00001000
00000000
,
01000000
00000000
00000000
00001000
00000000
00000000
00010000
00000000
,
00022000
00000000
00000000
00000000
,
00033000
00000000
00022000
00000000
,
00033000
00000000
00000000
00000000
,
00000000
00000000
00000000
00000000
,
00000000
00000000
00000000
00000000
,
00000000
00000000
00010100
00000000
,
01001000
00000000
01000000
00000000
,
00000000
00000000
00010000
10000000
,
01000000
00000000
00010000
00000000
,
00000000
00000000
00001000
00000010
,
00000010
00000000
00000001
00000000
,
00000000
00000000
00000100
00001000
,
00010000
00000000
00100000
00000000
,
00000000
00000000
10000000
00010000
,
10000000
00000000
01100000
00000000
,
00010000
01000000
00001000
00000000
,
00010000
00000000
00011000
00000000
,
00000100
00001000
00000010
00000000
,
00000110
00000000
00000001
00000100
,
00001000
00000000
00011000
00000000
,
01100000
00000000
00001000
00010000
,
00001000
00010000
01000000
00000000
,
20020000
00000000
00000000
30030000
,
00100000
00100000
00100000
00100000
,
00011000
00000000
00000100
00001000
,
00000010
00010000
00001000
00000000
,
00000010
00000010
00000100
00000100
,
00001000
00000001
00000100
00000000
,
00000110
00000000
00000010
00010000
,
00001000
01000000
00010000
00000000
,
10000000
10000000
00010000
00010000
,
10000000
01000000
00100000
00000000
,
00011000
00000000
00000000
00000000
00000000
00000000
00100000
00000000
00000000
00000000
00000000
00110000
,
00000000
00000000
00000000
00000000
,
00011000
00000000
00000000
00000000
00000000
00000000
00000010
00000000
00000000
00000000
00000000
00001010
,
00000000
00000000
00000000
00000000
,
00011000
01000000
01000000
01000000
,
00011000
00000100
00000100
00000100
,
00011000
00000000
00000000
00000000
00000000
00101000
00000000
00000000
00000000
00000000
00000000
00000000
,
00011000
00000000
00000000
00000000
00000000
00010010
00000000
00000000
00000000
00000000
00000000
00000000
,
00022000
00000000
00000000
00033000
,
00000010
00000010
00000010
00000010
,
00001001
00000001
00000100
00001000
,
00010000
01000000
10000000
00100000
,
10000000
00010000
00100000
00001000
,
00010000
00000100
00010000
00000100
00010000
00000100
00010000
00000100
,
00001000
00000001
00000100
00000010
,
00000100
00001000
00010000
01000000
,
00100000
00010000
10000000
00100000
,
00010000
00001000
00010000
00001000
00010000
00001000
00010000
00001000
,
02000000
00000000
00000000
00000000
,
00000000
00000000
00000000
00000000
,
00000000
00000000
00000000
00000000
,
00000000
00000000
03000000
00000000
,
00022000
00000000
00000000
00000000
,
00000000
00000000
00000000
00000000
,
00000000
00000000
00000000
00000000
,
00000000
00000000
00000000
00000000
,
00033000
00000000
00022000
00000000
,
00000000
00000000
00033000
00000000
;

//--------------- dance-double - forcednature ----------------
#NOTES:
     dance-double:
     forcednature:
     Medium:
     12:
     0,0,0,0,0:
00000000
00000000
00000000
00000000
,
00000000
00000000
00000000
00000000
,
00000000
00000000
00000000
00000000
,
00000000
00000000
00000000
00000000
,
00000000
00000000
00000000
00000000
,
00000000
00000000
00000000
00000000
,
00000000
00000000
00000000
00000000
,
00000000
00000000
00000000
00000000
,
00000000
00000000
00000000
00000000
,
00011000
00000000
00000000
00000000
00001000
00000000
00000000
00000100
,
00000000
00000001
00000000
00000000
00001000
00000000
00000100
00000000
,
00000010
00000000
00000000
00000000
00000001
00000000
00000000
00000100
,
00000000
00001000
00000000
00010000
00001000
00000000
01000000
00000000
,
10010000
00000000
00000000
00000000
10000000
00000000
00000000
01000000
,
00010000
00000000
00001000
00010000
00000200
00000000
00000000
00000000
,
00000310
00000000
00000010
00000000
,
00000001
00000000
00001000
00000000
00000001
00001000
00000001
00001000
,
00000001
00000000
00000100
00000010
00000000
00001000
00000001
00000000
,
00000010
00000000
00000100
00010000
00000000
00001000
00010000
00000000
,
00100000
00000000
10000000
00010000
00000000
10000000
00000000
01000000
,
00100000
00010000
00100000
00010000
00100000
00010000
00100000
00010000
,
01000000
00000000
00001000
00010000
00000000
00000100
00001000
00000000
,
00000010
00000000
00000100
00000001
00000000
00001000
00000100
00000000
,
00000010
00000000
00000001
00000100
00000000
00000010
00001000
00000100
,
00010000
00001000
00010000
00001000
00010000
00001000
00010000
00001000
,
00000000
01000000
00010000
00100000
00000000
00001000
00000000
00011000
,
00000000
00000100
00001000
00000010
00000000
00010000
00000000
00011000
,
00000000
00000100
00000000
00011000
00000000
01000000
00000000
00011000
,
00000000
00000010
00000000
00011000
00000000
00100000
00000000
00000000
,
00022000
00000000
00000000
00000000
,
00000000
00000000
00000000
00000000
,
00000000
00033000
00000000
00000000
00000220
00000000
00000000
00000000
,
00000000
00000000
00000000
00000330
,
00000001
00000100
00000001
00000000
00000010
00000000
00000100
00010000
,
00000000
00001000
00000000
01000000
00010000
00000000
00000000
10000000
,
01000000
00100000
00010000
00000000
01000000
00000000
00001000
00010000
,
00000000
00000100
00000000
00001000
00000001
00000000
00000000
00000000
,
00000102
00000000
00000000
00000010
00000000
00000000
00001003
00000000
,
00002100
00000000
00000000
00000001
00000000
00000000
00003010
00000000
,
00022000
00000000
00000000
00033000
,
01001000
00000000
01001000
00000000
10000000
00100000
10000000
00100000
,
01000000
00010000
01000000
00000000
00100000
00000000
10000000
01000000
,
00000000
00010000
00000000
00001000
00010000
00000000
00000000
00000100
,
00001000
00000100
00001000
00000000
00000001
00000000
00000100
00000010
,
00000000
00000000
00000000
00001000
00000000
00000000
00000000
00000000
00000000
00000100
00000000
00000000
00010000
00000000
00000000
00000000
00010000
00000000
00000000
00000000
00010000
00000000
00000000
00000000
,
00021000
00000000
00000000
00100000
00000000
00000000
00031000
00000000
,
00012000
00000000
00000000
00000010
00000000
00000000
00013000
00000000
,
00022000
00000000
00000000
00000000
,
00033000
00000000
02200000
03300000
,
10000000
00000000
00000000
01000000
00000000
00000000
00010000
00000000
,
00000000
00001000
00000000
00000000
00000010
00000000
00000001
00000000
,
00000001
00000000
00000000
00000100
00000000
00000000
00001000
00000000
,
00000000
00010000
00000000
00000000
00100000
00000000
10000000
00000000
,
10010000
00000000
00000000
10000000
01000000
00000000
00100000
00000000
,
00000000
00010000
00000000
00000000
00001000
00000000
00000100
00000000
,
00001001
00000000
00000000
00000010
00000001
00000000
00000100
00000000
,
00000000
00001000
00000000
00000000
00010000
00000000
00100000
00000000
,
10010000
00000000
00000000
10000000
00100000
00000000
00010000
00000000
,
00000000
00001000
00000000
00000000
00100000
00000000
00010000
00000000
,
01010000
00000000
00000000
01000000
00001000
00000000
00010000
00000000
,
00000000
00000100
00000000
00000000
00001000
00000000
00000001
00000000
,
00001001
00000000
00000000
00001000
00000100
00000000
00001000
00000100
,
00000000
00001000
00000100
00000000
00010000
00000000
00001000
00000000
,
10010000
00000000
00000000
00010000
01000000
00000000
00010000
01000000
,
00000000
00010000
01000000
00000000
00001000
00000000
00010000
00000000
,
00020100
00000000
00100000
00031000
,
01002000
00000000
00000010
00013000
,
00011000
00000000
00001000
01000000
00010000
00000000
10000000
01000000
,
00010000
00000000
00001000
00000000
00000010
00000001
00001000
00000001
,
00000200
00000000
00000000
00000000
,
00000010
00000010
00000010
00000310
,
00001001
00000000
00001000
00000100
00000000
00010000
00000000
00000000
00001000
00000000
00000000
01000000
,
00000000
00000000
00010000
10000000
00000000
01000000
00000000
00000000
01100000
00000000
00000000
00000000
,
00101000
00010000
00101000
00010000
,
00001000
00000000
00010000
00000000
00000000
00000100
00000000
00000000
00000110
00000000
00000000
00000000
,
00001001
00000000
00000001
00000100
00000000
00000010
00000000
00000000
00001000
00000000
00000000
00000100
,
00000000
00000000
00010000
00001000
00000000
01000000
00000000
00000000
01100000
00000000
00000000
00000000
,
10010000
01000000
10010000
01000000
,
00010000
00000000
10000000
00000000
00000000
01000000
00000000
00000000
00010000
00001000
00000000
00000000
,
00011000
00000000
00000000
00000000
00000000
00000000
00001100
00000000
00000000
00000000
00000000
00010010
,
00000000
00000000
00000000
00010000
00000000
00001000
00000000
00000000
00010000
00001000
00000000
00000000
,
00011000
00000000
00000000
00000000
00000000
00000000
01010000
00000000
00000000
00000000
00000000
00101000
,
00000000
00000000
00000000
00001000
00000000
00010000
00000000
00000000
00001000
00010000
00000000
00000000
,
00020100
00001000
01000000
00031000
,
00011000
00000000
00000000
00000100
00000000
00001000
00000000
00000000
00000010
00000100
00000000
00000000
,
00001001
00000000
00000000
00000000
00000000
00010100
00000000
00000000
00010000
00001000
00000000
00000000
,
10010000
00000000
00000000
00000000
00000000
01001000
00000000
00000000
00001000
00010000
00000000
00000000
,
00022000
00000000
00000000
00033000
,
00001000
00001000
00010000
00010000
,
00011000
00000000
00001000
00010000
00000000
00000100
00000010
00000000
,
00000001
00000000
00000100
00000010
00000000
00000100
00001000
00000000
,
00010000
00000000
01000000
00100000
00000000
01000000
00000000
10000000
,
00010000
01000000
00010000
01000000
00010000
01000000
00010000
01000000
,
00100000
00000000
00010000
00001000
00000000
00010000
00000100
00000000
,
00000010
00000000
00000001
00000100
00000000
00000010
00000100
00000000
,
00001000
00000000
00010000
01000000
00000000
00100000
00001000
00010000
,
00000010
00001000
00000010
00001000
00000010
00001000
00000010
00001000
,
00000200
00000000
00000000
00000000
,
00000000
00000000
00000000
00000000
,
00000000
00000000
00000000
00000000
,
00000000
00000000
00000000
00000010
00000300
00000000
00000000
00000000
,
00022000
00000000
00000000
00000000
,
00000000
00000000
00000000
00000000
,
00000000
00000000
00000000
00000000
,
00000000
00000000
00000000
00000000
,
00000000
00033000
00022000
00000000
,
00000000
00000000
00033000
00000000
;

//--------------- dance-double - forcednature ----------------
#NOTES:
     dance-double:
     forcednature:
     Hard:
     15:
     0,0,0,0,0:
00000000
00000000
00000000
00000000
,
00000000
00000000
00000000
00000000
,
00000000
00000000
00000000
00000000
,
00000000
00000000
00000000
00000000
,
00000000
00000000
00000000
00000000
,
00000000
00000000
00000000
00000000
,
00000000
00000000
00000000
00000000
,
00000000
00000000
00000000
00000000
,
00000000
00000000
00000000
00000000
,
00011000
00000000
00000000
00010000
01000000
00100000
00000000
00010000
,
00000000
10000000
00100000
00000000
00010000
00000000
00001000
00000000
,
00000010
00000000
00000000
00000100
00001000
00000001
00000100
00000000
,
00000000
00000010
00000000
00010000
00010000
00000000
00001000
00000000
,
00011000
00000000
00000000
00000100
00001000
00000010
00000000
00000100
,
00001000
00010000
00000000
00100000
02000000
00000000
00000000
00000000
,
03100000
00000000
00100000
00000000
,
00100000
00000000
00100000
00000000
00100000
10000000
00100000
10000000
,
01000000
00100000
00010000
01000000
00001000
00010000
00000100
00000000
,
00000010
00000001
00000100
00000010
00000100
00000001
00000010
00000000
,
00000100
00010000
00001000
00010000
00000000
01000000
00000000
00100000
,
00010000
01000000
00010000
10000000
00010000
00100000
00010000
10000000
,
01000000
00100000
00001000
00010000
00000010
00001000
00000001
00000000
,
00000010
00000100
00001000
00000001
00000100
00000010
00001000
00000000
,
00000100
00010000
00001000
01000000
00000000
00100000
10000000
00010000
,
01000000
00001000
00010000
00001000
00000010
00001000
00010000
00011000
,
00000000
00000100
00001000
00000010
00000000
00010000
00000000
00011000
,
00000000
01000000
00010000
00100000
00000000
00001000
00000000
00011000
,
00000000
00000100
00010000
00010100
00000000
01000000
00001000
01001000
,
00000000
00000010
00010000
00010010
00000000
00100000
00001000
00000000
,
00012000
00010000
00010000
00000100
,
00000100
00010000
00010000
00200000
,
00000000
00303000
00000000
00000000
00022000
00000000
00000000
00000000
,
00000000
00000000
00000000
00033000
,
00010000
00001000
00000010
00000100
00001000
00000001
00001000
00000010
,
00001000
00000100
00010000
00001000
01000000
00000000
00010000
10000000
,
00010000
00100000
01000000
10000000
00010000
00000000
01000000
00001000
,
00000000
00010000
00000100
00001000
00000100
00000010
00000001
00000100
,
00000020
00000000
00000130
00000020
00000000
00001030
00000001
00000010
,
00000200
00000000
00001300
00000200
00000000
00010300
00001000
01000000
,
00020000
00000000
00100000
00000000
,
10030000
00000000
00010000
00000000
10000000
00000000
00010000
00000000
01000000
00010000
01000000
00000000
00010000
01000000
00010000
00000000
,
10000000
01000000
00010000
00001000
00100000
00001000
00010000
00000100
,
00000000
00010000
00001000
00000100
00000010
00001000
00000000
00001010
,
00000000
00000011
00000000
00000001
00000100
00000000
00000010
00010000
,
00000100
00000000
00000000
00001000
00000000
00000000
00000100
00000000
00000000
00010000
00000000
00000000
00001000
00000000
00000000
00000000
01000000
00000000
00000000
00000000
00100000
00000000
00000000
00000000
,
10000000
00000000
01000000
00010000
00001000
00000010
00001000
00010000
,
01000000
00000000
00000000
00000000
00100000
00000000
00001000
00000000
00010000
00001000
00010000
00000000
00001000
00010000
00001000
00000000
,
00000100
00000010
00000000
00001000
00000000
00000001
00000010
00000100
,
00002000
00003000
00022000
00033000
,
01001000
00000000
00000000
01000000
00000000
00000000
00010000
00000000
,
00000000
00001000
00000000
00000000
00000100
00000000
00010000
00000000
,
00001000
00000000
00000000
01000000
00000000
00000000
00010000
00000000
,
00000000
00001000
00000000
00000000
00000100
00000100
00000010
00000000
,
00001001
00000000
00000000
00000000
00000000
00000000
00000001
00000000
00000100
00000000
00000001
00000000
00000100
00000000
00000000
00000010
00000000
00001000
00000000
00000010
00000000
00001000
00000000
00000000
,
00000100
00000000
00010000
00000000
00000100
00000000
00010000
00000000
00000000
00001000
00000000
01000000
00000000
00001000
00000000
01000000
00000000
00000000
00010000
00000000
10000000
00000000
00010000
00000000
,
10000000
00000000
00000000
01000000
00000000
00100000
00000000
01000000
00000000
00100000
00000000
00000000
00001000
00000000
00010000
00000000
00001000
00000000
00010000
00000000
00000000
00000100
00000000
00001000
,
00000000
00000000
00000100
00000000
00000000
00000000
00001000
00000000
00000000
00000000
00000000
00000000
00000001
00000000
00000000
00000000
00001000
00000000
00000000
00000000
00000001
00000000
00000000
00000000
00001000
00000000
00000000
00000000
00000001
00000000
00000000
00000000
00001000
00000000
00000000
00000000
00000001
00000000
00000000
00001000
00000000
00000000
00000001
00000000
00000000
00001000
00000000
00000000
,
00000000
00000000
00000000
00000000
00000000
00000000
00000010
00000000
00000000
00000100
00000000
00000000
00001000
00000000
00010000
00000000
00000000
00001000
00000000
00000000
00000000
01000000
00000000
00000000
,
00000000
00100000
00000000
00000000
00000000
10000000
00000000
00000000
00000000
01000000
00000000
00000000
00000000
00000000
00010000
00000000
00000000
00000000
00001000
00000000
00000000
00000000
00000000
00000000
,
00000200
00000001
00000320
00001000
,
00000130
00000000
00000000
00000001
00000000
00000000
00001000
00000000
00000100
00010000
00000000
00000000
,
00011000
00000000
00000000
00010000
00000000
00000000
01000000
00000000
10000000
00010000
00000000
01000000
,
00000000
00000000
00010000
00000000
10000000
00000000
00000000
00000000
00000000
01000000
00000000
00000000
00000000
00010000
00000000
00001000
00000000
00000000
00000000
00000000
00000100
00000000
00000000
00000000
,
00001000
00010000
00001000
00000000
00000010
00000000
00000001
00001000
00000001
00000000
00001000
00000000
,
00000000
00000010
00000010
00000000
00000100
00001000
00010000
00000000
,
01000000
00000000
01000000
00200000
00000000
00000000
00320000
00000000
00000000
10030000
00000000
00000000
,
00010000
00000000
00000000
01000000
00000000
00000000
00020000
00000000
00000000
00000000
00000000
00000000
00000000
00000000
00000000
00000000
00000000
00000000
00000000
00000000
00000000
00000000
00000000
00000000
00000000
00000000
00000000
00000000
00000000
00000000
00030000
00000000
00000000
00000000
00000000
00000000
00100000
00000000
00000000
00000000
00000000
00000000
00000000
00000000
00001000
00000000
00000000
00000000
,
00020000
00000000
00000000
00000000
00030100
00000000
00001000
00000001
00000000
00000000
00000100
00000000
,
00000000
00001000
00000000
00000000
00000000
00010000
00000000
00100000
00000000
00000000
01000000
00000000
00010000
00000000
10000000
00000000
00000000
00000000
01000000
00000000
00000000
00000000
00010000
00000000
,
00002000
00000000
00000000
00000000
,
00013000
00010100
01001000
00011000
,
00010000
00000000
00000100
00001000
00000000
00001100
00000000
00000000
00000011
00000000
00000000
00001001
,
00000000
00000000
00000001
00000100
00000000
00000110
00000000
00000000
00010010
00000000
00000000
00000000
,
01001000
00110000
01001000
00110000
,
10000000
00000000
01000000
00010000
00000000
00001000
00000000
00000000
00011000
00000000
00000000
00000000
,
00000100
00000000
00001000
00000010
00000000
00000110
00000000
00000000
00001001
00000000
00000000
00000011
,
00000000
00000000
00000001
00000100
00000000
00000110
00000000
00000000
00001001
00000000
00000000
00000000
,
00001100
00010010
00001100
00010010
,
00010000
00000000
00001000
00100000
00000000
00010000
10000000
00000000
00100000
01000000
00000000
00000000
,
02002000
00000000
00000000
03003000
00000000
00000000
00020100
00000000
00000000
00000000
00000000
00130000
,
00000000
00000000
00000000
00010000
00000000
00001000
00000000
00000000
00000010
00000100
00000000
00000000
,
00020200
00000000
00000000
00030300
00000000
00000000
01002000
00000000
00000000
00000000
00000000
00000010
,
00003000
00000000
00000000
00001000
00000000
00010000
00000000
00000000
01000000
00100000
00000000
00000000
,
10010000
00000000
10000000
01000000
00000000
00010000
00001000
00000000
00000010
00000001
00000000
00000000
,
00001001
00000000
00000001
00000100
00000000
00001000
00010000
00000000
00100000
10000000
00000000
00000000
,
10010000
00000000
00000000
00000000
00000000
01002000
00000000
00000000
00010000
00013000
00000000
00000000
,
00001001
00000000
00000000
00000000
00000000
00020100
00000000
00000000
00001000
00031000
00000000
00000000
,
00022000
00000000
00000000
00033000
,
01001000
00000000
00010100
00000000
00000100
00001000
00000010
00000000
,
00000100
00001000
00010000
00100000
01000000
00010000
10000000
00000000
,
01000000
00010000
00001000
00000010
00000001
00001000
00000010
00000000
,
00000100
00001000
00010000
01000000
00000000
00010000
00001000
00010000
,
00100000
10000000
00100000
00010000
00001000
00000010
00000001
00000010
,
00000100
00001000
00000001
00000100
00001000
00010000
00000010
00000000
,
00010000
00001000
01000000
00100000
00010000
00100000
10000000
00000000
,
01000000
00010000
00001000
00000010
00000000
00000001
00001000
00000001
,
00000100
00001000
00010000
01000000
10000000
01000000
00010000
00001000
,
00200000
00000000
00000000
00000000
,
00000000
00000000
00000000
00000000
,
00000000
00000000
00000000
00000000
,
00000000
00000000
00000000
00000000
00000000
00300000
00001000
00010000
00001000
00000000
00000000
00000000
00000000
00000000
00000000
00000000
,
00022000
00000000
00000000
00000000
,
00000000
00000000
00000000
00000000
,
00000000
00000000
00000000
00000000
,
00000000
00000000
00000000
00000000
,
00000000
00033000
00022000
00000000
,
00000000
00000000
00033000
00000000
;
