#VERSION:0.83;
#TITLE:Babylon;
#SUBTITLE:;
#ARTIST:Lady Gaga;
#TITLETRANSLIT:;
#SUBTITLETRANSLIT:;
#ARTISTTRANSLIT:;
#GENRE:;
#ORIGIN:;
#CREDIT:;
#BANNER:banner.png;
#BACKGROUND:Babylon-bg.png;
#PREVIEWVID:;
#JACKET:jacket.png;
#CDIMAGE:;
#DISCIMAGE:;
#LYRICSPATH:;
#CDTITLE:;
#MUSIC:Babylon.ogg;
#OFFSET:-1.034000;
#SAMPLESTART:27.834667;
#SAMPLELENGTH:12.000000;
#SELECTABLE:YES;
#BPMS:0.000=116.000;
#STOPS:;
#DELAYS:;
#WARPS:;
#TIMESIGNATURES:0.000=4=4;
#TICKCOUNTS:0.000=4;
#COMBOS:0.000=1;
#SPEEDS:0.000=1.000=0.000=0;
#SCROLLS:0.000=1.000;
#FAKES:;
#LABELS:0.000=Song Start;
#BGCHANGES:;
#KEYSOUNDS:;
#ATTACKS:
;

//---------------dance-single - ----------------
#NOTEDATA:;
#CHARTNAME:;
#STEPSTYPE:dance-single;
#DESCRIPTION:;
#CHARTSTYLE:;
#DIFFICULTY:Beginner;
#METER:1;
#RADARVALUES:0.087579,0.138716,0.010391,0.000000,0.000000,59.000000,58.000000,1.000000,0.000000,0.000000,0.000000,0.000000,0.000000,0.000000,0.087579,0.138716,0.010391,0.000000,0.000000,59.000000,58.000000,1.000000,0.000000,0.000000,0.000000,0.000000,0.000000,0.000000;
#CREDIT:Venom;
#NOTES:
0000
0000
0000
0000
,
0000
0000
0000
0000
,
0000
0000
0000
0000
,
0000
0000
0000
0000
,
0000
0000
0000
0000
,
1000
0000
1000
0000
,
0001
0000
0000
0000
,
0100
0000
0100
0000
,
0010
0000
0000
0000
,
1000
0000
1000
0000
,
0100
0000
0100
0000
,
0010
0000
0010
0000
,
1001
0000
0000
0000
,
0001
0000
0001
0000
,
0100
0000
0000
0000
,
0010
0000
0010
0000
,
1000
0000
0000
0000
,
0100
0000
0100
0000
,
0010
0000
0000
0000
,
0001
0000
0001
0000
,
1000
0000
0000
0000
,
0010
0000
0000
0000
,
0100
0000
0100
0000
,
0001
0000
0000
0000
,
0010
0000
0010
0000
,
0100
0000
0000
0000
,
1000
0000
1000
0000
,
0001
0000
0000
0000
,
1000
0000
1000
0000
,
0010
0000
0010
0000
,
1000
0000
0000
0000
,
0100
0000
0100
0000
,
0010
0000
0000
0000
,
0001
0000
0001
0000
,
1000
0000
0000
0000
,
0010
0000
0010
0000
,
0100
0000
0000
0000
,
0001
0000
0000
0000
,
0001
0000
0000
0000
,
1000
0000
0000
0000
,
1000
0000
0000
0000
,
0100
0000
0000
0000
,
0100
0000
0000
0000
,
0010
0000
0000
0000
,
0010
0000
0010
0000
;

//---------------dance-single - ----------------
#NOTEDATA:;
#CHARTNAME:;
#STEPSTYPE:dance-single;
#DESCRIPTION:;
#CHARTSTYLE:;
#DIFFICULTY:Easy;
#METER:5;
#RADARVALUES:0.231564,0.277431,0.155860,0.041563,0.000000,156.000000,141.000000,15.000000,4.000000,0.000000,0.000000,0.000000,0.000000,0.000000,0.231564,0.277431,0.155860,0.041563,0.000000,156.000000,141.000000,15.000000,4.000000,0.000000,0.000000,0.000000,0.000000,0.000000;
#CREDIT:Venom;
#NOTES:
0000
0000
0000
0000
,
0000
0000
0000
0000
,
0000
0000
0000
0000
,
0000
0000
0000
0000
,
0000
0000
0000
0000
,
1000
0001
0100
0010
,
1000
2000
0000
3000
,
0001
1000
0100
1000
,
0010
0010
1000
0001
,
0010
0010
0100
0100
,
1000
1000
0001
0001
,
0200
0300
0010
0010
,
2002
0000
0000
3003
,
1000
0100
1000
1000
,
0001
0100
0001
0001
,
1000
0010
1000
1000
,
0001
0010
0001
0001
,
0100
0010
1000
1000
,
0100
0010
0001
0001
,
0100
0010
1000
0001
,
0100
0100
1001
1001
,
1000
1000
1100
0000
,
0001
0100
0001
0001
,
0010
0001
0011
0000
,
1000
0010
1000
1000
,
0010
0100
1001
0000
,
0001
1000
0001
0001
,
0010
0100
1100
0000
,
1000
0001
0110
1001
,
0001
0100
0001
0001
,
1000
0100
1000
1000
,
0001
0010
0001
0001
,
1000
0010
1010
0101
,
1000
0001
0010
0010
,
0001
1000
0100
0100
,
1000
0001
0100
0100
,
0001
1000
0011
1100
,
0010
0000
0010
0000
,
1000
0100
1000
0000
,
0010
0000
0010
0000
,
0100
0001
0010
0001
,
1000
1000
0010
0000
,
0100
0100
0001
0000
,
0010
0001
0100
0000
,
0110
0010
0110
0000
;

//---------------dance-single - ----------------
#NOTEDATA:;
#CHARTNAME:;
#STEPSTYPE:dance-single;
#DESCRIPTION:;
#CHARTSTYLE:;
#DIFFICULTY:Medium;
#METER:9;
#RADARVALUES:0.316174,0.348250,0.218204,0.197423,0.031172,213.000000,192.000000,21.000000,19.000000,0.000000,0.000000,0.000000,0.000000,0.000000,0.316174,0.348250,0.218204,0.197423,0.031172,213.000000,192.000000,21.000000,19.000000,0.000000,0.000000,0.000000,0.000000,0.000000;
#CREDIT:Venom;
#NOTES:
0000
0000
0000
0000
,
0000
0000
0000
0000
,
0000
0000
0000
0000
,
0000
0000
0000
0000
,
0000
0000
0000
0000
,
1000
0000
0100
1000
0010
0000
0100
0000
,
0001
0001
1000
0000
,
0100
0000
1000
0001
0010
0000
0001
0000
,
0100
0100
0010
0010
,
1000
0100
0010
0001
,
1000
0010
0100
0001
,
0010
0000
0100
0100
,
2002
0000
0000
3003
,
1000
0100
1000
0000
0001
0000
0001
0000
,
0010
0000
0001
0000
0100
0001
0100
0000
,
0010
1000
0010
0000
0100
0000
0100
0000
,
0001
1000
0100
0000
0010
0001
0100
0010
,
0100
0001
1000
0000
0100
0100
0100
0000
,
1000
0001
0010
0000
0011
0000
1100
0000
,
1000
1000
1000
0000
0001
0001
0001
0000
,
1000
0100
0010
0000
0110
0000
1001
0000
,
0002
0000
0000
0000
0100
0000
0000
0000
1000
0000
0000
1003
0000
0000
0000
0000
,
1010
0000
0101
0000
1000
0001
1000
0001
,
2000
0000
0000
0000
0100
0000
0000
0000
0001
0000
0000
3001
0000
0000
0000
0000
,
1000
0010
0100
0000
0001
1000
0100
0010
,
0002
0000
0000
0000
0010
0000
0000
0000
1000
0000
0000
1003
0000
0000
0000
0000
,
1010
0000
0101
0000
1000
0100
0010
0001
,
2000
0000
0000
0000
0010
0000
0000
0000
0001
0000
0000
3001
0000
0000
0000
0000
,
1000
0010
0100
0000
0110
0000
1001
0000
,
0001
0010
0100
0000
1000
1000
1000
0000
,
0001
0100
0010
0000
0110
0000
1001
0000
,
1000
1000
1000
0000
0001
0010
0100
0000
,
1000
0001
0100
0000
0010
0100
1001
0000
,
0001
0010
0100
0000
0010
0010
0010
0000
,
0001
0100
0010
0000
0100
0010
1001
0000
,
1000
0010
0100
0000
0001
0001
0001
0000
,
1000
0000
0100
0000
0010
0000
0000
0000
1001
0000
0000
0110
0000
0000
0000
0000
,
0002
0103
2000
3100
,
0002
0013
2000
3010
,
0002
1003
2000
3001
,
1000
0100
0010
0000
0110
0000
1001
0000
,
0002
0103
0200
0310
,
0020
1030
2000
3001
,
2000
3100
0200
0310
,
0020
0000
0000
0000
0031
0000
0000
0000
0110
0000
0000
1001
0000
0000
0000
0000
;

//---------------dance-single - ----------------
#NOTEDATA:;
#CHARTNAME:;
#STEPSTYPE:dance-single;
#DESCRIPTION:;
#CHARTSTYLE:;
#DIFFICULTY:Hard;
#METER:13;
#RADARVALUES:0.451253,0.487551,0.436409,0.124688,0.363674,304.000000,262.000000,42.000000,12.000000,0.000000,0.000000,0.000000,0.000000,0.000000,0.451253,0.487551,0.436409,0.124688,0.363674,304.000000,262.000000,42.000000,12.000000,0.000000,0.000000,0.000000,0.000000,0.000000;
#CREDIT:Venom;
#NOTES:
// measure 0
0000
0000
0000
0000
,  // measure 1
0000
0000
0000
0000
,  // measure 2
0000
0000
0000
0000
,  // measure 3
0000
0000
0000
0000
,  // measure 4
0000
0000
0000
0000
,  // measure 5
1000
0000
0000
0000
0001
0000
0000
0010
0000
0100
0000
0000
0001
0000
0100
0000
,  // measure 6
1000
0000
0000
0000
0001
0000
0000
0100
0000
1000
0000
0000
0100
0000
0010
0000
,  // measure 7
1000
0000
0000
0000
0001
0000
0000
0010
0000
0100
0000
0000
1000
0000
0010
0000
,  // measure 8
0100
0000
0000
0000
0010
0000
0000
1000
0000
0100
0000
0000
0010
0000
0001
0000
,  // measure 9
1000
0000
0000
0001
0100
0000
0000
0000
0001
0000
0000
1000
0100
0000
0000
0000
,  // measure 10
1000
0000
0000
0001
0010
0000
0000
0000
0001
0000
0000
1000
0010
0000
0000
0000
,  // measure 11
0110
0000
1010
0101
,  // measure 12
2002
0000
0000
0000
0000
0000
3003
0000
1000
0000
1000
0000
0001
1000
0001
1000
,  // measure 13
0001
0100
0010
0000
1010
0000
0000
0000
0001
0000
0010
0100
1000
0000
0000
0000
,  // measure 14
0001
1000
0000
0000
0010
0000
0100
0000
0001
1000
0000
1000
0001
0000
0000
0000
,  // measure 15
1000
0100
0010
0000
0011
0000
0000
0000
0001
1000
0000
1000
0010
0000
0000
0000
,  // measure 16
1000
0100
1000
0100
1000
0000
0000
0000
0001
0100
0000
0100
0010
0000
1000
0000
,  // measure 17
0001
0000
1000
0000
1010
0000
0000
0000
1000
0000
0010
0100
0001
0000
0000
0000
,  // measure 18
1000
0100
0010
0000
0001
0000
0000
0000
1001
0000
0110
0000
1001
0000
0000
0000
,  // measure 19
0001
0000
1000
0000
0101
0000
0000
0000
1000
0001
0000
0001
1000
0000
0000
0000
,  // measure 20
0001
0100
0001
0100
0001
0000
0000
0000
1000
0100
0000
0100
1000
0000
0000
0000
,  // measure 21
1001
0000
0000
0000
1001
0000
0000
0000
1000
0001
0000
0001
1000
0000
0000
0000
,  // measure 22
0002
0000
2003
0000
3020
0130
0020
0130
,  // measure 23
0110
0000
0000
0000
0110
0000
0000
0000
0010
0100
0000
0100
0010
0000
0000
0000
,  // measure 24
1000
0001
1000
0001
1000
0000
0000
0000
0200
0000
0310
0000
0200
0000
0310
0000
,  // measure 25
1001
0000
0000
0000
1001
0000
0000
0000
0001
1000
0000
1000
0001
0000
0000
0000
,  // measure 26
2000
0000
3002
0000
0023
0130
0020
0130
,  // measure 27
0110
0000
0000
0000
0110
0000
0000
0000
0100
0010
0000
0010
0100
0000
0000
0000
,  // measure 28
0100
0010
0100
0010
0001
0000
0000
0000
1000
0001
0000
0001
1000
0000
0000
0000
,  // measure 29
0001
0010
0100
0000
1100
0000
0000
0000
1000
0000
0010
0100
0001
0000
0000
0000
,  // measure 30
1000
0001
0000
0000
0100
0000
0010
0000
0100
0010
0000
0010
1000
0000
0000
0000
,  // measure 31
0001
0100
0010
0000
1000
0000
0000
0000
1000
0100
0000
0100
1000
0000
0000
0000
,  // measure 32
0001
0100
0001
0100
0001
0000
0000
0000
1000
0001
0000
0001
1000
0000
0001
0000
,  // measure 33
0010
0000
0100
0000
1001
0000
0000
0000
0001
0000
0010
0100
1000
0000
0000
0000
,  // measure 34
0001
0100
0010
0000
1000
0000
0000
0000
1001
0000
0110
0000
1001
0000
0000
0000
,  // measure 35
0001
0000
1000
0000
1010
0000
0000
0000
0010
1000
0000
1000
0100
0000
0000
0000
,  // measure 36
0010
0100
0010
0100
0010
0000
0000
0000
0001
1000
0000
0110
0000
0000
0000
0000
,  // measure 37
0001
0101
1000
1100
,  // measure 38
0001
0011
1000
1010
,  // measure 39
0100
1010
0100
0011
,  // measure 40
0010
0000
0000
0000
1100
0000
0000
0000
0010
0000
0000
0101
0000
0000
0001
0000
,  // measure 41
1000
0100
1001
0000
0010
0000
1001
0000
,  // measure 42
0100
1010
0100
0011
,  // measure 43
1000
1100
0001
0101
,  // measure 44
1000
0000
0100
0000
0001
0000
0000
0000
0110
0000
0000
1001
0000
0000
0000
0000
;
