#TITLE:Alla turca con passione;
#SUBTITLE:;
#ARTIST:Twin AmadeuS;
#TITLETRANSLIT:;
#SUBTITLETRANSLIT:;
#ARTISTTRANSLIT:;
#GENRE:NATURAL SOUND;
#CREDIT:;
#BANNER:allaturcaconpassione-bn.png;
#BACKGROUND:allaturcaconpassione-bg.png;
#LYRICSPATH:;
#CDTITLE:;
#MUSIC:allaturcaconpassione.mp3;
#OFFSET:-1.062744;
#SAMPLESTART:41.686142;
#SAMPLELENGTH:14.142443;
#SELECTABLE:YES;
#BPMS:0.000000=140.000000
,80.000000=70.000000
,87.000000=140.000000
,124.000000=70.000000
,132.000000=140.000000
;
#STOPS:87.000000=0.429000
;
#BGCHANGES:;
#KEYSOUNDS:;
#ATTACKS:;

//---------------dance-single - ----------------
#NOTES:
     dance-single:
     :
     Hard:
     12:
     0.517169,0.761340,0.377102,0.150841,0.204713,336.000000,301.000000,35.000000,14.000000,0.000000,0.000000,0.517169,0.761340,0.377102,0.150841,0.204713,336.000000,301.000000,35.000000,14.000000,0.000000,0.000000:
0000
0000
0000
0000
,
0000
0000
0000
0000
,
1001
0000
0110
0000
,
1000
0000
0001
0000
1001
0000
1000
0001
,
1000
0100
0010
0001
0010
1000
0010
0001
,
0100
0010
1000
0010
0100
1000
0100
0001
,
1000
1000
0001
0001
0010
0100
0010
0100
,
1001
0000
1000
0100
1000
0010
0100
0001
,
0200
1300
0200
0301
,
2000
3100
0002
0103
,
2000
0000
0000
0000
3001
0000
0000
0000
0110
0000
0000
1001
0000
0000
0220
0000
,
0000
0000
0000
0000
0330
0000
0001
1000
,
0001
0100
0010
1000
0010
0001
0010
1000
,
0100
0010
0001
0010
0100
0001
0100
1000
,
0001
0001
1000
1000
0010
0100
0010
0100
,
0110
0000
0001
0100
1000
0100
0001
1000
,
0200
0301
0200
1300
,
0002
0103
2000
3100
,
0002
0000
0000
0000
1003
0000
0000
0000
0110
0000
0000
1001
0000
0000
0220
0000
,
0000
0000
0000
0330
1000
0001
1000
0001
,
0010
0010
0001
0010
0100
0000
0000
0000
0100
0100
1000
0100
0001
0000
0000
0000
,
0100
0100
1000
0010
0100
0000
0000
0000
0100
0100
0001
1000
0001
0000
0000
0000
,
1000
0100
0010
0001
0010
1000
0010
0001
,
0100
0010
1000
0010
0100
1000
0100
0001
,
1000
1000
0001
0001
0010
0100
0010
0100
,
0110
0000
1000
0010
1000
0100
1000
0001
,
0100
0000
0000
0100
1000
0000
0000
1000
0100
0000
0000
0100
0001
0000
0000
0001
,
1000
0000
0000
1000
0100
0000
0000
0100
0010
0000
0000
0010
0001
0000
0000
0001
,
0100
0000
0000
0100
0010
0000
0000
0010
1000
0000
0000
1000
0001
0000
0000
0001
,
1000
0010
0100
0001
0010
0001
0100
0010
,
1000
0100
0010
0001
0100
0001
0010
0001
,
0011
0000
0001
0001
1001
0000
0001
0000
0101
0000
1100
0000
0101
0000
1000
0010
,
1010
0000
1000
1000
1001
0000
1000
0000
1100
0000
0101
0000
1100
0000
1000
1000
,
0001
0010
0001
1000
0100
1000
0010
1000
,
1100
0000
0101
0000
1001
0000
1000
0001
,
1000
0010
1000
0001
0100
0001
0010
0001
,
0101
0000
0000
0000
1100
0000
0000
0000
1001
0000
0000
0000
1000
0000
0000
1000
,
0001
0000
0000
0001
0100
0000
0000
0100
1000
0000
0000
1000
0100
0000
0000
0100
,
0001
1000
0001
1000
1001
0000
1000
0100
,
0010
0001
0001
0001
0100
0001
0010
0001
,
1000
0000
0000
1000
0010
0000
0000
0010
0001
0000
0000
0001
0010
0000
0000
0010
,
1000
0001
1000
0001
1001
0000
0001
0100
,
0010
1000
1000
1000
0100
1000
0010
0100
,
0101
0000
0001
0100
1100
0000
0001
0010
,
1010
0000
0001
0100
1000
0100
0001
0100
,
1001
0000
0000
0000
0000
0000
0000
0000
0000
0000
0000
0000
0000
0000
0000
0000
0000
0000
0000
0000
0000
0000
0000
0000
0000
0000
0000
0000
0000
0000
0000
0000
0000
0000
0000
0000
0000
0000
0000
0000
0000
0000
0000
0000
0000
0000
0000
0000
0000
0000
0000
0000
0000
0000
0000
0000
0000
1001
0000
0000
0000
0000
0000
0000
0000
0000
0000
0000
0000
0000
0000
0000
0000
0000
0000
0000
0000
0000
0000
0000
0000
0000
0000
0000
0000
0000
0000
0000
0000
0000
0000
0000
0000
0000
0000
0000
0000
0000
0000
0000
1000
0000
0000
0000
0000
0000
0000
0000
0000
0000
0000
0000
0000
0001
0000
0000
0000
0000
0000
0000
0000
0000
0000
0000
0000
0000
0000
0000
0000
0000
0000
0000
0000
0000
0000
0000
0000
0000
0000
0000
0000
0000
0000
0000
0000
0000
0000
0000
0000
0000
0000
0000
0000
0000
0000
0000
0000
0000
0000
0000
0000
0000
0000
0000
0000
0000
0000
0000
0000
0000
0000
0000
0000
0000
0000
0000
0000
0000
0000
0000
0000
0000
0000
0000
0000
0000
0000
0000
0000
0000
0000
0000
;

//---------------dance-single - ----------------
#NOTES:
     dance-single:
     :
     Challenge:
     15:
     0.731117,1.006933,0.495620,0.075420,0.646461,475.000000,429.000000,46.000000,7.000000,0.000000,0.000000,0.731117,1.006933,0.495620,0.075420,0.646461,475.000000,429.000000,46.000000,7.000000,0.000000,0.000000:
0000
0000
0000
0000
,
0000
0000
0000
0000
0000
0000
1000
0001
,
1001
0000
0001
1000
1010
0010
0100
0001
,
0101
0000
0100
0000
1100
0000
0100
0000
0101
0000
0000
0000
1000
0010
1000
0010
,
1000
0000
0010
0000
0001
0010
0100
0000
1000
0000
0100
0000
0001
0100
0001
0100
,
0001
0000
1000
0000
0100
0010
0001
0000
0010
0000
1000
0000
0010
0001
0010
0001
,
0010
0000
0100
0000
0010
0000
1000
0000
0020
0000
0000
0031
0000
0000
1000
0010
,
0100
0001
1000
0100
0010
0001
1000
0010
,
0101
0000
0000
0001
1000
0000
0100
0000
1100
0000
0000
0010
0001
0000
1000
0000
,
1010
0000
0000
1000
0001
0000
0010
0000
0011
0000
0000
0100
1000
0000
0001
0000
,
1001
0000
0000
1000
0010
0000
0100
0000
0101
0000
0000
1100
0000
0000
2002
0000
,
0000
3003
0000
1000
0001
0000
0100
0000
0010
1000
0000
0000
0001
0010
0001
0010
,
0001
0000
0010
0000
1000
0010
0100
0000
0001
0000
0100
0000
1000
0100
1000
0100
,
1000
0000
0001
0000
0100
0010
1000
0000
0010
0000
0001
0000
0010
1000
0010
1000
,
0010
0000
0100
0000
0010
0000
0001
0000
0020
0000
0000
1030
0000
0000
0001
0010
,
0100
1000
0001
0100
0010
1000
0001
0010
,
1100
0000
0000
1000
0001
0000
0100
0000
0101
0000
0000
0010
1000
0000
0001
0000
,
0011
0000
0000
0001
1000
0000
0010
0000
1010
0000
0000
0100
0001
0000
1000
0000
,
1001
0000
0000
0001
0010
0000
0100
0000
1100
0000
0000
0101
0000
0000
2002
0000
,
0000
3003
0000
1000
0001
0000
0100
0000
0010
1000
0000
0000
0010
0100
0010
0100
,
0001
0000
0001
0000
1000
0100
1000
0100
0010
0000
0000
0000
0100
0000
0100
0000
1000
0000
1000
0000
0001
0100
0001
0100
0010
0000
0000
0000
1000
0000
1000
0000
,
0001
0000
0001
0000
1000
0010
0100
0001
0010
0000
0000
0000
0100
0000
0100
0000
1000
0000
1000
0000
0001
0100
0010
1000
0200
0000
0000
0000
0000
0000
0000
0000
,
1300
0000
0100
0000
0010
0001
1000
0000
0010
0000
0001
0000
0010
1000
0010
1000
,
0010
0000
0100
0000
0001
1000
0100
0000
0001
0000
0100
0000
1000
0100
0010
0001
,
0010
0100
1000
0100
0010
0100
0001
0100
0010
0000
0000
0001
0000
0000
1000
0001
,
0010
1000
0010
0001
0010
0100
0001
0010
,
0011
0000
0000
0100
1000
0000
0001
0000
1001
0000
0000
0001
1000
0000
0010
0000
,
1010
0000
0000
0100
0001
0000
1000
0000
1001
0000
0000
1000
0001
0000
0010
0000
,
0011
0000
0000
0100
1000
0000
0001
0000
1001
0000
0000
0000
0001
1000
0001
1000
,
0001
0000
0100
0000
0001
0000
0010
0000
0100
1000
0000
0000
0001
0100
0001
0100
,
0010
0000
1000
0000
0100
0000
1000
0000
0001
0000
1000
0000
0001
1000
0001
1000
,
1001
0000
1000
0010
1010
0010
0100
0001
0101
0100
1100
0100
0101
0001
1000
0100
,
0101
0000
0100
1000
1100
0100
0010
0001
0011
0010
1010
0010
0011
0000
0001
1000
,
0010
0000
0100
0000
0001
0000
0100
0000
0010
1000
0001
0000
0010
0000
1000
0000
,
0010
0001
0010
0000
0100
0010
0100
0000
1000
0000
0001
0000
0100
0000
0010
0000
,
1000
0000
0001
0000
1000
0000
0010
0000
0100
0001
1000
0000
0100
0000
0001
0000
,
0100
1000
0100
0000
0010
0100
0010
0000
0001
0000
1000
0000
0010
0100
0010
0100
,
0001
0100
1000
0100
0001
0010
1000
0010
,
0001
0010
0100
0010
0001
0010
0100
1000
0001
0000
0000
0000
0100
0000
0010
0000
,
1000
0000
1000
0000
0001
0000
0001
0000
1000
0010
1000
0010
0100
0000
0001
0000
,
1000
0100
0001
0100
1000
0010
0001
0010
,
1000
0010
0100
0010
1000
0010
0100
0001
1000
0000
0000
0000
0100
0000
0010
0000
,
0001
0000
0001
0000
1000
0000
1000
0000
0001
0010
0001
0010
0100
0000
1000
0000
,
1100
0000
0001
0100
0001
0000
0101
0000
1001
0000
1000
0100
1000
0000
1100
0000
,
1001
0000
1000
0001
1000
0000
0010
0000
1010
0000
0010
0000
0011
0000
0010
0000
,
1010
0000
0000
0000
0000
0000
0000
0000
0000
0000
0000
0000
0000
0000
0000
0000
0000
0000
0000
0000
0000
0000
0000
0000
0000
0000
0000
0000
0000
0000
0000
0000
0000
0000
0000
0000
0000
0000
0000
0000
0000
0000
0000
0000
0000
0000
0000
0000
0000
0000
0000
0000
0000
0000
0000
0000
0000
1001
0000
0000
0000
0000
0000
0000
0000
0000
0000
0000
0000
0000
0000
0000
0000
0000
0000
0000
0000
0000
0000
0000
0000
0000
0000
0000
0000
0000
0000
0000
0000
0000
0000
0000
0000
0000
0000
0000
0000
0000
0000
0000
1000
0000
0000
0000
0000
0000
0000
0000
0000
0000
0000
0000
0000
0001
0000
0000
0000
0000
0000
0000
0000
0000
0000
0000
0000
0000
0000
0000
0000
0000
0000
0000
0000
0000
0000
0000
0000
0000
0000
0000
0000
0000
0000
0000
0000
0000
0000
0000
0000
0000
0000
0000
0000
0000
0000
0000
0000
0000
0000
0000
0000
0000
0000
0000
0000
0000
0000
0000
0000
0000
0000
0000
0000
0000
0000
0000
0000
0000
0000
0000
0000
0000
0000
0000
0000
0000
0000
0000
0000
0000
0000
0000
;

//---------------dance-single - ----------------
#NOTES:
     dance-single:
     :
     Medium:
     8:
     0.357093,0.515746,0.280133,0.129292,0.048485,232.000000,206.000000,26.000000,12.000000,0.000000,0.000000,0.357093,0.515746,0.280133,0.129292,0.048485,232.000000,206.000000,26.000000,12.000000,0.000000,0.000000:
0000
0000
0000
0000
,
0000
0000
0000
0000
,
1001
0000
0110
0000
,
1000
0000
0001
0000
1001
0000
1000
0100
,
0010
0000
1000
0000
0010
0000
0001
0100
,
0010
0001
0010
1000
,
0001
1000
0001
1000
0100
0000
0100
0010
,
0001
0100
0001
0010
,
0200
0000
2300
0000
,
3002
0000
0203
0000
,
0320
0000
0000
0000
0000
0000
0000
0000
1030
0000
0000
0001
0000
0000
0101
0000
,
0000
0000
0001
0000
1000
0000
0001
0010
,
0100
0000
0001
0000
0100
0000
1000
0010
,
0100
1000
0100
0001
,
1000
0001
1000
0001
0100
0000
0100
0010
,
1000
0100
1000
0010
,
0200
0000
0302
0000
,
2003
0000
3200
0000
,
0320
0000
0000
0000
0000
0000
0000
0000
0031
0000
0000
1000
0000
0000
1100
0000
,
0000
0000
1000
0000
0001
0000
1000
0010
,
0100
0000
0001
0010
0001
0000
1000
0000
0100
0000
1000
0010
1000
0000
0001
0000
,
1000
0000
0010
0100
0010
0000
0100
0000
0001
0000
1000
0001
1000
0000
0000
0000
,
0010
0000
0001
0000
0010
0000
1000
0100
,
0010
1000
0010
0001
,
1000
0010
0001
0010
1000
0000
1000
0001
,
0010
0100
1000
0010
,
1010
0100
0101
0001
,
0011
0100
1100
1000
,
1010
0001
0011
1000
,
0010
0000
1000
0100
1000
0000
0010
0000
,
0100
0000
0001
0010
0001
0000
0100
0000
,
0110
0000
1000
0010
0001
0010
1010
0000
,
0011
0000
0000
0000
1000
0000
0100
0000
0001
0000
0100
0000
1100
0000
0001
0010
,
0001
0000
1000
0001
1000
0000
0100
0000
,
0101
0000
1100
0000
0101
0000
1000
0010
,
1000
0000
0001
1000
0001
0000
0100
0000
,
1100
0101
1001
1000
,
0100
0001
0100
1000
,
0001
1000
0001
1000
0020
0000
0000
0000
,
0130
0000
0001
0010
0001
0000
1000
0000
,
0100
0001
0100
1000
,
0001
1000
0001
1000
0020
0000
0000
0000
,
0130
0000
0001
0010
0001
0000
0100
0000
,
0101
1000
1100
0001
,
0011
0000
1000
0000
0001
1000
0001
1000
,
0001
0000
0000
0000
0000
0000
0000
0000
0000
0000
0000
0000
0000
0000
0000
0000
0000
0000
0000
0000
0000
0000
0000
0000
0000
0000
0000
0000
0000
0000
0000
0000
0000
0000
0000
0000
0000
0000
0000
0000
0000
0000
0000
0000
0000
0000
0000
0000
0000
0000
0000
0000
0000
0000
0000
1001
0000
0000
0000
0000
0000
0000
0000
0000
0000
0000
0000
0000
0000
0000
0000
0000
0000
0000
0000
0000
0000
0000
0000
0000
0000
0000
0000
0000
0000
0000
0000
0000
0000
0000
0000
0000
0000
0000
0000
0000
0000
0000
0000
0000
0000
0000
0000
0000
0000
0000
0000
0000
0000
0000
0000
0000
0000
0110
0000
0000
0000
0000
0000
0000
0000
0000
0000
0000
0000
0000
0000
0000
0000
0000
0000
0000
0000
0000
0000
0000
0000
0000
0000
0000
0000
0000
0000
0000
0000
0000
0000
0000
0000
0000
0000
0000
0000
0000
0000
0000
0000
0000
0000
0000
0000
0000
0000
0000
0000
0000
0000
0000
0000
0000
0000
0000
0000
0000
0000
0000
0000
0000
0000
0000
0000
0000
0000
0000
0000
0000
0000
0000
0000
0000
0000
0000
;

//---------------dance-single - ----------------
#NOTES:
     dance-single:
     :
     Easy:
     5:
     0.260124,0.392950,0.247810,0.064646,0.005387,169.000000,146.000000,23.000000,6.000000,0.000000,0.000000,0.260124,0.392950,0.247810,0.064646,0.005387,169.000000,146.000000,23.000000,6.000000,0.000000,0.000000:
0000
0000
0000
0000
,
0000
0000
0000
0000
,
1001
0000
1000
0000
,
0100
0010
0110
0001
,
1000
0000
0001
0100
,
0010
0000
1000
0010
,
0001
0010
1000
0001
,
1001
0000
1000
0100
,
0020
0000
0031
0000
,
2000
0000
3010
0000
,
0200
0000
0301
1000
,
1001
0000
0001
0100
,
0010
0000
1000
0001
,
0010
0000
0100
1000
,
0001
0100
1000
0100
,
0101
0000
0001
0010
,
0200
0000
1300
0000
,
0002
0000
0103
0000
,
0020
0000
1030
0001
,
1001
0000
0000
0001
,
1000
0000
1010
0000
0010
0010
0100
0000
,
0001
0000
0011
0000
0010
0010
0100
0000
,
1001
0000
0001
0100
,
0010
0000
1000
0010
,
0001
0010
1000
0001
,
1001
0000
1000
0100
,
0010
1000
0010
0001
,
1000
0100
0001
0100
,
1000
0001
0100
0010
,
1000
0001
1000
0100
,
0010
0001
1000
0010
,
1010
0000
1001
0000
0001
1000
0001
0000
,
0011
0000
1001
0000
1000
0001
1000
0000
,
1010
0000
1000
0100
,
0001
0100
1000
0000
,
1001
0000
0001
0100
,
0010
1000
0001
0100
,
0001
0010
0001
0100
,
0010
1000
1010
0000
,
1000
0100
0001
0100
,
1000
0010
1000
0100
,
0010
0001
0011
0000
,
0001
0100
1000
0100
,
0101
0000
1100
0000
,
0101
0000
0001
1000
,
1001
0000
0000
0000
0000
0000
0000
0000
0000
0000
0000
0000
0000
0000
0000
0000
0000
0000
0000
0000
0000
0000
0000
0000
0000
0000
0000
0000
0000
0000
0000
0000
0000
0000
0000
0000
0000
0000
0000
0000
0000
0000
0000
0000
0000
0000
0000
0000
0000
0000
0000
0000
0000
0000
0000
0000
0000
0000
0000
0000
0000
0000
0000
0000
0000
0000
0000
0000
0000
0000
0000
0000
0000
0000
0000
0000
0000
0000
0000
0000
0000
0000
0000
0000
0000
0000
0000
0000
0000
0000
0000
0000
0000
0000
0000
0000
0000
0000
0000
0000
0000
0000
0000
0000
0000
0000
0000
0000
0000
0000
0000
0000
0000
1001
0000
0000
0000
0000
0000
0000
0000
0000
0000
0000
0000
0000
0000
0000
0000
0000
0000
0000
0000
0000
0000
0000
0000
0000
0000
0000
0000
0000
0000
0000
0000
0000
0000
0000
0000
0000
0000
0000
0000
0000
0000
0000
0000
0000
0000
0000
0000
0000
0000
0000
0000
0000
0000
0000
0000
0000
0000
0000
0000
0000
0000
0000
0000
0000
0000
0000
0000
0000
0000
0000
0000
0000
0000
0000
0000
0000
0000
0000
;

//---------------dance-single - ----------------
#NOTES:
     dance-single:
     :
     Beginner:
     3:
     0.156998,0.221817,0.129292,0.053872,0.000000,102.000000,90.000000,12.000000,5.000000,0.000000,0.000000,0.156998,0.221817,0.129292,0.053872,0.000000,102.000000,90.000000,12.000000,5.000000,0.000000,0.000000:
0000
0000
0000
0000
,
0000
0000
0000
0000
,
1000
0000
0001
0000
,
0100
0100
0100
0000
,
0010
0000
1000
0000
,
0010
0000
0001
0000
,
0010
0010
0010
0000
,
1001
0000
0000
0000
,
2000
0000
3000
0000
,
0002
0000
0003
0000
,
0100
0000
0010
0000
,
0110
0000
1000
0000
,
0100
0000
0001
0000
,
0100
0000
1000
0000
,
0001
0001
0001
0000
,
1001
0000
0000
0000
,
0002
0000
0003
0000
,
2000
0000
3000
0000
,
0100
0000
0010
0000
,
0110
0000
0001
0000
,
1001
0000
0110
0000
,
0001
0000
1000
0000
,
0100
0000
0001
0000
,
0100
0000
1000
0000
,
0100
0100
0100
0000
,
0110
0000
0001
0000
,
0010
0000
0100
0000
,
1000
0000
0001
0000
,
0100
0000
0010
0000
,
1001
0000
0000
0000
,
0110
0000
0000
0000
,
1000
1000
1000
0000
,
0001
0001
0001
0000
,
0010
0000
1000
0000
,
0010
0010
0010
0000
,
0100
0000
0001
0000
,
0100
0100
0100
0000
,
1000
0000
0001
0000
,
0010
0010
0010
0000
,
0001
0000
1000
0000
,
0010
0000
0100
0000
,
0010
0010
0010
0000
,
1000
0000
0001
0000
,
1001
0000
0110
0000
,
1001
0000
0001
0001
,
0002
0000
0000
0003
;

//---------------dance-double - ----------------
#NOTES:
     dance-double:
     :
     Hard:
     12:
     0.472532,0.540306,0.215487,0.053872,0.307069,307.000000,287.000000,20.000000,5.000000,0.000000,0.000000,0.472532,0.540306,0.215487,0.053872,0.307069,307.000000,287.000000,20.000000,5.000000,0.000000,0.000000:
00000000
00000000
00000000
00000000
,
00000000
00000000
00000000
00000000
,
00011000
00000000
00010010
00000000
,
00000101
00000000
00010100
00000000
01001000
00000000
10000000
01000000
,
00100000
00001000
00010000
00001000
00000100
00000000
00000001
00000010
,
00000100
00010000
00001000
00010000
01000000
00000000
10000000
00100000
,
00010000
00000000
00001000
00000000
00010000
00000000
00000010
00000000
00000100
00000000
00000000
00000100
00000000
00000000
00000001
00000000
,
00002000
00000000
00000001
00000000
00003001
00000000
00000001
00000010
,
00000100
00000000
00000000
00000100
00010000
00000000
00000000
00010000
00001000
00000000
00000000
00001000
00100000
00000000
00000000
00100000
,
10000000
00000000
00000000
10000000
00010000
00000000
00000000
00010000
10000000
00000000
00000000
10000000
01000000
00000000
00000000
01000000
,
00100000
00000000
00000000
00100000
00001000
00000000
00000000
00001000
00010000
00000000
00000000
00001000
00000000
00000000
00011000
00000000
,
00000000
00000000
00010000
00000000
00001000
00000100
00000001
00000010
,
00000100
00010000
00001000
00010000
01000000
00000000
10000000
00100000
,
01000000
00001000
00010000
00001000
00000100
00000000
00000001
00000010
,
00001000
00000000
00010000
00000000
00001000
00000000
00100000
00000000
01000000
00000000
00000000
01000000
00000000
00000000
10000000
00000000
,
00020000
00000000
10000000
00000000
10030000
00000000
10000000
00100000
,
01000000
00000000
00000000
01000000
00001000
00000000
00000000
00001000
00010000
00000000
00000000
00010000
00000010
00000000
00000000
00000010
,
00000001
00000000
00000000
00000001
00001000
00000000
00000000
00001000
00000001
00000000
00000000
00000001
00000100
00000000
00000000
00000100
,
00000010
00000000
00000000
00000010
00010000
00000000
00000000
00010000
00001000
00000000
00000000
00010000
00000000
00000000
00011000
00000000
,
00000000
00000000
00001000
00000000
00010000
01000000
10000000
00100000
,
10000000
00100000
10000000
00000000
01001000
00000000
00000000
00000000
00001000
00010000
00001000
00000000
00000101
00000000
00000000
00000000
,
00000001
00000010
00000001
00000000
00010100
00000000
00000000
00000000
00010000
00001000
00010000
00000000
11000000
00000000
00000000
00000000
,
10000000
00100000
00010000
00001000
00000100
00000000
00000001
00001000
,
00000001
00000010
00001000
00010000
01000000
00000000
10000000
00100000
,
01000000
00000000
00001000
00000000
01000000
00000000
00100000
00000000
01000000
00000000
00000000
01000000
00000000
00000000
00001000
00010000
,
00002000
00000000
00000000
00000000
00003000
00000000
00010000
01000000
,
10000000
00000000
00000000
10000000
00100000
00000000
00000000
00100000
01000000
00000000
00000000
01000000
00001000
00000000
00000000
00001000
,
00010000
00000000
00000000
00010000
00000100
00000000
00000000
00000100
00000010
00000000
00000000
00000010
00000001
00000000
00000000
00000001
,
00001000
00000000
00000000
00001000
00000010
00000000
00000000
00000010
00010000
00000000
00000010
00000000
00010000
00000000
00000010
00000000
,
00020000
00000000
00000000
00000000
00030000
00000000
00001000
00000100
,
00000002
00000000
00000000
00000000
00000003
00000000
00001000
00000001
,
00000011
00000000
00000000
00000000
00000100
00000000
00010000
00000000
00001000
01000000
00001000
01000000
00100000
00000000
00000000
00000000
,
10100000
00000000
00000000
00000000
01000000
00000000
00001000
00000000
00010000
00000100
00010000
00000100
00000010
00000000
00000001
00000100
,
00000010
00000000
00010000
00001000
00100000
00010000
00001000
00000100
,
00000001
00000100
00001000
00000100
00000010
00000001
00000100
00001000
,
00010000
00000000
00001000
00010000
00000010
00000100
00001000
00010000
,
01000000
00000000
10000000
00000000
01000000
00000000
00010000
00000000
01000000
00000000
00000000
00000000
00100000
00000000
00000000
00100000
,
10000000
00000000
00000000
10000000
00010000
00000000
00000000
00010000
10000000
00000000
00000000
10000000
01000000
00000000
00000000
01000000
,
00100000
00001000
00100000
00001000
00101000
00000000
00000000
00000000
,
00001000
00001000
00001000
00000100
00000001
00000001
00000001
00000000
,
00000001
00000000
00000000
00000001
00001000
00000000
00000000
00001000
00000001
00000000
00000000
00000001
00000100
00000000
00000000
00000100
,
00000010
00010000
00000010
00010000
00010010
00000000
00000000
00000000
,
00010000
00010000
00010000
01000000
10000000
10000000
10000000
00000000
,
10100000
00000000
00000000
01000000
01001000
00000000
00000000
00001000
,
00011000
00000000
00000000
00010000
00000100
00000010
00000100
00000010
,
00000110
00000000
00000000
00000000
00000000
00000000
00000000
00000000
00000000
00000000
00000000
00000000
00000000
00000000
00000000
00000000
00000000
00000000
00000000
00000000
00000000
00000000
00000000
00000000
00000000
00000000
00000000
00000000
00000000
00000000
00000000
00000000
00000000
00000000
00000000
00000000
00000000
00000000
00000000
00000000
00000000
00000000
00000000
00000000
00000000
00000000
00000000
00000000
00000000
00000000
00000000
00000000
00000000
00000000
00000000
00000000
00000000
00001001
00000000
00000000
00000000
00000000
00000000
00000000
00000000
00000000
00000000
00000000
00000000
00000000
00000000
00000000
00000000
00000000
00000000
00000000
00000000
00000000
00000000
00000000
00000000
00000000
00000000
00000000
00000000
00000000
00000000
00000000
00000000
00000000
00000000
00000000
00000000
00000000
00000000
00000000
00000000
00000000
00000000
00000000
00000001
00000000
00000000
00000000
00000000
00000000
00000000
00000000
00000000
00000000
00000000
00000000
00000000
00001000
00000000
00000000
00000000
00000000
00000000
00000000
00000000
00000000
00000000
00000000
00000000
00000000
00000000
00000000
00000000
00000000
00000000
00000000
00000000
00000000
00000000
00000000
00000000
00000000
00000000
00000000
00000000
00000000
00000000
00000000
00000000
00000000
00000000
00000000
00000000
00000000
00000000
00000000
00000000
00000000
00000000
00000000
00000000
00000000
00000000
00000000
00000000
00000000
00000000
00000000
00000000
00000000
00000000
00000000
00000000
00000000
00000000
00000000
00000000
00000000
00000000
00000000
00000000
00000000
00000000
00000000
00000000
00000000
00000000
00000000
00000000
00000000
00000000
00000000
00000000
00000000
00000000
00000000
;

//---------------dance-double - ----------------
#NOTES:
     dance-double:
     :
     Medium:
     8:
     0.343240,0.466628,0.366328,0.107744,0.026936,223.000000,189.000000,34.000000,10.000000,0.000000,0.000000,0.343240,0.466628,0.366328,0.107744,0.026936,223.000000,189.000000,34.000000,10.000000,0.000000,0.000000:
00000000
00000000
00000000
00000000
,
00000000
00000000
00000000
00000000
,
00001001
00000000
00000011
00000000
,
00001100
00000000
00011000
00000000
01010000
00000000
10000000
01000000
,
00100000
00000000
00001000
00000000
00010000
00000000
00001000
00000100
,
00000001
00000010
00000001
00001000
,
00000010
00010000
00000010
00010000
00001000
00000000
00100000
01000000
,
10000000
00010000
10000000
00100000
,
20000000
00000000
32000000
00000000
,
03020000
00000000
00032000
00000000
,
00003200
00000000
00000000
00000000
00000000
00000000
00000000
00000000
00000301
00000000
00000000
00001000
00000000
00000000
00001001
00000000
,
00000000
00000000
00000001
00000000
00000100
00000000
00000001
00000010
,
00000100
00000000
00010000
00000000
00001000
00000000
00010000
01000000
,
10000000
00100000
10000000
00010000
,
00100000
00001000
00100000
00001000
00010000
00000000
00000010
00000100
,
00000001
00001000
00000001
00000010
,
00000002
00000000
00000203
00000000
,
00002300
00000000
00023000
00000000
,
02030000
00000000
00000000
00000000
00000000
00000000
00000000
00000000
13000000
00000000
00000000
00010000
00000000
00000000
10010000
00000000
,
00000000
10000000
01000000
10000000
,
00100000
00100000
10100000
00000000
01000000
01000000
01010000
00000000
,
00100000
00100000
00101000
00000000
00001000
00001000
00011000
00000000
,
00001000
00000000
00000100
00000000
00000001
00000000
00000010
00000100
,
00010000
00001000
01000000
00100000
,
10000000
01000000
00100000
00010000
01000000
00000000
00100000
00010000
,
00001000
00010000
00000100
00000010
,
00000011
00000000
00001100
00000000
,
00010010
00000000
00011000
00000000
,
01001000
00000000
00010000
10000000
,
00010000
00000000
00100000
01000000
10000000
00000000
00100000
00000000
,
00010000
00000000
00001000
00000100
00000001
00000000
00000010
00000000
,
00000011
00000000
00000010
00000100
00010000
00001000
00011000
00000000
,
11000000
00000000
00000000
00000000
10000000
00000000
00100000
00000000
01000000
00000000
00001000
00000000
00011000
00000000
00010000
00001000
,
00010000
00000000
00001000
00000100
00000001
00000000
00000010
00000000
,
00010100
00000000
00011000
00000000
01001000
00000000
00001000
01000000
,
00100000
00000000
10000000
00100000
10000000
00000000
01000000
00000000
,
00101000
00011000
00010010
00000010
,
00000100
00001000
00000100
00000001
,
00000010
00000001
00000010
00000001
00001000
00000000
00000000
00000000
,
00000100
00001000
00010000
01000000
,
10000000
01000000
00010000
01000000
,
00100000
10000000
00100000
10000000
00010000
00000000
00000000
00000000
,
01000000
00010000
00001000
00000100
,
00000011
00010000
00010010
00001000
,
00011000
00010000
11000000
01010000
,
11000000
00000000
00000000
00000000
00000000
00000000
00000000
00000000
00000000
00000000
00000000
00000000
00000000
00000000
00000000
00000000
00000000
00000000
00000000
00000000
00000000
00000000
00000000
00000000
00000000
00000000
00000000
00000000
00000000
00000000
00000000
00000000
00000000
00000000
00000000
00000000
00000000
00000000
00000000
00000000
00000000
00000000
00000000
00000000
00000000
00000000
00000000
00000000
00000000
00000000
00000000
00000000
00000000
00000000
00000000
00000000
00000000
10010000
00000000
00000000
00000000
00000000
00000000
00000000
00000000
00000000
00000000
00000000
00000000
00000000
00000000
00000000
00000000
00000000
00000000
00000000
00000000
00000000
00000000
00000000
00000000
00000000
00000000
00000000
00000000
00000000
00000000
00000000
00000000
00000000
00000000
00000000
00000000
00000000
00000000
00000000
00000000
00000000
00000000
00000000
00000000
00000000
00000000
00000000
00000000
00000000
00000000
00000000
00000000
00000000
00000000
00000000
00000000
01100000
00000000
00000000
00000000
00000000
00000000
00000000
00000000
00000000
00000000
00000000
00000000
00000000
00000000
00000000
00000000
00000000
00000000
00000000
00000000
00000000
00000000
00000000
00000000
00000000
00000000
00000000
00000000
00000000
00000000
00000000
00000000
00000000
00000000
00000000
00000000
00000000
00000000
00000000
00000000
00000000
00000000
00000000
00000000
00000000
00000000
00000000
00000000
00000000
00000000
00000000
00000000
00000000
00000000
00000000
00000000
00000000
00000000
00000000
00000000
00000000
00000000
00000000
00000000
00000000
00000000
00000000
00000000
00000000
00000000
00000000
00000000
00000000
00000000
00000000
00000000
00000000
00000000
00000000
;

//---------------dance-double - ----------------
#NOTES:
     dance-double:
     :
     Easy:
     4:
     0.229340,0.270153,0.161615,0.064646,0.005387,149.000000,134.000000,15.000000,6.000000,0.000000,0.000000,0.229340,0.270153,0.161615,0.064646,0.005387,149.000000,134.000000,15.000000,6.000000,0.000000,0.000000:
00000000
00000000
00000000
00000000
,
00000000
00000000
00000000
00000000
,
00001001
00000000
00000011
00000000
,
00000100
00010000
00001000
01000000
,
00100000
00000000
00010000
00001000
,
00000100
00000000
00000010
00010000
,
00001000
00010000
00000100
00000010
,
00000100
00000000
00000010
00000001
,
00000020
00000000
00000130
00000000
,
00020000
00000000
00031000
00000000
,
02000000
00000000
03100000
00000000
,
10100000
00000000
10000000
01000000
,
00100000
00000000
00001000
00010000
,
00000100
00000000
00000010
00000001
,
00000100
00000010
00010000
00001000
,
00010000
00000000
01000000
10000000
,
00200000
00000000
01300000
00000000
,
00002000
00000000
00013000
00000000
,
00000200
00000000
00000310
00000000
,
00000011
00000000
00000001
00001000
,
00000001
00000000
00000010
00000000
00000100
00010000
00001000
00000000
,
01000000
00000000
00100000
00000000
00010000
00001000
00010000
00000000
,
00000100
00000000
00000010
00000001
,
00001000
00000000
00000001
00000100
,
00000010
00010000
00001000
00010000
,
01000000
00000000
10000000
00100000
,
10100000
00000000
01010000
00000000
,
00101000
00000000
00011000
00000000
,
00010100
00000000
00000110
00000000
,
00001001
00000000
00000001
00000100
,
00000010
00000000
00010000
00001000
,
00010000
00000000
00001000
00000000
01000000
00100000
01000000
00000000
,
00001000
00000000
00010000
00000000
00000100
00000010
00000100
00000000
,
00000010
00000001
00001000
00000001
,
00000100
00000010
00010000
00001000
,
00010000
01000000
10000000
00010000
,
10000000
00100000
10000000
00000000
,
00010000
00000000
00010000
00000000
,
10000000
01000000
00100000
00000000
,
00001000
00010000
00001000
00000100
,
00000001
00000000
00000001
00000000
,
00001000
00000100
00000010
00000000
,
00000001
00001000
00000001
00000000
,
00000011
00000000
00010100
00000000
,
00011000
00000000
01000000
00100000
,
10000000
00000000
00000000
00000000
00000000
00000000
00000000
00000000
00000000
00000000
00000000
00000000
00000000
00000000
00000000
00000000
00000000
00000000
00000000
00000000
00000000
00000000
00000000
00000000
00000000
00000000
00000000
00000000
00000000
00000000
00000000
00000000
00000000
00000000
00000000
00000000
00000000
00000000
00000000
00000000
00000000
00000000
00000000
00000000
00000000
00000000
00000000
00000000
00000000
00000000
00000000
00000000
00000000
00000000
00000000
00000000
00000000
00000000
00000000
00000000
00000000
00000000
00000000
00000000
00000000
00000000
00000000
00000000
00000000
00000000
00000000
00000000
00000000
00000000
00000000
00000000
00000000
00000000
00000000
00000000
00000000
00000000
00000000
00000000
00000000
00000000
00000000
00000000
00000000
00000000
00000000
00000000
00000000
00000000
00000000
00000000
00000000
00000000
00000000
00000000
00000000
00000000
00000000
00000000
00000000
00000000
00000000
00000000
00000000
00000000
00000000
00000000
00000000
10010000
00000000
00000000
00000000
00000000
00000000
00000000
00000000
00000000
00000000
00000000
00000000
00000000
00000000
00000000
00000000
00000000
00000000
00000000
00000000
00000000
00000000
00000000
00000000
00000000
00000000
00000000
00000000
00000000
00000000
00000000
00000000
00000000
00000000
00000000
00000000
00000000
00000000
00000000
00000000
00000000
00000000
00000000
00000000
00000000
00000000
00000000
00000000
00000000
00000000
00000000
00000000
00000000
00000000
00000000
00000000
00000000
00000000
00000000
00000000
00000000
00000000
00000000
00000000
00000000
00000000
00000000
00000000
00000000
00000000
00000000
00000000
00000000
00000000
00000000
00000000
00000000
00000000
00000000
;

//---------------dance-double - ----------------
#NOTES:
     dance-double:
     :
     Challenge:
     15:
     0.717264,1.006933,0.484846,0.032323,0.603364,466.000000,421.000000,45.000000,3.000000,0.000000,0.000000,0.717264,1.006933,0.484846,0.032323,0.603364,466.000000,421.000000,45.000000,3.000000,0.000000,0.000000:
// measure 0
00000000
00000000
00000000
00000000
,  // measure 1
00000000
00000000
00000000
00000000
00000000
00000000
00000100
00000010
,  // measure 2
00001001
00000000
00001000
00000001
00000011
00000100
00010000
00001000
,  // measure 3
00011000
00000000
00010000
00000000
01010000
00000000
01000000
00000000
11000000
00000000
00000000
00000000
10000000
00100000
10000000
00100000
,  // measure 4
01000000
00000000
10000000
00000000
01000000
00010000
10000000
00000000
01000000
00000000
00100000
00000000
00001000
00010000
00001000
00010000
,  // measure 5
00001000
00000000
00000100
00000000
00000001
00000010
00000100
00000000
00001000
00000000
00000001
00000000
00000100
00000010
00000100
00000010
,  // measure 6
00010000
00000000
00001000
00000000
00010000
00000000
01000000
00000000
20000000
00000000
00000000
30100000
00000000
00000000
01000000
00010000
,  // measure 7
10000000
01000000
00010000
01000000
10000000
01000000
00100000
00001000
,  // measure 8
00011000
00000000
00000000
00001000
00000100
00000000
00000001
00000000
00000101
00000000
00000000
00000100
00000010
00000000
00010000
00000000
,  // measure 9
00011000
00000000
00000000
00010000
01000000
00000000
10000000
00000000
11000000
00000000
00000000
01000000
00100000
00000000
00001000
00000000
,  // measure 10
00011000
00000000
00000000
00001000
00000100
00000000
00000001
00000000
00000101
00000000
00000000
00001100
00000000
00000000
00001001
00000000
,  // measure 11
00000000
00000000
00000000
00001000
00000001
00000000
00000100
00000000
00000010
00001000
00000000
00000000
00000001
00000010
00000001
00000010
,  // measure 12
00000100
00000000
00000001
00000000
00000100
00001000
00000001
00000000
00000100
00000000
00000010
00000000
00010000
00001000
00010000
00001000
,  // measure 13
00010000
00000000
01000000
00000000
10000000
00100000
01000000
00000000
00010000
00000000
10000000
00000000
01000000
00100000
01000000
00100000
,  // measure 14
00001000
00000000
00010000
00000000
00001000
00000000
00000100
00000000
00000002
00000000
00000000
00000013
00000000
00000000
00000100
00001000
,  // measure 15
00000001
00000100
00001000
00000100
00000001
00000100
00000010
00010000
,  // measure 16
00011000
00000000
00000000
00010000
01000000
00000000
10000000
00000000
11000000
00000000
00000000
01000000
00100000
00000000
00001000
00000000
,  // measure 17
00011000
00000000
00000000
00001000
00000100
00000000
00000001
00000000
00000101
00000000
00000000
00000100
00000010
00000000
00010000
00000000
,  // measure 18
00011000
00000000
00000000
00010000
01000000
00000000
10000000
00000000
11000000
00000000
00000000
01010000
00000000
00000000
10010000
00000000
,  // measure 19
00000000
00000000
00000000
00010000
10000000
00000000
00100000
00000000
01000000
00010000
00000000
00000000
10000000
00000000
10000000
00000000
,  // measure 20
00010000
00000000
00010000
00000000
10000000
00100000
10000000
00100000
01000000
00000000
00000000
00000000
00001000
00000000
00001000
00000000
00010000
00000000
00010000
00000000
00001000
00000100
00001000
00000100
00000001
00000000
00000000
00000000
00000001
00000000
00000001
00000000
,  // measure 21
00001000
00000000
00001000
00000000
00000001
00000010
00000001
00000010
00000100
00000000
00000000
00000000
00010000
00000000
00010000
00000000
00001000
00000000
00001000
00000000
00010000
01000000
00010000
01000000
20000000
00000000
00000000
00000000
00000000
00000000
00000000
30000000
,  // measure 22
00100000
00000000
00010000
00000000
00100000
01000000
00001000
00000000
00010000
00000000
00000100
00000000
00000010
00000001
00000010
00000001
,  // measure 23
00000010
00000000
00001000
00000000
00000010
00000100
00010000
00000000
00001000
00000000
01000000
00000000
00100000
10000000
00100000
10000000
,  // measure 24
01000000
00100000
00001000
00010000
00000010
00000100
00000001
00001000
00000100
00000000
00000000
00000100
00000000
00000000
00000010
00000001
,  // measure 25
00001000
00000001
00000010
00000100
00010000
00001000
00010000
01000000
,  // measure 26
11000000
00000000
00000000
00100000
00001000
00000000
00010000
00000000
00011000
00000000
00000000
00001000
00000100
00000000
00000001
00000000
,  // measure 27
00000101
00000000
00000000
00000010
00010000
00000000
00001000
00000000
00011000
00000000
00000000
00010000
01000000
00000000
10000000
00000000
,  // measure 28
11000000
00000000
00000000
00100000
00001000
00000000
00010000
00000000
00001000
00000000
00000000
00000000
00010000
00001000
00010000
00001000
,  // measure 29
00000100
00000000
00000001
00000000
00000100
00000000
00001000
00000000
00000100
00000010
00000000
00000000
00010000
00001000
00010000
00001000
,  // measure 30
00010000
00000000
01000000
00000000
10000000
00000000
01000000
00000000
00100000
00000000
00100000
00000000
00010000
10000000
00010000
10000000
,  // measure 31
10010000
00000000
10000000
00100000
10100000
01000000
00001000
00010000
00011000
00001000
00001100
00000100
00000101
00000001
00001000
00000001
,  // measure 32
00001001
00000000
00000001
00000010
00000011
00000100
00010000
00001000
00011000
00010000
01010000
01000000
11000000
00000000
10000000
00010000
,  // measure 33
10000000
00000000
00100000
00000000
00010000
00000000
00100000
00000000
01000000
00001000
01000000
00000000
00001000
00000000
00010000
00000000
,  // measure 34
00000100
00010000
00000100
00000000
00000010
00000100
00000010
00000000
00000001
00000000
00001000
00000000
00000100
00000000
00000010
00000000
,  // measure 35
00000001
00000000
00000010
00000000
00001000
00000000
00000010
00000000
00000100
00010000
00000100
00000000
00010000
00000000
00001000
00000000
,  // measure 36
01000000
00001000
01000000
00000000
00100000
01000000
00100000
00000000
10000000
00000000
00010000
00000000
00100000
00000000
01000000
00000000
,  // measure 37
10000000
01000000
00010000
01000000
10000000
00100000
00010000
00100000
,  // measure 38
10000000
00100000
10000000
00100000
01000000
00001000
01000000
00001000
00010000
00000000
00000000
00000000
00000100
00000000
00000010
00000000
,  // measure 39
00000001
00000001
00001000
00001000
00000010
00000100
00000001
00001000
,  // measure 40
00000100
00000001
00000100
00001000
00000010
00000001
00000010
00001000
,  // measure 41
00000001
00000010
00000001
00000010
00000100
00010000
00000100
00010000
00001000
00000000
00000000
00000000
01000000
00000000
00100000
00000000
,  // measure 42
10000000
10000000
00010000
00010000
00100000
01000000
10000000
00010000
,  // measure 43
10010000
00000000
10000000
00100000
10000000
00000000
10100000
00000000
01001000
00000000
00001000
00010000
00001000
00000000
00011000
00000000
,  // measure 44
00010100
00000000
00000010
00000001
00000010
00000000
00000001
00000000
00000011
00000000
00000010
00000000
00001010
00000000
00000010
00000000
,  // measure 45
00000011
00000000
00000000
00000000
00000000
00000000
00000000
00000000
00000000
00000000
00000000
00000000
00000000
00000000
00000000
00000000
00000000
00000000
00000000
00000000
00000000
00000000
00000000
00000000
00000000
00000000
00000000
00000000
00000000
00000000
00000000
00000000
00000000
00000000
00000000
00000000
00000000
00000000
00000000
00000000
00000000
00000000
00000000
00000000
00000000
00000000
00000000
00000000
00000000
00000000
00000000
00000000
00000000
00000000
00000000
00000000
00000000
00001001
00000000
00000000
00000000
00000000
00000000
00000000
00000000
00000000
00000000
00000000
00000000
00000000
00000000
00000000
00000000
00000000
00000000
00000000
00000000
00000000
00000000
00000000
00000000
00000000
00000000
00000000
00000000
00000000
00000000
00000000
00000000
00000000
00000000
00000000
00000000
00000000
00000000
00000000
00000000
00000000
00000000
00000000
00000001
00000000
00000000
00000000
00000000
00000000
00000000
00000000
00000000
00000000
00000000
00000000
00000000
00001000
00000000
00000000
00000000
00000000
00000000
00000000
00000000
00000000
00000000
00000000
00000000
00000000
00000000
00000000
00000000
00000000
00000000
00000000
00000000
00000000
00000000
00000000
00000000
00000000
00000000
00000000
00000000
00000000
00000000
00000000
00000000
00000000
00000000
00000000
00000000
00000000
00000000
00000000
00000000
00000000
00000000
00000000
00000000
00000000
00000000
00000000
00000000
00000000
00000000
00000000
00000000
00000000
00000000
00000000
00000000
00000000
00000000
00000000
00000000
00000000
00000000
00000000
00000000
00000000
00000000
00000000
00000000
00000000
00000000
00000000
00000000
00000000
00000000
00000000
00000000
00000000
00000000
00000000
;
