#VERSION:0.83;
#TITLE:macaron moon;
#SUBTITLE:;
#ARTIST:YUC'e;
#TITLETRANSLIT:;
#SUBTITLETRANSLIT:;
#ARTISTTRANSLIT:;
#GENRE:;
#CREDIT:;
#MUSIC:macaron moon.ogg;
#BANNER:macaron moon.png;
#BACKGROUND:macaron moon-bg.png;
#CDTITLE:;
#SAMPLESTART:33.900;
#SAMPLELENGTH:15.000;
#SELECTABLE:YES;
#OFFSET:1.400;
#BPMS:0.000=170.000;
#STOPS:;
#BGCHANGES:;
#FGCHANGES:;

//--------------- dance-single - Talkion ----------------
#NOTEDATA:;
#STEPSTYPE:dance-single;
#DESCRIPTION:Talkion;
#DIFFICULTY:Beginner;
#METER:5;
#RADARVALUES:0,0,0,0,0;
#NOTES:
0000
0000
0000
0000
,
0000
0000
0000
0000
,
0000
0000
0000
0000
,
0000
0000
0000
0000
,
0000
0000
0000
0000
,
0000
0000
0000
0000
,
0000
0000
0000
0000
,
0000
0000
0000
0000
,
0000
0000
0000
0000
,
1000
0000
1000
0000
,
0001
0000
0001
0000
,
1000
0000
1000
0000
,
0001
0000
0001
0000
,
0100
0000
1000
0000
,
0100
0000
0001
0000
,
0100
0000
1000
0000
,
0100
0000
0000
0000
,
1001
0000
0000
0220
,
0000
0330
0110
0000
,
1001
0000
0000
0220
,
0000
0330
0110
0000
,
1000
0000
0001
0000
,
1000
0000
0001
0000
,
1000
0001
1000
0001
,
0000
0000
0000
0000
,
1000
0000
0010
0000
,
0001
0000
0010
0000
,
1000
0000
0100
0000
,
1000
1000
0001
0100
,
0010
0000
0100
0000
,
0001
0000
0100
0000
,
0110
0000
0110
0000
,
1000
0010
0100
0001
,
1000
0000
0100
0000
,
0001
0000
0100
0000
,
1000
0000
0010
0000
,
1000
1000
0001
0010
,
0100
0000
0000
0000
0000
0000
0000
0000
0000
0000
0000
0110
,
0000
0000
1000
0001
,
0100
0000
0100
0000
,
0010
0100
0001
1000
,
0010
0000
1001
0000
,
0010
0000
1001
0000
,
0100
0000
1001
0000
,
0100
0000
1001
0000
,
0001
0000
0110
0000
,
0001
0000
0110
0000
,
1000
0000
0110
0000
,
1001
0000
0110
0000
,
0001
0000
0010
0000
,
1000
0000
0010
0000
,
0001
0000
0010
0000
,
1000
0000
0010
0000
,
0001
0000
1000
0000
,
0001
0000
1000
0000
,
0001
1000
0001
1000
,
0000
0000
0000
0000
,
1001
0000
0000
0220
,
0000
0330
0110
0000
,
1001
0000
0000
0220
,
0000
0330
0110
0000
,
0001
0000
1000
0000
,
0001
0000
1000
0000
,
0001
1000
0001
1000
,
0000
0000
0000
0000
,
0001
0000
0100
0000
,
1000
0000
0100
0000
,
0001
0000
0010
0000
,
0001
0001
1000
0010
,
0100
0000
0010
0000
,
1000
0000
0010
0000
,
0110
0000
0110
0000
,
0001
0100
0010
1000
,
0001
0000
0010
0000
,
1000
0000
0010
0000
,
0001
0000
0100
0000
,
0001
0001
1000
0100
,
0010
0000
0000
0000
0000
0000
0000
0000
0000
0000
0000
0110
,
0000
0000
0001
1000
,
0010
0000
0010
0000
,
0100
0010
1000
0001
,
0100
0000
0100
0000
,
0100
0000
0010
0000
,
1000
0000
1000
0000
,
1000
0000
0001
0000
,
0010
0000
0010
0000
,
0010
0000
0100
0000
,
1000
0000
1000
0000
,
0001
0100
0010
1000
;

//--------------- dance-single - Talkion ----------------
#NOTEDATA:;
#STEPSTYPE:dance-single;
#DESCRIPTION:Talkion;
#DIFFICULTY:Easy;
#METER:9;
#RADARVALUES:0,0,0,0,0;
#NOTES:
0000
0000
0000
0000
,
0000
0000
0000
0000
,
0000
0000
0000
0000
,
0000
0000
0000
0000
,
0000
0000
0000
0000
,
0000
0000
0000
0000
,
0000
0000
0000
0000
,
0000
0000
0000
0000
,
0000
0000
0000
0000
,
0001
0000
0001
0000
,
1000
0000
1000
0100
,
0010
0000
0010
0000
,
0001
0010
0100
1000
,
0001
0100
0010
0100
,
1000
0100
0010
0100
,
0001
0100
0010
1000
,
0001
0000
0000
1001
,
2200
0000
3300
0202
,
0300
1003
1200
0310
,
0022
0000
0033
2020
,
0000
0030
3002
0013
,
1100
0000
1100
0000
,
0101
0000
0101
0000
,
1100
0101
1100
0101
,
0000
0000
0000
0000
,
2001
3100
0001
1000
,
0010
0100
1000
0001
,
0021
0130
1200
0310
,
0011
1100
0011
1100
,
1002
0103
1000
0001
,
0010
0100
0001
1000
,
1020
0130
0201
0310
,
1010
0101
1010
0101
,
2000
3200
0302
0013
,
1000
0020
0031
1000
,
1200
0310
0201
0310
,
1010
0101
1010
0101
,
0000
0000
0000
0000
0000
0000
0000
0000
0000
1000
0000
1002
,
0000
0000
0023
0230
,
1300
0010
0021
0130
,
1001
0110
0001
0100
,
0010
0000
1001
0000
,
0010
0000
1001
0000
,
0100
0000
1001
0000
,
0100
0000
1001
0000
,
0001
0010
1000
0000
,
1000
0100
0001
0000
,
0001
0010
1000
0100
,
0110
0000
1001
0000
,
0001
0010
0100
0010
,
1000
0010
0100
0010
,
0001
0010
0100
0010
,
1000
0010
0001
0000
,
1100
0000
1100
0000
,
0101
0000
0101
0000
,
1100
0101
1100
0101
,
0000
0000
0000
1001
,
0022
0000
0033
2020
,
0030
3001
0021
0130
,
2200
0000
3300
0202
,
0000
0300
2003
3100
,
0011
0000
0011
0000
,
1010
0000
1010
0000
,
0011
1010
0011
1010
,
0000
0000
0000
0000
,
1002
0013
1000
0001
,
0100
0010
0001
1000
,
1200
0310
0021
0130
,
1100
0011
1100
0011
,
2001
3010
0001
1000
,
0100
0010
1000
0001
,
0201
0310
1020
0130
,
0101
1010
0101
1010
,
0002
0023
2030
3100
,
0001
0200
1300
0001
,
0021
0130
1020
0130
,
0101
1010
0101
1010
,
0000
0000
0000
0000
0000
0000
0000
0000
0000
0001
0000
2001
,
0000
0000
3200
0320
,
0031
0100
1200
0310
,
1001
0110
1000
0010
,
0100
0001
0000
0001
,
0000
0001
0000
0001
,
0100
0010
0000
0010
,
0000
0010
0000
0010
,
0100
1000
0000
1000
,
0000
1000
0000
1000
,
0100
0010
0000
0010
,
0100
0001
1000
0100
;

//--------------- dance-single - Talkion ----------------
#NOTEDATA:;
#STEPSTYPE:dance-single;
#DESCRIPTION:Talkion;
#DIFFICULTY:Medium;
#METER:12;
#RADARVALUES:0,0,0,0,0;
#NOTES:
0000
0000
0000
0000
,
0000
0000
0000
0000
,
0000
0000
0000
0000
,
0000
0000
0000
0000
,
0000
0000
0000
0000
,
0000
0000
0000
0000
,
0000
0000
0000
0000
,
0000
0000
0000
0000
,
0000
0000
0000
0000
,
1000
0100
0001
0100
,
1000
0100
0001
1000
,
0010
0001
0100
0001
,
0020
0032
0203
0320
,
1030
0010
1000
0010
0000
0000
0100
0000
0000
0001
0000
0000
,
1000
0100
1000
0100
0000
0000
0010
0000
0000
0001
0000
0000
,
1000
0000
1000
0010
0000
0010
0001
0000
0001
0010
0000
0010
,
1000
0000
0000
1001
,
2100
0001
3010
0102
,
1000
0000
0000
0013
0000
0000
1001
0000
0000
2000
0000
3100
,
0020
0001
0130
1002
,
0100
0000
0000
1003
0000
0000
1200
0000
0000
0310
0000
0010
,
0001
1000
0011
1000
,
0101
1000
0101
1000
,
0110
1001
0110
1001
,
0000
0000
0000
0000
,
1200
0000
0000
0302
0000
0000
0013
0001
0010
0001
0000
0000
,
0020
0000
0000
1030
0010
0100
0001
0000
0000
1000
0000
0100
,
1000
0020
0031
0020
,
1030
0011
1010
0011
,
1020
0000
0000
0032
0000
0000
0103
0000
0000
0001
0100
0001
,
0100
0000
0000
1000
0100
1000
0001
0000
0000
0100
0000
0000
,
0201
0310
1200
0310
,
0101
1100
0201
0320
,
2030
0000
0000
3001
1000
0100
0010
0000
0000
2000
0000
0000
,
3010
0000
0000
0001
0010
0100
1000
0000
0000
0001
0000
0000
,
0100
0020
0031
0020
,
1030
0011
1010
0011
,
2000
0000
0000
0000
0000
0000
0000
0000
0000
3100
0000
1002
,
0000
0000
0203
0320
,
2030
3001
0021
0130
,
1001
0110
2001
3200
,
0310
0000
1001
0000
,
0010
0000
1001
0000
,
0100
0000
1001
0000
,
0100
0000
1001
0000
,
0002
0203
1300
0000
,
2100
3020
0031
0000
,
0012
0203
1300
0100
,
0002
2003
3200
2300
,
3001
0100
1000
0010
,
0001
0010
1000
0100
,
0001
0100
1000
0010
,
0001
1000
0010
0000
,
0100
0010
0100
0010
0000
0000
1000
0001
1000
0001
0000
0000
,
0010
0100
0010
0100
0000
0000
1000
0001
1000
0001
0000
0000
,
1100
0101
1100
0101
,
0000
0000
0000
1001
,
0012
1000
0103
2010
,
0001
0000
0000
3100
0000
0000
1001
0000
0000
0002
0000
0013
,
0200
1000
0310
2001
,
0010
0000
0000
3001
0000
0000
0021
0000
0000
0130
0000
0100
,
1000
0001
1100
0001
,
1010
0001
1010
0001
,
0110
1001
0110
1001
,
0000
0000
0000
0000
,
0021
0000
0000
2030
0000
0000
3100
1000
0100
1000
0000
0000
,
0200
0000
0000
0301
0100
0010
1000
0000
0000
0001
0000
0010
,
0001
0200
1300
0200
,
0301
1100
0101
1100
,
0201
0000
0000
2300
0000
0000
3010
0000
0000
1000
0010
1000
,
0010
0000
0000
0001
0010
0001
1000
0000
0000
0010
0000
0000
,
1020
0130
0021
0130
,
1010
0011
1020
0230
,
0302
0000
0000
1003
0001
0010
0100
0000
0000
0002
0000
0000
,
0103
0000
0000
1000
0100
0010
0001
0000
0000
1000
0000
0000
,
0010
0200
1300
0200
,
0301
1100
0101
1100
,
0002
0000
0000
0000
0000
0000
0000
0000
0000
0013
0000
2001
,
0000
0000
3020
0230
,
0302
1003
1200
0310
,
1001
0110
1002
0023
,
0130
1000
0100
1000
,
0001
0100
0001
0100
,
0010
1000
0010
1000
,
0002
0013
2000
3010
,
0100
1000
0100
1000
,
0001
0100
0001
0100
,
0010
1000
0010
1000
,
0001
0010
1000
0100
;

//--------------- dance-single - Talkion ----------------
#NOTEDATA:;
#STEPSTYPE:dance-single;
#DESCRIPTION:Talkion;
#DIFFICULTY:Hard;
#METER:14;
#RADARVALUES:0,0,0,0,0;
#NOTES:
0000
0000
0000
0000
,
0000
0000
0000
0000
,
0000
0000
0000
0000
,
0000
0000
0000
0000
,
0000
0000
0000
0000
,
0000
0000
0000
0000
,
0000
0000
0000
0000
,
0000
0000
0000
0000
,
0000
0000
0000
0000
,
0001
0000
0000
1000
0000
0001
0010
0000
1100
0000
0000
0001
,
0010
0000
1100
0000
0000
0001
0010
0000
0010
0100
0000
0100
,
1000
0000
0000
0001
0000
1000
0010
0000
0101
0000
0000
1000
,
0010
0000
0010
0100
0000
0100
0001
0000
0000
1001
0000
0000
,
1000
0000
1000
0100
0000
0100
0001
0000
0001
1000
0000
1000
,
0100
0000
0100
0001
0000
0001
1000
0000
1000
0010
0000
0010
,
0001
0000
0001
1000
0000
1000
0010
0000
0010
0001
0000
0001
,
1000
0010
0002
0103
,
2100
0001
3010
0102
,
1000
0000
0000
0013
0000
0000
1001
0000
0000
2000
0000
3100
,
0020
0001
0130
1002
,
0100
0000
0000
1003
0000
0000
1200
0000
0000
0310
0000
0010
,
0001
0000
0000
1000
0010
0100
0001
0000
0000
0001
0010
0100
,
1000
0000
0000
2000
0010
3000
0011
0000
0000
0010
1000
0100
,
0010
0011
1010
0011
,
0001
0010
1000
0100
,
0102
0000
0000
0013
0000
0010
0100
1000
0001
0010
0000
0010
,
0002
0000
0000
1003
0001
0100
0010
0000
0010
1000
0000
1000
,
0002
0000
0000
0013
0001
0100
0020
0000
0000
1030
0000
0001
,
0010
0000
0000
0010
0100
1000
0010
0100
0001
2000
0000
0000
,
3200
0000
0000
0301
0000
0100
0010
0001
0000
0010
0001
1000
,
0020
0000
1030
0010
0100
0001
2000
0000
3100
1000
0000
0001
,
0020
0000
0000
0031
0010
0100
2000
0000
0000
3001
1000
0010
,
0100
0101
1100
0101
,
0002
0000
0000
0013
1000
0010
0100
0000
0100
2000
0000
0000
,
3001
0000
0000
0100
0010
1000
0001
0000
0001
0010
0000
0010
,
0002
0000
0000
0103
0001
0010
0200
0000
0000
1300
0000
0001
,
0100
0000
0000
0100
0010
1000
0100
0010
0001
2000
0000
0000
,
3010
1000
0100
0010
0001
0100
0010
1000
0100
0010
0000
0012
,
0000
0000
2003
3020
,
0230
0000
0000
0301
0100
0010
1000
0000
0000
1000
0100
0010
,
0002
0000
0000
0023
0000
0000
1030
0010
0100
0001
0100
1000
,
0002
0000
0003
0000
0000
0000
1100
0000
0000
0000
0000
0000
,
0022
0000
0033
0000
0000
0000
1001
0000
0000
0000
0000
0000
,
2020
0000
3030
0000
0000
0000
1001
0000
0000
0000
0000
0000
,
0022
0000
0033
0000
0000
0000
2020
0000
3030
0000
0000
0000
,
0012
1000
0103
0000
,
1020
0130
1001
0000
,
2100
3001
0101
1000
,
2100
3001
0102
1003
,
0001
0000
0001
0010
0000
0010
1000
0000
1000
0001
0000
0001
,
0010
0000
0010
1000
0000
1000
0001
0000
0001
0100
0000
0100
,
1000
0000
1000
0001
0000
0001
0100
0000
0100
1000
0000
1000
,
0001
0000
0100
0010
0000
1000
0001
0000
0000
0110
0000
0000
,
1000
0100
1000
0100
0000
0001
0100
0001
0000
1100
0000
0000
,
1000
0010
1000
0010
0000
0001
0010
0001
0000
1010
0000
0000
,
1001
0110
1001
0110
,
0001
0100
2000
3010
,
0012
1000
0103
2010
,
0001
0000
0000
3100
0000
0000
1001
0000
0000
0002
0000
0013
,
0200
1000
0310
2001
,
0010
0000
0000
3001
0000
0000
0021
0000
0000
0130
0000
0100
,
1000
0000
0000
0001
0100
0010
1000
0000
0000
1000
0100
0010
,
0001
0000
0000
0002
0100
0003
1100
0000
0000
0100
0001
0010
,
0100
1100
0101
1100
,
1000
0100
0001
0010
,
2010
0000
0000
3100
0000
0100
0001
0100
0010
0001
0000
0001
,
2000
0000
0000
3010
1000
0010
0100
0000
0100
0001
0000
0001
,
2000
0000
0000
3100
1000
0010
0200
0000
0000
0301
0000
1000
,
0100
0000
0000
0100
0001
0100
1000
0100
0010
0002
0000
0000
,
0023
0000
0000
1030
0000
0010
0100
1000
0000
0100
1000
0001
,
0200
0000
0301
0100
0010
1000
0002
0000
0013
0001
0000
1000
,
0200
0000
0000
1300
0100
0010
2000
0000
0000
3010
1000
0010
,
0001
1001
0110
1001
,
2000
0000
0000
3100
0001
1000
0010
0000
0010
0002
0000
0000
,
1003
0000
0000
0010
0100
0001
1000
0000
1000
0100
0000
0100
,
2000
0000
0000
3010
1000
0100
0020
0000
0000
0031
0000
1000
,
0010
0000
0000
0010
0001
0010
1000
0010
0100
0002
0000
0000
,
0103
0001
0010
0100
1000
0010
0100
0001
0010
0100
0000
2100
,
0000
0000
3002
0203
,
0320
0000
0000
1030
0010
0100
0001
0000
0000
0001
0010
0100
,
2000
0000
0000
3200
0000
0000
0301
0100
0010
1000
0010
0001
,
1000
0000
0000
1000
0000
0001
0010
0000
0000
0010
0000
0000
,
0001
0000
1000
0100
0000
0000
1000
0000
0000
0001
0100
0010
,
1000
0000
0000
1000
0000
0001
0100
0000
0000
0100
0000
0000
,
0002
0013
2000
3010
,
0001
0000
0000
0001
0000
1000
0100
0000
0000
0100
0000
0000
,
1000
0000
0001
0010
0000
0000
0001
0000
0000
1000
0010
0100
,
0001
0000
0000
0001
0000
1000
0010
0000
0000
0010
0000
0000
,
0100
0000
0001
0020
0000
0000
0230
0000
0000
2000
0000
0000
,
3300
0000
0000
0000
;

//--------------- dance-single - Talkion ----------------
#NOTEDATA:;
#STEPSTYPE:dance-single;
#DESCRIPTION:Talkion;
#DIFFICULTY:Challenge;
#METER:16;
#RADARVALUES:0,0,0,0,0;
#NOTES:
0000
0000
0000
0000
,
0000
0000
0000
0000
,
0000
0000
0000
0000
,
0000
0000
0000
0000
,
0000
0000
0000
0000
,
0000
0000
0000
0000
,
0000
0000
0000
0000
,
0000
0000
0000
0000
,
0000
0000
0000
0000
,
1000
0000
0000
0001
0000
1000
0100
0000
0011
0000
0000
1000
,
0100
0000
0011
0000
0000
1000
0100
0000
0100
0010
0000
0010
,
0001
0000
0000
1000
0000
0001
0100
0000
1010
0000
0000
0001
,
0100
0000
0100
0010
0000
0010
1000
0000
0000
0001
1000
1000
,
0200
0310
0001
1000
0010
1000
0001
0010
0001
1000
0010
1000
,
0002
0103
0010
1000
0001
0100
0001
1000
0100
1000
0001
0100
,
0001
1000
0100
0010
0001
0100
0010
1000
0100
0010
0002
1003
,
0100
0000
0000
0000
0000
0000
0000
0000
0000
0000
0000
0000
0000
0000
0000
0000
0010
0100
0010
0000
0000
0000
0000
0000
,
0011
0000
0000
0001
1000
0010
0100
0001
1000
1200
0000
0000
,
0000
0000
0000
0310
0000
0000
1001
0000
0000
0002
0000
0103
,
0101
0000
0000
0001
1000
0100
1000
0001
0100
0210
0000
0000
,
0000
0000
0000
1300
0000
0000
0210
0000
0000
0301
0000
1000
,
1100
0000
0000
0001
0100
0010
1010
0000
0000
1000
0100
0010
,
0011
0000
0000
0002
0100
0003
1100
0000
0000
1000
0100
0010
,
0011
1010
0011
1010
,
0000
0000
0000
0000
,
1002
0000
0000
0103
0000
0001
0100
0100
1000
0001
0000
0010
,
0001
0000
0000
0000
0001
0000
1000
0010
1000
0000
0010
0000
0100
0000
0000
0000
0001
0000
1001
0000
0000
0000
1000
0000
,
1200
0000
0000
0310
0100
1000
0002
0000
0103
0001
0000
0100
,
0110
0000
0000
1000
0010
0100
0001
0010
0100
2000
0000
0000
,
3002
0000
0000
0000
0000
0000
0103
0000
0000
0000
0010
0000
0100
0001
0100
0000
0000
0000
0001
0000
1000
0000
0100
0000
,
0012
0000
1003
0001
0100
0010
1000
0000
0010
0200
0000
0301
,
2001
0000
0000
0000
0000
0000
3100
0000
0100
0000
0001
0000
2000
0000
0000
0000
0000
0000
3001
0010
0001
0000
1000
0000
,
0200
0000
0000
0000
0000
0000
2300
0000
0000
0000
0000
0000
3001
0000
1000
0100
1000
0000
0001
0000
0100
0000
0010
0000
,
2000
0000
0000
3001
0100
0100
1000
0000
0010
0200
0000
0000
,
0320
0000
0000
1030
0010
0100
0001
0000
1000
1001
0000
0001
,
0021
0000
0000
0130
0010
0001
2000
0000
3010
1000
0000
0010
,
0110
0000
0000
0001
0100
0010
1000
0100
0010
0002
0000
0000
,
1003
0100
1000
0000
0001
0000
0010
0100
0010
0000
0001
0000
1000
0000
0100
0000
0010
0000
0011
0000
0000
0000
2001
0000
,
0000
0000
3020
0230
,
0302
0000
0000
1003
0001
0010
1100
0000
0000
0001
1000
0010
,
0102
0000
0000
0000
0000
0000
2003
0000
0000
0000
0000
0000
3100
0000
1000
0001
1000
0000
0010
0000
0100
0000
0001
0000
,
2000
0000
3000
0000
0000
0000
0011
0000
0000
0000
0000
0000
,
2200
0000
3300
0000
0000
0000
1001
0000
0000
0000
0000
0000
,
0202
0000
0303
0000
0000
0000
1001
0000
0000
0000
0000
0000
,
2200
0000
3300
0000
0000
0000
0202
0000
0303
0000
0000
0000
,
2100
0001
3010
0000
,
0201
0000
0000
0310
0100
0001
1000
0000
0000
0100
0000
0000
,
2100
3010
0101
0010
,
2100
3010
1002
0013
,
0001
0000
0001
0100
0000
0100
0010
1000
0010
1000
0000
0001
,
1000
0000
1000
0100
0000
0100
0010
0001
0010
0001
0000
1000
,
0001
0000
0001
0100
0000
0100
0010
1000
0010
1000
0000
0001
,
1000
0000
0100
0010
0000
0001
1000
0000
0000
0000
0000
0000
,
2010
3100
0012
0103
,
1010
0000
0000
0001
0010
0100
1100
0000
0000
1000
0010
0100
,
0101
1100
0101
1100
,
0000
0000
0000
0000
0000
0000
1000
0001
1000
0000
0010
0000
0100
0000
0001
0000
1000
0000
0100
0000
0000
0000
0000
0000
,
1100
0000
0000
1000
0001
0100
0010
1000
0001
0021
0000
0000
,
0000
0000
0000
0130
0000
0000
1001
0000
0000
2000
0000
3010
,
1010
0000
0000
1000
0001
0010
0001
1000
0010
0120
0000
0000
,
0000
0000
0000
0031
0000
0000
0120
0000
0000
1030
0000
0001
,
0011
0000
0000
1000
0010
0100
0101
0000
0000
0001
0010
0100
,
1100
0000
0000
2000
0010
3000
0011
0000
0000
0001
0010
0100
,
1100
0101
1100
0101
,
0000
0000
0000
0000
,
2001
0000
0000
3010
0000
1000
0010
0010
0001
1000
0000
0100
,
1000
0000
0000
0000
1000
0000
0001
0100
0001
0000
0100
0000
0010
0000
0000
0000
1000
0000
1001
0000
0000
0000
0001
0000
,
0021
0000
0000
1030
0010
0001
2000
0000
3010
1000
0000
0010
,
0110
0000
0000
0001
0100
1000
0001
0010
1000
0002
0000
0000
,
2003
0000
0000
0000
0000
0000
3010
0000
0000
0000
0001
0000
0010
0100
0010
0000
0000
0000
1000
0000
0001
0000
0010
0000
,
2100
0000
3001
1000
0010
0100
0001
0000
0100
0020
0000
1030
,
1002
0000
0000
0000
0000
0000
0013
0000
0010
0000
1000
0000
0002
0000
0000
0000
0000
0000
1003
0100
1000
0000
0001
0000
,
0020
0000
0000
0000
0000
0000
0032
0000
0000
0000
0000
0000
1003
0000
0001
0010
0001
0000
1000
0000
0010
0000
0100
0000
,
0002
0000
0000
1003
0010
0010
0001
0000
0100
2000
0000
0000
,
3200
0000
0000
0301
0100
0010
1000
0000
0001
1001
0000
1000
,
1200
0000
0000
0301
0100
1000
0002
0000
0103
0001
0000
0100
,
0110
0000
0000
1000
0010
0001
1000
0100
0001
2000
0000
0000
,
3001
0010
0001
0000
1000
0000
0100
0010
0100
0000
1000
0000
0001
0000
0010
0000
0100
0000
1100
0000
0000
0000
1002
0000
,
0000
0000
0203
0320
,
2030
0000
0000
3001
1000
0100
0011
0000
0000
1000
0001
0100
,
2010
0000
0000
0000
0000
0000
3002
0000
0000
0000
0000
0000
0013
0000
0001
1000
0001
0000
0100
0000
0010
0000
1000
0000
,
0001
0000
0000
1000
0000
0001
0200
0000
0310
0000
0000
0001
,
0200
0000
0310
0100
0001
1000
0200
0000
0000
1300
0000
0001
,
0100
0000
0000
0001
0000
1000
0200
0000
0310
0000
0000
1000
,
0200
0000
0310
0100
1000
0001
0020
0000
0000
0032
0000
0000
,
1003
0000
0000
0001
0000
0010
0200
0000
1300
0000
0000
0010
,
0200
0000
1300
0100
0010
0001
2000
0000
0000
3010
0000
1000
,
0001
0000
0000
0100
0000
0010
0100
0000
0010
0100
0000
0100
,
0001
0000
1000
0001
0010
0100
2000
0000
0000
0020
0000
0000
,
3030
0000
0000
0000
;
