#VERSION:0.83;
#TITLE:hypnotheque;
#SUBTITLE:;
#ARTIST:NM;
#TITLETRANSLIT:;
#SUBTITLETRANSLIT:;
#ARTISTTRANSLIT:;
#GENRE:;
#ORIGIN:;
#CREDIT:;
#BANNER:;
#BACKGROUND:;
#PREVIEWVID:;
#JACKET:hypnotheque-jacket.png;
#CDIMAGE:;
#DISCIMAGE:;
#LYRICSPATH:;
#CDTITLE:cdtitle.png;
#MUSIC:hypnotheque.ogg;
#OFFSET:-0.560840;
#SAMPLESTART:62.784000;
#SAMPLELENGTH:12.444000;
#SELECTABLE:YES;
#BPMS:0.000=135.000;
#STOPS:108.000=1.334;
#DELAYS:;
#WARPS:;
#TIMESIGNATURES:0.000=4=4;
#TICKCOUNTS:0.000=4;
#COMBOS:0.000=1;
#SPEEDS:0.000=1.000=0.000=0;
#SCROLLS:0.000=1.000;
#FAKES:;
#LABELS:0.000=Song Start;
#BGCHANGES:;
#KEYSOUNDS:;
#ATTACKS:
;

//---------------dance-single - ----------------
#NOTEDATA:;
#CHARTNAME:;
#STEPSTYPE:dance-single;
#DESCRIPTION:;
#CHARTSTYLE:;
#DIFFICULTY:Hard;
#METER:12;
#RADARVALUES:0.516198,0.544718,0.072268,0.082592,0.216803,350.000000,343.000000,7.000000,8.000000,0.000000,0.000000,0.000000,0.000000,0.000000,0.516198,0.544718,0.072268,0.082592,0.216803,350.000000,343.000000,7.000000,8.000000,0.000000,0.000000,0.000000,0.000000,0.000000;
#CREDIT:TonyAkita;
#NOTES:
0000
0000
0000
0000
,
0000
0000
0000
0000
,
1000
0100
0000
0000
0000
0000
0001
0100
0000
0000
0000
0000
0010
0000
0010
0000
,
0001
0010
0000
0000
0000
0000
1000
0010
0000
0000
0000
0000
0010
0000
0100
0000
,
1000
0100
0001
0100
0000
1000
0010
0100
,
0001
0100
1000
0100
0000
0001
1000
0010
,
0001
0010
1000
0010
0000
1000
0001
0100
,
1000
0100
0001
0100
0000
0010
0100
0001
,
1000
0100
0000
0010
0001
0000
0010
0000
0100
0010
0100
0000
1000
0000
1000
0000
,
0001
0100
0000
0010
1000
0000
0010
0000
0100
0010
0100
0000
0001
0000
0001
0000
,
1000
0100
0000
0001
0100
0000
0010
0000
0001
1000
0001
0000
0100
0000
0100
0000
,
0001
0100
0000
1000
0100
0000
0010
0000
1000
0001
1000
0000
0100
0000
0100
0000
,
0010
0001
1000
1001
0000
0001
0100
0010
,
1000
0010
0001
0010
0000
1000
0001
0010
,
0100
1000
0001
1001
0000
1000
0100
0010
,
0001
0010
0001
0000
1000
0010
1000
0000
0010
0100
0010
0100
0001
0000
0000
0000
,
1000
0100
0000
0000
0010
0000
1000
0000
0010
0000
0001
0000
0100
0000
0000
0000
,
1000
0100
0000
0000
0001
0100
0000
0000
0010
0000
1000
0000
0001
0000
0000
0000
,
0001
0100
0000
0000
0010
0000
0001
0000
0010
0000
1000
0000
0100
0000
0000
0000
,
0001
0100
0000
0000
1000
0100
0000
0000
0010
0000
0001
0000
1001
0000
0000
0000
,
2000
0000
0010
0000
0001
0000
3010
0100
,
0002
0000
1000
0000
0013
0100
1000
0001
,
2000
0000
0100
0000
0001
0000
3100
0010
,
0002
0000
1000
0000
0103
0010
1000
0001
,
1000
0100
0001
0000
0100
1000
0010
1000
,
0001
0100
1000
0000
0100
0001
0010
0001
,
0100
0010
1000
0000
0100
0010
0001
1000
,
2002
0000
3003
0000
1000
0000
0010
0000
1000
0000
0000
0010
0000
0000
0100
0000
,
0001
0000
0000
0000
0001
0000
0010
0000
0001
0000
0000
0010
0000
0000
0100
0000
,
1000
0000
0000
0000
0100
0000
0010
0000
0100
0000
0000
1000
0000
0000
1000
0000
,
0001
0000
0000
0000
0100
0000
0010
0000
0100
0000
0000
0001
0000
0000
0001
0000
,
1000
0100
0010
1000
0010
0001
1000
0010
,
0100
0000
0010
0001
0010
1000
0001
0010
,
0100
0000
0010
0001
0100
1000
0100
0001
,
1000
0000
0010
1000
0100
0001
0100
1000
,
0001
0100
0010
1000
0100
1000
0010
0010
,
0010
0000
0100
0001
0010
0001
0100
0100
,
0100
0000
0010
1000
0001
1000
0100
0100
,
0100
0000
0010
0001
1000
0001
0100
0010
,
1000
0010
0100
0001
1000
0100
0010
0010
,
0010
0000
0100
1000
0001
0100
0010
0010
,
0010
0000
0100
0001
1000
0001
0010
0010
,
0010
0000
0100
1000
0001
0100
0010
0001
,
0010
1000
0002
0000
0000
0000
0000
0000
,
0003
0000
0000
0000
0010
0100
0010
0100
1000
0000
0100
0010
0100
0010
0001
0000
,
0000
0000
2000
0000
0000
0010
0000
0000
,
3010
0000
0000
0000
0010
0100
0010
0100
0001
0000
0100
0010
0100
0010
1000
0000
,
0000
0000
0000
0000
0001
0010
0001
0010
0100
0000
1000
0010
1000
0010
0100
0000
,
0000
0000
0001
0100
1000
0100
0010
0110
,
0000
0000
1000
0100
0010
0001
1000
1001
,
0000
0110
0000
0000
;

//---------------dance-single - ----------------
#NOTEDATA:;
#CHARTNAME:;
#STEPSTYPE:dance-single;
#DESCRIPTION:;
#CHARTSTYLE:;
#DIFFICULTY:Medium;
#METER:8;
#RADARVALUES:0.389361,0.389084,0.134212,0.051620,0.015486,264.000000,251.000000,13.000000,5.000000,0.000000,0.000000,0.000000,0.000000,0.000000,0.389361,0.389084,0.134212,0.051620,0.015486,264.000000,251.000000,13.000000,5.000000,0.000000,0.000000,0.000000,0.000000,0.000000;
#CREDIT:TonyAkita;
#NOTES:
0000
0000
0000
0000
,
0000
0000
0000
0000
,
1000
1000
0000
0001
0001
0000
1000
0010
,
0100
0100
0000
0010
0010
0000
1000
0001
,
0010
0000
0100
0000
1000
0001
0100
0000
,
0010
0000
0100
0000
0001
1000
0100
0000
,
0010
0000
0100
0000
1000
0010
0001
0000
,
0010
0000
0100
0000
0001
0010
1000
0000
,
0010
0100
0010
0001
0000
1000
0000
1000
,
0010
0100
0010
1000
0000
0001
0000
0001
,
0100
1000
0100
0001
0000
1000
0000
1000
,
0100
0001
0100
1000
0000
0001
0000
0001
,
0011
0000
0000
1001
0000
0000
1000
0100
,
1000
0001
1000
0010
,
1010
0000
0000
1001
0000
0000
0001
0100
,
0001
0000
1000
0000
0001
0010
0100
1000
,
0020
0100
0000
1030
,
0001
0000
1000
0000
0010
0001
0010
1000
,
0020
1000
0000
0130
,
0010
0000
0100
0000
0001
1000
0001
0000
,
0100
0000
0100
0000
0100
0001
1000
0100
,
0010
0000
0011
0000
1000
0001
1000
0000
,
0100
0000
0100
0000
0100
1000
0001
0100
,
0010
0000
1010
0000
0001
1000
0001
0000
,
0010
0000
0011
0000
1000
0100
0001
0100
,
1000
0000
1010
0000
0001
0100
1000
0100
,
0001
1000
0100
0010
,
0220
0330
0001
0000
0001
0000
0001
0000
,
0010
0001
1000
0000
1000
0000
1000
0000
,
0010
1000
0100
0000
0100
0000
0100
0000
,
1000
0001
0100
0000
0100
0000
0100
0000
,
0010
0000
1000
0010
1000
0000
0010
0010
,
0100
0000
0001
0010
0001
0000
0010
0010
,
0100
0000
1000
0001
1000
0000
0100
0100
,
0010
0000
0001
1000
0001
0000
0100
0100
,
0010
0000
0010
0000
0010
0000
1000
0001
,
0100
0001
0010
0000
0010
0000
0001
1000
,
0100
1000
0010
0000
0010
0000
0100
0001
,
1000
0100
0010
0000
0010
0000
0100
1000
,
0001
0100
0010
0000
0010
0000
1000
0001
,
0100
0001
0010
0000
0010
0000
0001
1000
,
0100
1000
0010
0000
0010
0000
1000
0010
,
0001
0010
1000
0000
1000
0000
0001
0010
,
0100
1000
0020
0000
0000
0000
0000
0000
,
0030
0000
0000
0000
1000
0000
0000
0001
0000
0000
1000
0000
0000
0000
1001
0000
,
0000
0001
0100
1000
,
0100
0000
0000
0000
0010
0000
0000
1000
0000
0000
0010
0000
0000
0000
1010
0000
,
0000
0000
0000
0000
0001
0000
0000
0010
0000
0000
0001
0000
0000
0000
0011
0000
,
0000
0000
0010
0100
0010
0100
0010
0100
,
0000
0000
1000
0001
1000
0001
1000
0001
,
0000
0110
0000
0000
;

//---------------dance-single - ----------------
#NOTEDATA:;
#CHARTNAME:;
#STEPSTYPE:dance-single;
#DESCRIPTION:;
#CHARTSTYLE:;
#DIFFICULTY:Easy;
#METER:5;
#RADARVALUES:0.286121,0.311268,0.258099,0.113564,0.000000,194.000000,169.000000,25.000000,11.000000,0.000000,0.000000,0.000000,0.000000,0.000000,0.286121,0.311268,0.258099,0.113564,0.000000,194.000000,169.000000,25.000000,11.000000,0.000000,0.000000,0.000000,0.000000,0.000000;
#CREDIT:TonyAkita;
#NOTES:
0000
0000
0000
0000
,
0000
0000
0000
0000
,
1000
0000
0000
0010
0000
0000
1010
0000
,
0001
0000
0000
0010
0000
0000
0011
0000
,
1000
0001
0100
0010
,
1000
0001
0010
0100
,
1000
0010
0100
0110
,
0001
0010
0100
0110
,
1000
0001
0100
0000
1000
0000
0100
0000
,
0001
1000
0100
0000
0001
0000
0100
0000
,
1000
0001
0010
0000
1000
0000
0010
0000
,
0001
0000
0010
0000
0100
1000
0001
0000
,
1001
0000
0000
0011
0000
0000
0000
0000
,
0001
1000
0010
1000
,
1001
0000
0000
1010
0000
0000
0000
0000
,
0001
0010
0100
1000
,
0020
0000
0000
0130
,
0001
1000
0000
0100
,
0200
0000
0000
0310
,
0001
0000
1000
0000
0010
0010
0010
0000
,
1000
0000
0001
0000
1000
0100
0001
0000
,
0100
0010
0100
1000
,
0001
0000
1000
0000
0001
0100
1000
0000
,
0100
0010
0100
0001
,
0010
0000
0100
0000
1000
0100
0001
0000
,
0100
0010
0001
1000
,
0010
0000
0100
0000
0001
0100
1000
0000
,
0220
0330
0002
0000
,
1000
0000
2003
0000
,
0010
0000
3020
0000
,
0100
0000
0230
0000
,
0301
1000
0100
0001
,
0100
0010
0100
1000
,
1001
0001
0100
1000
,
0100
0010
0100
0001
,
1000
0100
0010
0100
,
1001
0110
1000
0001
,
0100
0001
0010
0001
,
0011
1001
1000
0001
,
0100
0010
0100
0010
,
0110
1001
0001
1000
,
0100
1000
0010
1000
,
1010
1001
0001
0010
,
0100
2000
0000
0000
,
3000
0000
1001
0000
0000
1010
0000
0000
,
0000
0001
0010
0100
,
1000
0000
1001
0000
0000
0011
0000
0000
,
0000
0000
1001
0000
0000
1010
0000
0000
,
0000
0000
0020
0000
0000
0000
0000
0030
,
0000
0000
0200
0000
0000
0000
0000
0300
,
0000
1001
0000
0000
;

//---------------dance-single - ----------------
#NOTEDATA:;
#CHARTNAME:;
#STEPSTYPE:dance-single;
#DESCRIPTION:;
#CHARTSTYLE:;
#DIFFICULTY:Beginner;
#METER:3;
#RADARVALUES:0.146010,0.207512,0.103240,0.041296,0.000000,99.000000,89.000000,10.000000,4.000000,0.000000,0.000000,0.000000,0.000000,0.000000,0.146010,0.207512,0.103240,0.041296,0.000000,99.000000,89.000000,10.000000,4.000000,0.000000,0.000000,0.000000,0.000000,0.000000;
#CREDIT:;
#NOTES:
// measure 0
0000
0000
0000
0000
,  // measure 1
0000
0000
0000
0000
,  // measure 2
1001
0000
0000
0000
,  // measure 3
0110
0000
0000
0000
,  // measure 4
1000
0000
0001
0000
,  // measure 5
0001
0000
1000
0000
,  // measure 6
0010
0000
0100
0000
,  // measure 7
0100
0000
0010
0000
,  // measure 8
0020
0000
0030
0000
,  // measure 9
1000
0000
0001
0000
,  // measure 10
0020
0000
0030
0000
,  // measure 11
0001
0000
1000
0000
,  // measure 12
1001
0000
0110
0000
,  // measure 13
1000
0000
0001
0000
,  // measure 14
1001
0000
0110
0000
,  // measure 15
0001
0000
1000
0000
,  // measure 16
0020
0000
0000
0000
,  // measure 17
0030
0000
0000
0000
,  // measure 18
0200
0000
0000
0000
,  // measure 19
0300
0000
0000
0000
,  // measure 20
1001
0000
0000
1000
,  // measure 21
1000
0000
0000
0001
,  // measure 22
0001
0000
0000
1000
,  // measure 23
1000
0000
0000
0100
,  // measure 24
0100
0000
0000
0010
,  // measure 25
0010
0000
0000
0100
,  // measure 26
0100
0000
0000
0000
,  // measure 27
1001
0000
1000
0000
,  // measure 28
1000
0000
0001
0000
,  // measure 29
0001
0000
0100
0000
,  // measure 30
0100
0000
0010
0000
,  // measure 31
0010
0000
1000
1000
,  // measure 32
0000
0000
0010
0010
,  // measure 33
0000
0000
0001
0001
,  // measure 34
0000
0000
0010
0010
,  // measure 35
0000
1000
0000
0001
,  // measure 36
0000
0001
0000
1000
,  // measure 37
0000
0100
0000
0010
,  // measure 38
0000
0010
0000
0100
,  // measure 39
0000
1000
0000
0001
,  // measure 40
0000
0001
0000
1000
,  // measure 41
0000
0010
0000
0100
,  // measure 42
0000
0100
0000
0010
,  // measure 43
0000
0110
0000
0000
,  // measure 44
0000
0001
0001
0001
,  // measure 45
0000
0000
0000
0000
,  // measure 46
0000
1000
1000
1000
,  // measure 47
0000
0001
0001
0001
,  // measure 48
0000
0100
0100
0100
,  // measure 49
0000
0010
0010
0010
,  // measure 50
0000
1001
0000
0000
;
