#TITLE:XING;
#SUBTITLE:;
#ARTIST:ginkiha;
#TITLETRANSLIT:;
#SUBTITLETRANSLIT:;
#ARTISTTRANSLIT:;
#GENRE:Edo Drum & Bass;
#CREDIT:;
#BANNER:XING.png;
#BACKGROUND:XING-bg.png;
#LYRICSPATH:;
#CDTITLE:cdtitle.png;
#MUSIC:XING.ogg;
#OFFSET:-0.090555;
#SAMPLESTART:13.649877;
#SAMPLELENGTH:10.847458;
#SELECTABLE:YES;
#BPMS:0.000000=88.500000
,20.000000=177.000000
,180.000000=88.500000
,204.000000=177.000000
,236.000000=88.500000
,252.000000=177.000000
;
#STOPS:
;
#BGCHANGES:;
#KEYSOUNDS:;
#ATTACKS:;

//---------------dance-single - ----------------
#NOTES:
     dance-single:
     :
     Challenge:
     14:
     0.648051,0.837966,0.229783,0.340968,0.263138,612.000000,581.000000,31.000000,46.000000,92.000000,0.000000,0.648051,0.837966,0.229783,0.340968,0.263138,612.000000,581.000000,31.000000,46.000000,92.000000,0.000000:
0000
0000
0000
0000
,
0000
0000
0000
0000
,
0001
0010
0011
0100
1000
0010
1010
0100
,
0001
0000
1000
0000
1001
0000
0001
0000
0010
0000
0010
0000
0100
1000
0001
0100
,
0020
0000
0000
0000
0000
0000
0000
0000
1030
0000
0001
0010
0000
1000
0010
0000
,
0001
0010
0001
0000
0010
0000
0100
0000
0000
0000
0100
0000
0010
0000
0001
0000
,
1000
0010
1000
0000
0010
0100
0010
0000
1000
0010
1000
0000
0001
0000
1000
0000
,
0100
0000
1000
0001
0100
0100
0100
0001
,
1000
0000
0100
0001
0000
0000
0001
0000
0100
0000
0010
0000
0001
0000
1000
0000
,
0001
0100
0001
0000
0100
0001
0100
0000
0002
0000
0000
0000
0010
0000
0000
0000
,
1003
0100
1000
0000
0100
1000
0100
0000
1000
0010
1000
0010
2000
0000
0000
0000
,
3001
0000
0000
0000
0110
0000
0000
0000
0001
0100
0001
0100
0002
0000
0000
0000
,
2003
0000
3001
0010
1000
0010
0001
0000
,
1000
0010
1000
0000
0010
0000
0100
0000
0000
0000
0100
0000
0010
0000
1000
0000
,
0001
0010
0001
0000
0010
0100
0010
0000
0001
0010
0001
0000
1000
0000
0001
0000
,
0100
0000
0001
1000
0100
0100
0100
1000
,
0001
0000
0100
1000
0000
0000
1000
0000
0100
0000
0010
0000
1000
0000
0001
0000
,
1000
0100
1000
0000
0100
1000
0100
0000
2000
0000
0000
0000
0010
0000
0000
0000
,
3001
0100
0001
0000
0100
0001
0100
0000
0001
0010
0001
0010
0002
0000
0000
0000
,
1003
0000
0000
0000
1010
0000
0000
1000
0001
0000
0010
0000
0011
0000
0000
0000
,
0001
0000
0001
0000
1000
0000
1000
0000
0001
1000
0001
1000
0001
0000
MMMM
0000
,
1000
0010
0001
0010
0100
0010
0001
0010
,
1000
0100
0001
0100
0010
0100
0001
0100
,
1000
0010
1000
0010
0100
1000
0001
0010
,
1000
0100
0001
1000
0010
0000
0110
0000
,
0001
0010
1000
0010
0100
0010
1000
0010
,
0001
0100
1000
0100
0010
0100
1000
0100
,
0101
0000
0000
0000
1010
0000
0000
1000
0100
0000
0010
0000
0011
0000
0000
0000
,
1000
0000
1000
0000
0001
0000
0001
0000
1000
0001
1000
0001
1000
0000
MMMM
0000
,
0002
0000
0010
1000
1003
MMMM
1000
0001
,
2000
0000
0010
0001
3001
MMMM
0001
0010
,
0200
0000
1000
1000
0310
MMMM
1000
0010
,
1000
0100
0011
0000
0001
0100
1010
0000
,
0201
0000
0001
0010
0310
MMMM
0001
0100
,
1000
MMMM
1000
0100
0001
MMMM
0001
0010
,
0100
0001
0100
1000
0100
0001
0100
1000
,
1002
0010
0013
MMMM
2001
0010
3010
MMMM
,
2000
0000
0010
0001
3001
MMMM
0001
1000
,
0002
0000
0010
1000
1003
MMMM
1000
0010
,
0200
0000
0001
0001
0310
MMMM
0001
0010
,
0001
0100
1010
0000
1000
0100
0011
0000
,
1200
0000
1000
0010
0310
MMMM
1000
0100
,
0001
MMMM
0001
0100
1000
MMMM
1000
0010
,
0100
1000
0100
0001
0100
1000
0100
0001
,
0020
0030
1100
0011
,
2000
0000
3020
0000
,
0032
0000
0203
0000
,
2300
3010
0011
1000
0002
0013
1010
0001
,
2000
3100
0101
1000
0002
0103
1100
0001
,
1000
0001
0100
0000
0001
1000
0100
0000
0010
0001
0100
0000
0010
1000
0100
0000
,
0020
0000
0000
0000
0000
0000
0000
0000
0031
0000
1000
0010
0000
0001
0010
0000
,
1000
0010
1000
0000
0010
0000
0100
0000
1000
0000
0100
0000
0010
0000
1000
0000
,
0001
0010
0001
0000
0010
0100
0010
0000
0100
1000
0100
0000
0010
0000
0001
0000
,
0100
0000
0010
1000
0001
0001
0001
1000
,
0100
0000
0010
1000
0000
0000
0010
0000
0001
0000
0100
0000
1000
0000
0100
0000
,
0001
0010
0001
0000
0010
0000
0100
0000
0001
0000
0100
0000
0010
0000
0001
0000
,
1000
0010
1000
0000
0010
0100
0010
0000
0100
0001
0100
0000
0010
0000
1000
0000
,
0100
0000
0010
0001
1000
1000
1000
0001
,
0100
0000
0010
0001
0000
0000
0010
0000
1000
0000
0100
0000
0001
0000
0100
0000
,
1000
1000
0002
0000
0203
0000
0320
0000
2030
0000
3001
0001
2000
0000
3100
0010
,
0001
0001
1000
1000
0001
0100
0020
0000
2030
0000
3001
0010
1000
0010
0001
0000
,
1000
1000
0010
0010
0100
0001
0020
0000
0230
0000
1300
1000
0002
0000
0203
0000
,
0301
1000
0100
0010
0001
1000
0100
0010
0002
0000
1003
0010
0001
0010
1000
0000
,
2001
0000
0100
0001
3001
MMMM
0001
1000
,
0002
0000
0100
1000
1003
MMMM
1000
0100
,
0020
0000
0001
0001
0130
MMMM
0001
0010
,
0100
1000
0010
0001
1000
0100
0001
0010
,
0200
0000
1000
1000
0310
MMMM
1000
0010
,
0001
MMMM
0001
0010
1000
MMMM
1000
0100
,
1100
0000
0000
0000
0011
0000
0000
0001
0100
0000
0010
0000
1010
0000
0000
0000
,
0001
0000
0010
0000
1000
0000
0010
0000
0001
1000
0001
1000
0001
0000
MMMM
0000
,
2002
0000
0000
0000
,
0000
0000
0000
0000
,
0000
0000
0000
0000
3003
0000
1000
0010
,
0100
0001
0010
0001
0100
0010
1000
0000
,
0001
0010
0001
0010
1000
0010
1000
0010
,
1000
0100
1000
0100
0001
0100
0001
0100
,
0001
0010
0100
1000
0001
0010
0100
0010
,
0001
1000
0010
0001
0010
1000
0001
0100
,
0020
0000
0100
0100
0100
0100
0100
0100
,
0130
0000
1010
0001
0000
0011
1000
0000
;

//---------------dance-single - ----------------
#NOTES:
     dance-single:
     :
     Hard:
     13:
     0.563339,0.778111,0.311319,0.400267,0.088948,532.000000,490.000000,42.000000,54.000000,0.000000,0.000000,0.563339,0.778111,0.311319,0.400267,0.088948,532.000000,490.000000,42.000000,54.000000,0.000000,0.000000:
// measure 0
0000
0000
0000
0000
,  // measure 1
0000
0000
0000
0000
,  // measure 2
1000
0010
1010
0100
0001
0010
0011
0100
,  // measure 3
1000
0001
0101
0010
1000
0100
1100
0010
,  // measure 4
0002
0000
0000
0000
0000
0000
0000
0000
1003
0000
0001
1000
0000
1000
0001
0000
,  // measure 5
1000
0100
0010
0100
0000
1000
0100
0010
,  // measure 6
0011
0000
1001
0000
0101
0000
0001
0100
,  // measure 7
1000
0000
1000
0100
0001
0100
0001
1000
,  // measure 8
0100
0000
0000
0010
0000
0000
0100
0000
0010
0000
0001
0000
0100
0000
0000
0000
,  // measure 9
0010
1000
0010
1000
0200
0000
0320
0000
,  // measure 10
0130
1000
0100
1000
0010
0100
0002
0000
,  // measure 11
0203
0000
1300
0000
0100
0010
0200
0000
,  // measure 12
0302
0000
1003
0100
0010
0001
1000
0000
,  // measure 13
0001
0100
0010
0100
0000
0001
0100
0010
,  // measure 14
1010
0000
1001
0000
1100
0000
1000
0100
,  // measure 15
0001
0000
0001
0100
1000
0100
1000
0001
,  // measure 16
0100
0000
0000
0010
0000
0000
0100
0000
0010
0000
1000
0000
0100
0000
0000
0000
,  // measure 17
0010
0001
0010
0001
0200
0000
0320
0000
,  // measure 18
0130
0001
0100
0001
0010
0100
1000
0000
,  // measure 19
1001
0000
0010
0000
1001
0001
0010
0000
,  // measure 20
0001
0100
0001
0100
1000
0100
0001
0000
,  // measure 21
1000
0010
1000
0010
1000
0100
1000
0100
,  // measure 22
0010
0001
0010
0001
0100
0001
0100
0001
,  // measure 23
1000
0001
0100
0001
1000
0100
1000
0001
,  // measure 24
1000
0010
0001
0010
1000
0000
1100
0000
,  // measure 25
0001
0010
0001
0010
0001
0100
0001
0100
,  // measure 26
0010
1000
0010
1000
0100
1000
0100
1000
,  // measure 27
1001
0000
0010
0000
1001
1000
0010
0000
,  // measure 28
1000
0100
1000
0100
0001
0100
1000
0000
,  // measure 29
2001
0000
0010
0000
0001
0000
3010
1000
,  // measure 30
0002
0000
0010
0000
1000
0000
0013
0001
,  // measure 31
0200
0000
1000
0000
0001
0000
1300
0100
,  // measure 32
0001
0101
1000
1100
,  // measure 33
0002
0000
0010
0000
1000
0000
1003
0010
,  // measure 34
0001
0000
0001
0010
1000
0000
1000
0100
,  // measure 35
0001
0100
1000
0010
0001
0010
1000
0000
,  // measure 36
2010
3100
0011
1100
,  // measure 37
1002
0000
0010
0000
1000
0000
0013
0001
,  // measure 38
2000
0000
0010
0000
0001
0000
3010
1000
,  // measure 39
0200
0000
0001
0000
1000
0000
0301
0100
,  // measure 40
1000
1100
0001
0101
,  // measure 41
2000
0000
0010
0000
0001
0000
3001
0010
,  // measure 42
1000
0000
1000
0010
0001
0000
0001
0100
,  // measure 43
1000
0100
0001
0010
1000
0010
0001
0000
,  // measure 44
0022
0033
2000
3020
,  // measure 45
2030
0000
3020
0000
,  // measure 46
0230
0000
0302
0000
,  // measure 47
2003
3100
0110
0000
0002
0103
0110
0000
,  // measure 48
2000
3100
0011
0000
0002
0103
1010
0000
,  // measure 49
1000
0100
0011
0100
1000
0010
0101
0010
,  // measure 50
2000
0000
0000
0000
0000
0000
0000
0000
3001
0000
1000
0001
0000
0001
1000
0000
,  // measure 51
0001
0100
0010
0100
0001
0100
1000
0000
,  // measure 52
1100
0000
0101
0000
0011
0000
1000
0100
,  // measure 53
0001
0000
0001
0100
1000
0010
1000
0100
,  // measure 54
0001
0000
0000
1000
0000
0000
0010
0000
0001
0000
0100
0000
0010
0000
0000
0000
,  // measure 55
1000
0100
0010
0100
1000
0100
0001
0000
,  // measure 56
0101
0000
1100
0000
1010
0000
0001
0100
,  // measure 57
1000
0000
1000
0100
0001
0010
0001
0100
,  // measure 58
1000
0000
0000
0001
0000
0000
0010
0000
1000
0000
0100
0000
0010
0000
0000
0000
,  // measure 59
0001
0100
0002
0000
0203
0000
0320
0000
2030
0000
3100
1000
0200
0000
0320
0000
,  // measure 60
0031
0010
0001
0010
0100
1000
0020
0000
0200
0030
0300
0010
1000
0001
0010
0000
,  // measure 61
0001
0010
0100
1000
0010
0100
0002
0000
2003
0000
3001
1000
0200
0000
0320
0000
,  // measure 62
0031
0100
0010
1000
0100
0010
0001
0100
0020
0000
0000
2030
0000
0000
3001
0000
,  // measure 63
2001
0000
3010
1000
0010
1000
0100
0001
,  // measure 64
0200
0000
0310
0001
0010
0001
0100
1000
,  // measure 65
0200
0000
0310
1000
0010
1000
0001
0010
,  // measure 66
0100
1000
0010
0001
0010
1000
0100
0010
,  // measure 67
0002
0000
1003
0010
1000
0010
0100
0001
,  // measure 68
0020
0000
0130
1000
0020
0000
1030
0001
,  // measure 69
1001
0000
0010
0000
1001
0001
0010
0000
,  // measure 70
0001
0010
1000
0010
0001
0100
1000
0000
,  // measure 71
0220
0000
0000
0000
,  // measure 72
0000
0000
0000
0000
,  // measure 73
0000
0000
0000
0000
0330
0000
0001
0100
,  // measure 74
0001
0100
0010
1000
0100
0010
0001
0000
,  // measure 75
1000
0010
1000
0010
1000
0001
1000
0001
,  // measure 76
0010
0001
0010
0001
1000
0001
1000
0001
,  // measure 77
1000
0010
0100
0001
0100
0010
1000
0001
,  // measure 78
1000
0100
0010
0001
0100
0010
1000
0100
,  // measure 79
0020
0100
0100
0130
,  // measure 80
1001
0000
0001
0100
0000
1000
0100
0000
;

//---------------dance-single - ----------------
#NOTES:
     dance-single:
     :
     Medium:
     10:
     0.436270,0.508765,0.281669,0.385442,0.011119,412.000000,374.000000,38.000000,52.000000,0.000000,0.000000,0.436270,0.508765,0.281669,0.385442,0.011119,412.000000,374.000000,38.000000,52.000000,0.000000,0.000000:
0000
0000
0000
0000
,
0000
0000
0000
0000
,
0001
0010
0100
1000
0001
0100
0010
1000
,
0100
0010
0001
1000
0010
0100
0001
0010
,
0002
0000
0000
0000
0000
0000
0000
0000
1003
0000
0000
0110
0000
0000
1001
0000
,
0001
0100
0001
0100
0000
0010
1000
0000
,
0101
0000
0110
0000
1010
0000
0001
0100
,
0010
0000
0010
0000
0100
0010
1000
0000
,
0100
0000
0100
0000
0010
0001
0100
0000
,
0001
1000
0001
0000
0020
0000
0230
0000
,
1300
0010
1000
0000
0001
0010
0001
0000
,
1000
0000
1001
0000
0001
1000
0002
0000
,
0023
0000
0031
0100
0000
0100
0001
0000
,
1000
0100
1000
0100
0000
0010
0001
0000
,
1100
0000
0110
0000
0011
0000
1000
0100
,
0010
0000
0010
0000
0100
0010
0001
0000
,
0100
0000
0100
0000
0010
1000
0100
0000
,
1000
0001
1000
0000
0020
0000
0230
0000
,
0301
0010
0001
0000
1000
0010
1000
0000
,
1001
0010
1001
0100
,
0001
1000
0001
1000
0002
0000
1003
0000
,
0001
0000
0010
0000
1000
0010
0001
0000
,
1000
0000
0100
0000
0001
0100
1000
0000
,
0001
0000
0100
0000
0010
1000
0100
0000
,
0010
0001
0100
0010
1000
0000
1001
0000
,
1000
0000
0010
0000
0001
0010
1000
0000
,
0001
0000
0100
0000
1000
0100
0001
0000
,
1001
0010
1001
0100
,
1000
0001
1000
0001
2000
0000
3001
0000
,
2001
0000
0000
0000
0010
0000
3001
0100
,
0002
0000
0000
0000
0100
0000
1003
0010
,
2000
0000
0000
0000
0010
0000
3001
1000
,
0200
1000
0320
0001
,
0230
0000
0000
0000
1000
0000
0310
0001
,
1000
0000
1000
0001
0100
0000
0100
0010
,
1000
0100
0001
0010
,
2020
3030
0101
1010
,
1002
0000
0000
0000
0010
0000
1003
0100
,
2000
0000
0000
0000
0100
0000
3001
0010
,
0002
0000
0000
0000
0010
0000
1003
0001
,
0200
0001
0320
1000
,
0230
0000
0000
0000
0001
0000
0310
1000
,
0001
0000
0001
1000
0100
0000
0100
0010
,
0001
0100
1000
0010
,
0022
0033
2000
3002
,
2003
0000
3020
0000
,
0230
0000
0302
0000
,
2003
0100
3100
0000
0002
0010
0013
0000
,
0002
0100
0103
0000
2000
0010
3010
0000
,
2000
0100
0001
0010
3002
0100
1000
0010
,
2000
0000
0000
0000
3003
0000
0000
0000
1000
0000
0000
0110
0000
0000
1001
0000
,
0001
0010
0001
0000
0100
0001
0100
0000
,
1010
0000
1001
0000
1100
0000
0001
0100
,
0010
0000
0010
0000
0100
0010
1000
0000
,
0100
0000
0001
0000
0100
1000
0010
0000
,
1000
0010
1000
0000
0100
1000
0100
0000
,
0011
0000
1001
0000
0101
0000
1000
0100
,
0010
0000
0010
0000
0100
0010
0001
0000
,
0100
0000
1000
0000
0100
0001
0010
0000
,
0002
0000
0103
0010
2000
0000
3100
0010
,
0001
0001
1000
1000
0002
0003
0110
1001
,
1000
0010
0001
0010
2000
0000
3100
0010
,
0001
0000
0010
0000
1000
0000
0010
0000
0002
0000
0000
2003
0000
0000
3001
0000
,
2001
0000
0000
0000
0010
0000
3100
1000
,
0002
0000
0000
0000
0010
0000
0103
0001
,
2000
0000
0010
3001
,
1000
0100
0010
0000
0001
0100
0010
0000
,
0220
0000
0330
0000
0110
0000
1000
0010
,
0100
0000
0001
0010
0100
0000
1000
0000
,
0110
0001
0110
1000
,
0001
0100
0010
1000
0010
0100
0001
0000
,
2002
0000
0000
0000
,
0000
0000
0000
0000
,
0000
0000
0000
3003
,
1000
0010
1000
0000
0001
0010
0001
0000
,
1000
0100
0001
0010
,
0001
0100
1000
0010
,
0001
0100
0001
0010
,
1000
0000
0100
0000
0010
0001
0100
0010
,
2000
0000
0000
0000
,
3001
0000
0000
0110
0000
0000
1001
0000
;

//---------------dance-single - ----------------
#NOTES:
     dance-single:
     :
     Easy:
     6:
     0.278493,0.418983,0.207546,0.548514,0.000000,263.000000,235.000000,28.000000,74.000000,0.000000,0.000000,0.278493,0.418983,0.207546,0.548514,0.000000,263.000000,235.000000,28.000000,74.000000,0.000000,0.000000:
0000
0000
0000
0000
,
0000
0000
0000
0000
,
1000
1010
0001
0011
,
1000
0000
1100
0000
0001
0000
0101
0010
,
2000
0000
0000
0000
0000
0000
0000
0000
0002
0000
0000
3000
0000
0000
0003
0000
,
1000
0000
0001
0000
,
0010
0001
0010
0001
,
0100
0000
0010
0000
,
1000
0010
0001
0010
,
2000
0000
3200
0000
,
0320
0032
0203
0300
,
0220
0330
2002
3003
,
0002
0023
0230
2300
,
3001
0000
1000
0000
,
0010
1000
0010
1000
,
0100
0000
0010
0000
,
0001
0010
1000
0010
,
0002
0000
0203
0000
,
0320
2030
3200
0300
,
1000
1000
0001
0001
,
1000
0001
2002
3003
,
1000
0010
0001
0000
,
0001
0010
1000
0000
,
0001
0100
1000
1000
,
0100
0001
2002
3003
,
0001
0010
1000
0000
,
1000
0010
0001
0000
,
0001
0001
1000
1000
,
0001
1000
2002
3003
,
2000
0000
0100
3001
,
0002
0000
0100
1003
,
2000
0000
0100
3001
,
0202
0303
0220
0330
,
2010
0000
3001
1000
,
0100
1000
0100
0010
,
0001
0001
1000
1000
,
0220
0330
1001
0110
,
0002
0000
0010
1003
,
2000
0000
0010
3001
,
0002
0000
0100
1003
,
2200
3300
0220
0330
,
0012
0000
1003
0001
,
0100
0001
0100
0010
,
1000
1000
0001
0001
,
0020
0030
0002
2003
,
3002
0000
0203
0000
,
0320
0000
2030
0000
,
3001
0011
1000
1100
,
1000
1010
0001
0101
,
0002
0023
2030
3020
,
0032
0000
0000
0000
0000
0000
0000
0000
2000
0000
0000
0003
0000
0000
3000
0000
,
0001
0000
0100
0000
,
0001
0100
1000
0100
,
0001
0000
0001
0000
,
1000
0010
0001
0100
,
1000
0000
0100
0000
,
1000
0100
0001
0100
,
1000
0000
1000
0000
,
0001
0010
1000
0100
,
0002
0013
2000
3010
,
0001
0000
1000
0000
0002
0000
1003
0001
,
2000
3100
0002
0103
,
1000
0000
0001
0000
0100
0000
0010
0000
2002
0000
0000
3000
0000
0000
0003
0000
,
2010
0000
0100
3001
,
0012
0000
0100
1003
,
2010
0000
0100
3001
,
1000
0100
0010
0001
,
2002
3003
1000
0010
,
0100
0001
0010
0100
,
1000
1000
0001
0001
,
1000
0001
2002
3003
,
0020
0000
0000
0000
,
0000
0000
0000
0000
,
0000
0000
0000
0000
,
0030
0000
0000
0000
,
1000
0000
0010
0000
,
0100
0000
0001
0000
,
0010
0000
0100
0000
,
1000
0000
0001
0000
,
2000
0001
0001
0001
,
0002
0000
0000
3000
0000
0000
0003
0000
;

//---------------dance-single - ----------------
#NOTES:
     dance-single:
     :
     Beginner:
     3:
     0.190603,0.326143,0.118598,0.340968,0.000000,180.000000,164.000000,16.000000,46.000000,0.000000,0.000000,0.190603,0.326143,0.118598,0.340968,0.000000,180.000000,164.000000,16.000000,46.000000,0.000000,0.000000:
0000
0000
0000
0000
,
0000
0000
0000
0000
,
0001
0000
0010
0000
,
0100
0000
1000
0000
,
0020
0000
0030
0000
,
1000
0000
1000
0000
,
0010
0010
0010
0000
,
1000
0000
0100
0000
,
1000
1000
1000
0000
,
0010
0000
0010
0000
,
0100
0000
0100
0000
,
0010
0000
1000
0000
,
0100
0000
0010
0000
,
0001
0000
0001
0000
,
0010
0010
0010
0000
,
0001
0000
0100
0000
,
0001
0001
0001
0000
,
0010
0000
0010
0000
,
0100
0000
0100
0000
,
1001
0000
1001
0000
,
1001
1001
2002
3003
,
1000
0000
0010
0000
,
0001
0000
0010
0000
,
1000
0000
0100
0000
,
0010
0010
0010
0000
,
0001
0000
0010
0000
,
1000
0000
0010
0000
,
1001
0000
1001
0000
,
1001
1001
2002
3003
,
2000
0000
3000
0010
,
0020
0000
0030
1000
,
2000
0000
3000
0100
,
0200
0300
0020
0030
,
0002
0000
0003
0001
,
0001
0000
0100
0000
,
0010
0010
0010
0000
,
2000
3000
0001
0001
,
0002
0000
0003
0010
,
0020
0000
0030
0001
,
0002
0000
0003
0100
,
0200
0300
0020
0030
,
2000
0000
3000
1000
,
1000
0000
0100
0000
,
0010
0010
0010
0000
,
0002
0003
1000
0000
,
0002
0003
0200
0300
,
0020
0030
2000
3000
,
0200
0300
0020
0030
,
0002
0003
2000
3000
,
0010
0010
0010
0010
,
0020
0000
0030
0000
,
1000
0000
0010
0000
,
0100
0010
0100
0000
,
0001
0000
0001
0000
,
0010
0100
0010
0000
,
0001
0000
0010
0000
,
0100
0010
0100
0000
,
1000
0000
1000
0000
,
0010
0100
0010
0000
,
2000
3000
0200
0300
,
0020
0030
0001
1000
,
0002
0003
0200
0300
,
0020
0030
2002
3003
,
2000
0000
3000
0010
,
0020
0000
0030
0100
,
0200
0000
0300
0001
,
0002
0003
0020
0030
,
0200
0000
0300
0010
,
0010
0000
0001
0000
,
1001
0000
1001
0000
,
1001
1001
2002
3003
,
0020
0000
0000
0000
,
0000
0000
0000
0000
,
0000
0000
0000
0000
,
0030
0000
0000
0000
,
1000
0000
1000
0000
,
0001
0000
0001
0000
,
0010
0000
0010
0000
,
0100
0000
0100
0000
,
0020
0000
0000
0000
,
0030
0000
0000
0000
;
