#TITLE:Virus Funk;
#SUBTITLE:;
#ARTIST:Nhato;
#TITLETRANSLIT:;
#SUBTITLETRANSLIT:;
#ARTISTTRANSLIT:;
#GENRE:;
#CREDIT:;
#MUSIC:Virus Funk.ogg;
#BANNER:Virus Funk.png;
#BACKGROUND:Virus Funk-bg.png;
#CDTITLE:;
#SAMPLESTART:34.521;
#SAMPLELENGTH:14.750;
#SELECTABLE:YES;
#OFFSET:0.000;
#BPMS:0.000=132.000;
#STOPS:;
#BGCHANGES:;
#FGCHANGES:;

//--------------- dance-single - ----------------
#NOTES:
     dance-single:
     :
     Beginner:
     4:
     0,0,0,0,0:
0000
0000
0000
0000
,
2000
3000
0000
0000
0002
0003
0000
0000
,
1000
0000
0001
0000
,
2000
3000
0000
0000
0002
0003
0000
0000
,
1000
0000
0010
0000
,
2000
3000
0000
0000
0002
0003
0000
0000
,
1000
0100
2000
3000
,
0002
0003
0000
0000
2000
3000
0000
0000
,
0001
0000
1001
0000
,
2000
0000
0000
3000
,
0002
0000
0000
0003
,
2000
3000
0002
0003
,
1000
0010
2000
3000
,
2000
0000
0000
3000
,
0002
0000
0000
0003
,
2000
0000
0000
3000
,
0001
0000
1001
0000
,
0001
1000
0001
1000
,
0002
0000
0000
0003
,
1000
0000
0000
0000
0002
0000
0000
0003
,
1000
0000
0100
0000
1000
0000
0200
0300
,
2000
3000
0002
0003
2000
0000
0000
3000
,
0002
0000
0000
0003
1000
0000
0001
0000
,
1000
0000
0001
0000
2000
0000
0000
3000
,
0001
0000
0100
0000
0001
0000
0200
0300
,
0002
0003
2000
3000
0002
0000
0000
0003
,
1000
0000
1001
0000
,
0002
0000
0000
0003
,
2000
0000
0000
3000
,
0020
0030
2000
3000
,
0001
1000
2000
3000
,
0002
0000
0000
0003
,
2000
0000
0000
3000
,
0001
0010
0100
1000
,
0001
0000
1001
0000
,
0002
0000
0000
0003
,
2000
0000
0000
3000
,
0002
0000
0000
0003
,
2000
0000
0000
3000
,
0020
0000
0000
0030
,
0200
0000
0000
0300
,
0002
0000
0000
0003
,
2000
0000
0000
3000
,
0002
0000
0000
0003
,
1000
0000
1001
0000
,
0001
0010
0100
1000
,
0010
0100
0001
1000
,
0002
0000
0000
0003
,
2000
0000
0000
3000
0002
0000
0000
0003
,
1000
0000
0001
0000
1000
0000
0002
0003
,
2000
3000
0002
0003
2000
0000
0000
3000
,
0020
0000
0000
0030
1000
0000
0001
0000
,
1000
0000
0000
0000
0020
0000
0000
0030
,
1000
0000
0100
0000
1000
0000
0200
0300
,
2000
3000
0020
0030
1000
0000
0010
0000
,
2000
3000
0001
1000
,
0001
0000
0000
0000
2000
0000
0000
3000
,
0001
0000
0010
0000
0001
0000
0020
0030
,
0002
0003
2000
3000
0002
0000
0000
0003
,
2000
0000
0000
3000
0001
0000
1000
0000
,
0001
0000
0000
0000
2000
0000
0000
3000
,
0010
0000
1000
0000
0010
0000
2000
3000
,
0002
0003
2000
3000
0002
0000
0000
0003
,
1000
0000
1001
0000
,
0001
0000
0100
0001
,
1001
0000
0000
0000
;

//--------------- dance-single - ----------------
#NOTES:
     dance-single:
     :
     Easy:
     7:
     0,0,0,0,0:
0000
0000
0000
0000
,
0002
0003
0000
0000
2000
3000
0000
0000
,
0001
0000
0100
0000
0001
0000
2000
3000
,
0002
0003
0000
0000
0020
0030
0000
0000
,
0100
0000
1000
0000
1000
0000
0002
0003
,
2000
3000
0000
0000
0200
0300
0000
0000
,
1000
0000
0010
0000
1000
0000
0002
0003
,
2000
3000
0000
0000
0002
0003
0000
0000
,
2002
3003
2002
3003
,
0000
2000
0000
0000
0000
0000
3000
0000
,
0000
0002
0000
0000
0000
0000
0003
0000
,
0000
1000
0010
1000
0000
0001
0010
0001
,
0000
1000
0001
2000
0000
0000
3000
0000
,
0000
2000
0000
0000
0000
0000
3000
0000
,
0000
0002
0000
0000
0000
0000
0003
0000
,
1000
0001
1000
0001
,
2002
3003
2002
3003
,
0001
0000
0010
0000
0001
0000
1000
0001
,
2000
0000
0000
3000
,
0001
1000
0002
0003
,
0010
0000
0100
0000
1000
0000
2000
3000
,
0002
0003
0020
0030
0002
0000
0000
0000
,
2003
0000
0000
0000
3020
0000
2030
3000
,
0100
0000
1000
0000
0002
0000
0000
0003
,
1000
0000
0010
0000
0100
0000
0002
0003
,
2000
3000
0200
0300
2000
0000
0000
3000
,
2002
0000
3003
0000
2002
0000
0000
3003
,
0000
0002
0000
0000
0000
0000
0003
0000
,
0000
2000
0000
0000
0000
0000
3000
0000
,
0000
0010
1000
0010
0000
1000
0100
1000
,
0000
0001
0100
0002
0000
0000
0003
0000
,
0000
0002
0000
0000
0000
0000
0003
0000
,
0000
2000
0000
0000
0000
0000
3000
0000
,
0001
0100
0010
1000
,
2002
3003
2002
3003
,
2002
0000
0000
3003
,
0002
0003
2000
3000
,
0020
0030
2000
3000
,
0200
0300
2000
3000
,
0200
0300
0020
0030
,
0002
0003
2000
3000
,
0020
0030
0200
0300
,
0002
0003
0020
0030
,
0200
0000
0300
0000
2000
0000
0000
3000
,
2002
3003
2002
3003
,
0001
0010
0100
1000
,
1000
0010
0100
0001
,
2000
0000
0000
3000
,
0002
0003
1000
0100
,
0010
0000
0001
0000
0010
0000
0200
0300
,
2000
3000
0002
0003
2000
0000
0000
0000
,
3002
0000
2003
3100
,
1000
0001
2000
3000
,
0001
0000
0010
0000
0001
0000
0020
0030
,
0002
0003
0200
0300
0001
0000
0100
0000
,
0002
0000
0003
2000
3000
0000
0001
0000
,
1000
0100
2000
3000
,
0001
0000
1000
0000
0001
0000
2000
3000
,
0200
0300
2000
3000
0002
0000
0000
0000
,
2003
0000
3020
0030
,
1000
0010
0100
0001
,
0001
0000
0010
0000
0100
0000
2000
3000
,
0001
1000
0001
1000
,
2002
3003
2002
3003
,
1000
1001
0001
1001
,
1001
0000
0000
0000
;

//--------------- dance-single - ----------------
#NOTES:
     dance-single:
     :
     Medium:
     10:
     0,0,0,0,0:
0000
0000
0000
0000
,
1000
0010
0000
0000
0010
1000
0000
0000
,
0001
0000
0000
0000
0010
0000
0000
0001
0000
0000
1000
0000
0002
0000
0003
0000
,
1000
0100
0000
0000
0010
0001
0000
0000
,
1000
0000
0000
0000
0010
0000
0000
1000
0000
0000
0001
0000
2000
0000
3000
0000
,
0001
0100
0000
0000
0010
1000
0000
0000
,
0001
0000
0000
0000
1000
0000
0000
0001
0000
0000
1000
0000
0200
0000
0300
0000
,
0010
0100
0000
0000
1000
0010
0000
0000
,
1001
1000
1001
0001
,
0000
1000
0100
2000
0000
0000
3000
0000
,
0000
0001
0100
0002
0000
0000
0003
0000
,
0000
1000
0100
0010
0000
0001
0010
0100
,
0000
1000
0100
1000
0100
1000
0020
0000
,
0030
1000
0010
2000
0000
0000
3000
0000
,
0000
0001
0010
0002
0000
0000
0003
0000
,
1000
0001
1000
0001
,
1001
1000
1001
0001
,
1000
0001
1000
0001
1000
0001
1000
0001
,
2000
0000
0000
3000
0002
0000
0003
0000
,
1000
0000
0100
0000
1000
0010
1000
0010
,
1000
0000
0010
0000
0100
0000
0002
0003
,
2000
3000
0020
0030
0100
0001
0010
0001
,
0010
0001
0100
0001
0100
0001
0020
0030
,
0100
0000
1000
0000
0001
0100
0010
1000
,
0100
0000
0010
0000
0001
0000
0200
0300
,
0002
0003
2000
3000
0010
1000
0100
1000
,
0001
1001
1000
1001
,
0000
0001
0010
0002
0000
0000
0003
0000
,
0000
1000
0010
0200
0000
0000
0300
0000
,
0000
0001
0100
0001
0000
0001
0010
0001
,
0000
0001
0010
0100
1000
0100
2000
3000
,
0000
0001
0010
0002
0000
0000
0003
0000
,
0000
1000
0010
0200
0000
0000
0300
0000
,
0001
0100
0010
1000
,
0001
1001
1000
1001
,
0002
0000
0000
0000
0000
0000
0000
0003
,
1000
0010
0100
0001
,
0001
0010
0100
1000
,
0010
1000
0010
1000
,
0100
1000
0100
1000
,
1000
0100
0010
0001
,
0001
0100
0010
1000
,
1000
0001
1000
0001
,
2000
0010
0010
0001
,
3001
1001
1000
1001
,
0001
1000
0001
1000
0001
1000
0001
1000
,
0001
1000
0100
1000
0100
1000
0100
1000
,
0002
0000
0000
0003
2000
0000
3000
0000
,
1000
0000
0001
0000
1000
0010
0100
0001
,
0100
0000
0001
0000
0100
0000
0001
0010
,
0100
0000
1000
0100
0010
0001
0010
0100
,
1000
0100
1000
0100
1000
0010
2000
3000
,
0001
0000
0010
0000
0001
0100
0010
1000
,
0100
0000
0010
0000
0001
0000
2000
3000
,
0020
0030
2000
3000
0001
0010
0001
0010
,
0001
0000
1000
0001
1000
0000
0001
0000
,
1000
0000
0100
0000
0010
0100
1000
0100
,
0010
0000
0001
0000
0100
0000
0020
0030
,
2000
3000
0200
0300
1000
0100
1000
0100
,
1000
0010
1000
0010
1000
0010
2000
3000
,
0001
0000
1000
0000
0001
0010
0001
0010
,
0001
0000
1000
0000
0010
0000
2000
3000
,
0002
0003
2000
3000
0001
0010
0001
0100
,
0001
1001
1000
1001
,
0001
0101
1000
1100
,
1001
0000
0000
0000
;

//--------------- dance-single - ----------------
#NOTES:
     dance-single:
     :
     Hard:
     13:
     0,0,0,0,0:
0000
0000
0000
0000
,
0001
0100
0000
0000
1000
0100
0000
0000
,
0101
0000
0000
0000
1010
0000
0000
1100
0000
0000
0001
0000
1000
0100
0010
0100
,
1000
0001
0000
0000
0100
0001
0000
0000
,
1010
0000
0000
0000
0101
0000
0000
0011
0000
0000
1000
0000
0001
0010
0001
0000
,
0100
0010
0000
0000
1000
0001
0000
0000
,
1001
0000
0000
0000
1100
0000
0000
0101
0000
0000
0010
0000
1000
0100
1000
0001
,
1000
0100
0000
0000
0001
0100
0000
0000
,
1010
0101
0011
1100
,
0000
0010
0001
0100
1000
0010
0001
0100
,
1000
0010
0001
0010
0100
1000
2000
0000
,
3000
0001
0100
1000
0000
1000
0100
0001
,
0000
0001
0100
0010
1000
0100
0020
0030
,
0000
0010
0001
0100
1000
0010
0001
0100
,
1000
0100
0010
1000
0001
1000
2000
3000
,
0001
0100
0010
1000
,
1001
1001
1001
1001
,
0001
0100
1000
0100
0001
0100
1000
0100
,
0002
0000
0000
0000
0000
0000
0003
0000
1000
0010
0100
0001
0010
0000
0000
0000
,
0001
0000
0100
0000
0010
1000
0001
0001
,
1000
0000
0000
0100
0000
0000
0100
0000
0000
1000
0000
0000
0002
0000
0000
0000
,
2003
0000
3002
0000
1003
0010
0001
0010
,
1000
0100
0001
0100
1000
0100
2000
0000
,
3200
0000
0320
0000
0031
0010
0100
0010
,
0001
0000
0000
1000
0000
0000
0010
0000
0000
0100
0000
0000
0002
0000
0000
0000
,
2003
0000
3002
0000
1003
0100
0010
0001
,
0110
0110
0110
0200
,
0300
0010
0001
0100
1000
0010
0002
0000
,
0003
1000
0001
0010
0001
1000
0002
0000
,
0003
1000
0010
1000
0000
0100
0010
0100
,
0000
0001
0100
0001
0100
0001
0200
0000
,
0300
0010
0001
0100
1000
0010
0002
0000
,
0003
1000
0001
0100
0001
1000
0002
0000
,
1003
0100
0010
0001
,
1001
1001
1001
1001
,
0220
0000
0000
0330
,
1000
0100
1000
0001
,
0010
0100
1000
1000
,
0010
0100
0001
0010
,
0001
1000
0001
1000
,
0001
0100
0010
1000
,
0100
1000
0010
1000
,
0001
0100
0001
1000
,
0100
0010
0100
1000
,
1001
0110
1001
0110
,
1000
0010
0100
0001
0010
0100
1000
0001
,
1000
0010
0100
0001
0010
0100
1000
0001
,
1001
0000
0000
0000
0110
0000
0000
0000
0001
0100
0010
0100
0001
0000
0000
0000
,
2000
0000
3020
0000
1030
0100
0001
0100
,
1000
0100
0001
0100
1000
0100
1000
0010
,
1000
0010
0100
0010
1000
0100
1000
0010
,
0100
0000
0001
0000
0010
0000
0100
0000
1000
0010
1000
0010
2000
0000
3000
0000
,
1001
0000
1001
0000
0001
0100
1000
0100
,
0001
0100
0001
0010
0001
0100
0001
0010
,
0002
0000
2003
0000
3001
0010
0100
1000
,
0001
0000
0000
0001
0000
0000
1000
0000
0010
0000
0000
0000
1001
0000
0000
0000
,
0110
0000
1001
0000
1000
0100
0010
0100
,
0010
0000
0000
0100
0000
0000
1000
0000
0000
0010
0000
0000
0010
0000
0000
0000
,
2000
0000
3002
0000
1003
0100
1000
0010
,
1000
0100
1000
0010
0001
0010
2000
3000
,
1001
0000
1001
0000
1000
0010
0100
0001
,
1000
0000
0000
0001
0000
0000
0100
0000
0000
0010
0000
0000
0010
0000
0000
0000
,
1000
0000
0100
0000
0001
0100
1000
0000
0001
0000
0100
0000
0001
0010
0100
0000
,
1001
0110
1001
0110
,
1001
0010
0100
1000
1001
0001
0100
0001
,
0101
0000
0000
0000
;
