#VERSION:0.83;
#TITLE:VIRTUAL MIND;
#SUBTITLE:;
#ARTIST:Brian Morris feat. Thomas;
#TITLETRANSLIT:;
#SUBTITLETRANSLIT:;
#ARTISTTRANSLIT:;
#GENRE:HIPHOP;
#ORIGIN:;
#CREDIT:;
#BANNER:virtualmind-bn.png;
#BACKGROUND:virtualmind-bg.png;
#PREVIEWVID:;
#JACKET:virtualmind-jacket.png;
#CDIMAGE:;
#DISCIMAGE:;
#LYRICSPATH:;
#CDTITLE:cdtitle.png;
#MUSIC:virtualmind.ogg;
#OFFSET:-0.441181;
#SAMPLESTART:15.676000;
#SAMPLELENGTH:9.609000;
#SELECTABLE:YES;
#BPMS:0.000=128.000;
#STOPS:16.000=0.469;
#DELAYS:;
#WARPS:;
#TIMESIGNATURES:0.000=4=4;
#TICKCOUNTS:0.000=4;
#COMBOS:0.000=1;
#SPEEDS:0.000=1.000=0.000=0;
#SCROLLS:0.000=1.000;
#FAKES:;
#LABELS:0.000=Song Start;
#BGCHANGES:;
#KEYSOUNDS:;
#ATTACKS:
;

//---------------dance-single - ----------------
#NOTEDATA:;
#CHARTNAME:;
#STEPSTYPE:dance-single;
#DESCRIPTION:;
#CHARTSTYLE:;
#DIFFICULTY:Hard;
#METER:10;
#RADARVALUES:0.446632,0.479661,0.034231,0.251027,0.251027,274.000000,271.000000,3.000000,22.000000,0.000000,0.000000,0.000000,0.000000,0.000000,0.446632,0.479661,0.034231,0.251027,0.251027,274.000000,271.000000,3.000000,22.000000,0.000000,0.000000,0.000000,0.000000,0.000000;
#CREDIT:TonyAkita;
#NOTES:
0000
0000
0000
0000
,
0000
0000
0000
0000
,
1000
0000
1000
0000
0010
0000
0000
0100
0000
0000
0001
0000
1000
0000
0000
0000
,
0100
0010
0000
0001
0010
0000
0100
1000
0000
0000
0001
0000
0001
0000
2000
0000
,
3000
0000
0000
0010
0000
0010
0000
0100
0001
0000
0000
1000
0000
0100
0010
0000
,
0001
0000
0000
0010
0000
0010
0000
0100
1000
0000
0000
0001
0000
0100
0010
0000
,
1000
0000
0000
0001
0000
0001
0000
0100
1000
0000
0000
0100
0000
0001
1000
0000
,
0100
0000
0001
0000
0100
0000
1000
0000
0100
0010
0100
0000
0110
0000
0000
0000
,
0001
0001
0001
0000
0010
0001
0010
0100
,
1000
1000
1000
0000
0010
0001
0010
1000
,
0001
0001
0001
0000
0010
0100
1000
0001
,
0100
0010
0100
0001
1000
0001
1001
0000
,
2000
0000
0000
0010
0000
3010
0000
0000
1000
0000
0000
1000
0000
0100
0010
0000
,
0002
0000
0000
0010
0000
0013
0000
0000
0001
0000
0000
0001
0000
0100
0010
0000
,
2000
0000
0000
0001
0000
3001
0000
0000
1000
0000
0000
1000
0000
0001
0100
0000
,
1000
0100
0001
0100
0010
1000
0001
0000
,
1000
0010
1000
0000
0001
0010
0100
1000
,
0001
0100
0001
0000
1000
0100
0010
0001
,
1000
0001
1000
0000
0010
0100
0001
0100
,
0010
1000
0010
1000
0100
0010
0001
0000
,
2000
0000
0000
0000
,
0020
0000
0000
0000
0000
3030
0010
1000
,
0002
0000
0000
0000
,
0020
0000
0000
0000
0033
0000
0001
1000
,
0100
0001
0100
1000
0100
0010
0001
0000
,
0100
1000
0100
0001
0100
0010
1000
0000
,
0100
0001
0100
1000
0100
0010
0001
0000
,
1000
0010
0100
0001
1000
0100
0001
0100
,
0000
0010
0010
1000
0000
0010
0010
0001
,
0000
1000
0100
0010
0001
1000
0010
0010
,
0000
0000
0000
0000
0020
0000
0000
1000
0000
0000
1030
0000
0001
0000
0010
0000
,
0001
0000
0010
0000
0002
0000
0000
0010
0000
0000
0013
0000
0001
0000
1000
0000
,
0010
0100
0002
0000
0023
0000
2030
0000
,
3200
0302
1003
0000
,
1000
2000
3200
0302
,
0023
0000
0000
0000
1030
0000
0010
0000
0001
0000
0010
0000
1000
0001
1000
0001
,
1000
0000
0001
0001
0010
0000
0001
1000
,
0010
0100
0001
0001
1000
0000
0100
0010
,
1000
0010
0001
0001
0100
0000
0010
1000
,
0010
0100
0001
0000
1000
0000
0001
1000
,
0001
0000
0000
0000
2000
0000
0000
0010
0000
3010
0000
0000
0010
0000
1000
0000
,
0010
0000
0100
0000
0002
0000
0000
0010
0000
0013
0000
0000
0010
0000
0001
0000
,
0010
0000
0100
0000
2000
0000
0000
0001
0000
3001
0000
0000
0001
0000
1000
0000
,
0010
0000
0100
0000
0001
0000
0010
0000
0100
0000
1000
0000
0001
1000
0001
1000
,
0001
1001
0000
0000
;

//---------------dance-single - ----------------
#NOTEDATA:;
#CHARTNAME:;
#STEPSTYPE:dance-single;
#DESCRIPTION:;
#CHARTSTYLE:;
#DIFFICULTY:Challenge;
#METER:13;
#RADARVALUES:0.598227,0.580642,0.319489,0.136924,0.513464,367.000000,339.000000,28.000000,12.000000,0.000000,0.000000,0.000000,0.000000,0.000000,0.598227,0.580642,0.319489,0.136924,0.513464,367.000000,339.000000,28.000000,12.000000,0.000000,0.000000,0.000000,0.000000,0.000000;
#CREDIT:TonyAkita;
#NOTES:
// measure 0
0000
0000
0000
0000
,  // measure 1
0000
0000
0000
0000
,  // measure 2
1000
0000
1000
0000
0001
0000
0010
0100
0000
0010
0100
0000
0110
0000
0000
0000
,  // measure 3
1000
0100
0000
0010
0001
0000
0100
0010
0000
1000
0001
1000
0001
0000
2002
0000
,  // measure 4
3003
0000
0001
0010
0000
0010
0000
0100
1000
0001
0000
0001
0000
0010
0001
0010
,  // measure 5
0001
0000
1000
0010
0000
0010
0000
0100
0001
1000
0000
1000
0000
0010
1000
0010
,  // measure 6
1000
0000
0001
1000
0000
1000
0000
0100
0010
0001
0000
1000
0000
0010
0100
0010
,  // measure 7
0100
0000
0001
0000
0100
0000
1000
0000
0100
0010
0100
0000
0110
0000
0000
0000
,  // measure 8
0011
0001
1000
0000
0100
0001
0100
1000
,  // measure 9
1100
1000
0010
0000
0100
1000
0100
0001
,  // measure 10
0101
0001
1000
0000
0100
0010
0100
1000
,  // measure 11
0001
0100
0001
0000
0100
0010
0100
0000
0010
0000
1000
0000
1001
0000
0000
0000
,  // measure 12
1000
0000
0001
0010
0000
0010
0000
0100
1000
0001
0000
1000
0000
0010
0100
0000
,  // measure 13
0001
0000
1000
0010
0000
0010
0000
0100
0001
1000
0000
0001
0000
0010
0100
0000
,  // measure 14
1000
0000
0001
0100
0000
0100
0000
0010
1000
0100
0000
1000
0000
0010
0100
0000
,  // measure 15
0001
0000
0010
0000
0001
0000
0100
0000
0010
0100
0010
0100
0010
0000
0000
0000
,  // measure 16
1000
0010
0001
0010
2000
0001
3001
0000
,  // measure 17
0001
0010
1000
0010
0002
0100
0103
0000
,  // measure 18
0100
0010
0100
0001
2000
0001
3001
0000
,  // measure 19
0001
0000
0010
0000
0100
0000
1000
0000
0010
0100
0010
0000
0110
0000
0000
0000
,  // measure 20
0002
0000
0000
0010
0010
0000
0000
0020
,  // measure 21
0000
0000
0000
0000
0033
0000
0110
1000
,  // measure 22
2000
0000
0000
0010
0010
0000
0000
0020
,  // measure 23
0000
0000
0000
0000
3030
0000
0110
0001
,  // measure 24
0001
0010
0001
0000
0001
0100
0001
0000
0001
0000
1000
0000
1001
0000
0000
0000
,  // measure 25
1000
0010
1000
0000
1000
0100
1000
0000
1000
0000
0001
0000
1001
0000
0000
0000
,  // measure 26
0001
1000
0001
0000
1000
0001
1000
0000
0010
0000
0100
0000
0110
0000
0000
0000
,  // measure 27
1001
0000
0001
0010
0000
0100
1000
0000
0101
0000
0100
0010
0000
1000
0001
0000
,  // measure 28
0000
0000
1000
0010
1000
0010
0001
0000
0000
0000
0010
1000
0010
1000
0001
0000
,  // measure 29
0000
0000
0010
0000
0001
0000
0010
0000
0100
0000
1000
0000
0100
0010
0100
0010
,  // measure 30
0000
0000
0000
0000
0011
0000
0000
1001
0000
0000
0011
0000
1000
0000
0001
0000
,  // measure 31
1000
0000
0001
0000
1010
0000
0000
1001
0000
0000
1010
0000
0001
0000
0100
0000
,  // measure 32
0010
1000
0100
0001
0010
1000
0100
0001
,  // measure 33
0010
1000
0100
0001
0010
1000
0000
0000
,  // measure 34
0001
0001
0010
1000
0100
0001
0010
1000
,  // measure 35
0100
0000
0001
0000
0100
0000
1000
0000
0100
0000
0010
0000
1000
0001
1000
0001
,  // measure 36
1000
0000
0000
0000
0011
0000
1001
0000
0000
0000
1000
0010
1000
0000
0010
0000
,  // measure 37
0100
0000
0001
0000
0101
0000
1001
0000
0000
0000
0001
0010
0001
0000
0010
0000
,  // measure 38
0100
0000
1000
0000
1100
0000
1001
0000
0000
0000
0001
1000
0001
0000
0100
0000
,  // measure 39
0010
0000
0100
0000
0001
0000
0100
0000
1000
0000
0100
0000
0010
0100
0010
0100
,  // measure 40
0010
0000
0000
0000
2000
0000
0000
0010
0000
3010
0000
0100
0001
0000
1000
0000
,  // measure 41
0100
0000
0010
0000
0002
0000
0000
0010
0000
0013
0000
0100
1000
0000
0001
0000
,  // measure 42
0100
0000
0010
0000
2000
0000
0000
0001
0000
3001
0000
0010
0100
0000
0001
0000
,  // measure 43
0100
0000
1000
0000
0100
0010
0100
0000
0010
0100
0010
0000
0001
1000
0001
1000
,  // measure 44
0001
1001
0000
0000
;

//---------------dance-single - ----------------
#NOTEDATA:;
#CHARTNAME:;
#STEPSTYPE:dance-single;
#DESCRIPTION:;
#CHARTSTYLE:;
#DIFFICULTY:Medium;
#METER:8;
#RADARVALUES:0.337419,0.378680,0.182565,0.251027,0.154039,207.000000,191.000000,16.000000,22.000000,0.000000,0.000000,0.000000,0.000000,0.000000,0.337419,0.378680,0.182565,0.251027,0.154039,207.000000,191.000000,16.000000,22.000000,0.000000,0.000000,0.000000,0.000000,0.000000;
#CREDIT:TonyAkita;
#NOTES:
0000
0000
0000
0000
,
0000
0000
0000
0000
,
1000
1000
1000
0000
0000
0010
0100
0000
,
0001
0001
0001
0000
0000
0010
0100
2002
,
3003
0000
0000
1000
0000
1000
0000
0000
2000
0000
0000
3010
0000
0000
0000
0000
,
1001
0000
0000
0001
0000
0001
0000
0000
0002
0000
0000
0013
0000
0000
0000
0000
,
0110
0000
0000
1000
0000
1000
0000
0000
2000
0000
0000
3001
0000
0000
0000
0000
,
0001
0100
1000
0100
0001
0100
0010
0000
,
1001
0000
0000
0000
1000
0010
0001
0000
,
0011
0000
0000
0000
0001
0010
1000
0000
,
1010
0000
0000
0000
1000
0001
0100
0000
,
0010
0010
0010
0000
0000
1000
0001
0000
,
2000
0000
0000
0010
0000
3010
0000
0000
0000
0000
1000
0000
0001
0000
0000
0000
,
0002
0000
0000
0010
0000
0013
0000
0000
0000
0000
0001
0000
1000
0000
0000
0000
,
0020
0000
0000
0100
0000
0130
0000
0000
0000
0000
0001
0000
1000
0000
0000
0000
,
0100
0001
0100
1000
0100
0010
0001
0000
,
1000
0010
1000
0000
0200
0000
0310
0000
,
0001
0010
0001
0000
0200
0000
0310
0000
,
1000
0010
0001
0000
0020
0000
0130
0000
,
0001
0010
0100
1000
0001
0000
0000
0000
,
2001
0000
0000
0000
,
0020
0000
3030
0000
,
1002
0000
0000
0000
,
0020
0000
0033
0000
,
0001
0010
1000
0000
0000
0010
0100
0000
,
1000
0010
0001
0000
0000
0010
0100
0000
,
0001
0010
0100
0000
0000
1000
0001
0000
,
0011
0000
0000
0001
0000
0001
0000
0000
1010
0000
0000
1000
0000
1000
0000
0000
,
0000
0001
0001
0001
0000
1000
1000
1000
,
0000
0000
0100
0000
0010
0000
0001
1000
,
0000
0000
0000
0000
0010
0000
0000
0010
0000
0000
0010
0000
0000
0000
1000
0000
,
0001
0000
0000
0000
0010
0000
0000
0010
0000
0000
0010
0000
0000
0000
0001
0000
,
1000
2000
0000
0010
,
0000
0020
3030
0000
,
1001
0002
0000
0020
,
0033
0000
0001
0010
1000
0010
0001
0010
,
0100
0000
1001
0000
0000
0000
1000
0100
,
0010
0000
0101
0000
0000
0000
0001
0010
,
0100
0000
1010
0000
0000
0000
1000
0001
,
0010
0000
0110
0000
0000
0000
1000
0001
,
1000
0000
0000
0000
2000
0000
0000
0010
0000
3010
0000
0000
0100
0000
0001
0000
,
1000
0000
0000
0000
0002
0000
0000
0010
0000
0013
0000
0000
0100
0000
1000
0000
,
0001
0000
0000
0000
0200
0000
0000
0010
0000
0310
0000
0000
1000
0000
0010
0000
,
0001
0000
0010
1000
0010
1000
0001
0010
,
0100
1001
0000
0000
;

//---------------dance-single - ----------------
#NOTEDATA:;
#CHARTNAME:;
#STEPSTYPE:dance-single;
#DESCRIPTION:;
#CHARTSTYLE:;
#DIFFICULTY:Easy;
#METER:4;
#RADARVALUES:0.244507,0.328189,0.285258,0.136924,0.000000,150.000000,125.000000,25.000000,12.000000,0.000000,0.000000,0.000000,0.000000,0.000000,0.244507,0.328189,0.285258,0.136924,0.000000,150.000000,125.000000,25.000000,12.000000,0.000000,0.000000,0.000000,0.000000,0.000000;
#CREDIT:TonyAkita;
#NOTES:
0000
0000
0000
0000
,
0000
0000
0000
0000
,
1000
1000
1000
0000
0000
0000
1010
0000
,
0001
0001
0001
0000
0011
0000
2002
0000
,
3003
0000
0010
0000
,
1001
0000
0100
0000
,
1001
0000
0010
0000
,
1000
0000
0001
0000
0100
0100
0100
0000
,
1001
0000
0001
0100
,
1100
0000
1000
0001
,
0101
0000
0001
0010
,
0100
1000
0000
1001
,
2000
0000
3100
0000
,
0002
0000
0103
0000
,
2000
0000
3010
0000
,
0001
0010
1000
0001
,
1001
0000
0000
0000
1000
0010
1000
0000
,
0101
0000
0000
0000
0001
0010
0001
0000
,
1100
0000
0000
0000
0100
0010
0100
0000
,
0010
0000
1001
0000
,
0002
0000
0000
0000
,
0003
0000
0000
0000
,
2000
0000
0000
0000
,
3000
0000
0000
0000
,
0001
0010
1000
1001
,
1000
0010
0001
1001
,
0001
0010
0100
1001
,
0010
0000
0100
0000
0001
1000
0001
1000
,
0000
0001
0000
0010
,
0000
1000
0010
0001
,
0000
2000
0000
3000
,
1000
0002
0000
0003
,
0110
1000
0000
1000
,
0000
1000
0000
0000
,
0000
0001
0000
0001
,
0000
0000
0001
0000
0000
0000
0010
0100
,
0010
0110
0000
1000
,
0001
0101
0000
0001
,
1000
1100
0000
0100
,
0010
0000
0011
0000
0000
0000
1000
1000
,
1000
2000
3010
1001
,
0001
0002
0013
1001
,
1000
0020
0130
1001
,
0110
0000
1000
0000
0001
0000
0100
0010
,
0100
0010
0100
0000
0000
0000
0000
0000
;

//---------------dance-single - ----------------
#NOTEDATA:;
#CHARTNAME:;
#STEPSTYPE:dance-single;
#DESCRIPTION:;
#CHARTSTYLE:;
#DIFFICULTY:Beginner;
#METER:3;
#RADARVALUES:0.163005,0.201963,0.102693,0.125513,0.000000,100.000000,91.000000,9.000000,11.000000,0.000000,0.000000,0.000000,0.000000,0.000000,0.163005,0.201963,0.102693,0.125513,0.000000,100.000000,91.000000,9.000000,11.000000,0.000000,0.000000,0.000000,0.000000,0.000000;
#CREDIT:TonyAkita;
#NOTES:
0000
0000
0000
0000
,
0000
0000
0000
0000
,
1000
1000
1000
0000
,
0001
0001
0001
0000
,
1001
0000
0010
0000
,
0100
0000
0010
0000
,
0100
0000
0010
0000
,
0100
0100
0100
0000
,
1001
0000
0010
0010
,
0010
0000
1000
1000
,
1000
0000
0100
0100
,
0100
0000
0000
1001
,
0000
0000
0002
0000
,
0003
0000
2000
0000
,
3000
0000
0002
0000
,
0003
0000
1001
0000
,
1000
0000
0010
0000
,
0001
0000
0010
0000
,
1000
0000
0100
0000
,
0001
0000
0100
0000
,
2002
0000
0000
3003
,
0000
0000
0000
0000
,
0220
0000
0000
0330
,
0000
0000
0000
0000
,
1000
1000
1000
0000
,
0001
0001
0001
0000
,
0100
0100
0100
0000
,
0010
0010
0010
0010
,
0000
1000
0000
0001
,
0000
0010
0010
0010
,
0000
0002
0000
0003
,
0000
2000
0000
3000
,
0000
0100
0000
0010
,
0000
0100
0000
0000
,
0000
1000
0000
0001
,
0000
2002
0000
3003
,
0000
0110
0000
0001
,
0001
0001
0000
1000
,
1000
1000
0000
0010
,
0010
0010
0000
1001
,
0000
0100
0100
0100
,
0000
1000
1000
1000
,
0000
0010
0010
0010
,
0000
0100
0100
0100
,
0100
0100
0000
0000
;
