#TITLE:銀河鉄道999;
#SUBTITLE:;
#ARTIST:♪♪♪♪♪;
#TITLETRANSLIT:THE GALAXY EXPRESS 999;
#SUBTITLETRANSLIT:;
#ARTISTTRANSLIT:;
#GENRE:;
#CREDIT:;
#BANNER:;
#BACKGROUND:;
#LYRICSPATH:;
#CDTITLE:;
#MUSIC:THE GALAXY EXPRESS 999.ogg;
#OFFSET:-0.558457;
#SAMPLESTART:70.487999;
#SAMPLELENGTH:15.423000;
#SELECTABLE:YES;
#BPMS:0.000000=142.000000
;
#STOPS:
;
#BGCHANGES:;
#KEYSOUNDS:;
#ATTACKS:;

//---------------dance-single - ----------------
#NOTES:
     dance-single:
     :
     Hard:
     9:
     0.467403,0.478129,0.361242,0.134176,0.000000,317.000000,282.000000,35.000000,13.000000,0.000000,0.000000,0.467403,0.478129,0.361242,0.134176,0.000000,317.000000,282.000000,35.000000,13.000000,0.000000,0.000000:
0000
0000
0000
0000
,
0000
0000
0000
0000
,
1010
0000
0000
0110
0000
0001
1000
0001
,
0011
0000
0000
0110
0000
1000
0001
1000
,
0100
0010
0001
1000
0010
0100
0010
0000
,
1000
0001
0010
0100
1000
0010
0100
0001
,
2000
0010
0001
0010
,
3002
0010
1000
0010
,
1003
0000
1010
0000
0001
1000
0001
0000
,
0001
0000
0011
0000
1000
0001
1000
0000
,
1100
0001
0101
1000
,
2002
0000
3003
0000
0000
0001
1000
0001
,
0100
0010
1000
0001
0010
0100
0010
0000
,
0001
1000
0100
0010
0001
0100
0010
1000
,
0002
0100
1000
0100
,
2003
0100
0001
0100
,
3001
0000
0101
0000
1000
0001
1000
0000
,
1000
0000
1100
0000
0001
1000
0001
0000
,
0011
1000
1010
0001
,
2002
0000
3003
0000
0000
0110
0000
0000
,
1000
0010
0001
0010
1000
0010
0001
0010
,
1000
0100
0001
0100
1000
0100
0010
0000
,
0001
0001
0001
0000
1000
1000
1000
0000
,
0001
0010
0100
1000
0000
0000
1001
0000
,
0001
0010
1000
0010
0001
0010
1000
0010
,
0001
0100
1000
0100
0001
0100
0010
0000
,
1010
1000
0001
1000
0000
0001
0001
0001
,
0011
0001
1000
0001
0000
1000
1000
0000
,
0001
0000
0000
0011
0000
0000
0000
1010
,
0000
0000
0000
0000
0001
0100
0001
0100
,
0010
1000
0010
0100
0001
0000
1000
0000
,
0001
0010
0001
0010
1000
0000
0011
0000
,
1000
0010
1000
0010
0001
0000
1010
0000
,
0001
1000
0001
1000
0001
0000
2002
0000
,
0000
3003
1000
0100
,
0010
0000
0001
0000
0010
0100
0010
0100
,
1000
0001
1000
0001
0101
0000
0001
0000
,
1000
0001
1000
0000
1100
0000
1000
0000
,
0001
1000
0001
0000
1001
0000
0001
0000
,
1000
0000
0100
0010
0000
0000
0001
0000
,
1000
0000
0010
0100
0000
0001
1000
0001
,
1000
0001
1000
0001
1000
0010
1000
0010
,
0100
0001
0100
0010
0100
0001
1000
0000
,
0001
0010
0001
0010
1000
0000
0011
0000
,
1000
0010
1000
0010
0001
0000
1010
0000
,
0001
1000
0001
1000
0001
0000
1001
0000
,
0000
1000
0100
0010
0001
0010
0001
0010
,
0100
1000
0100
0010
0100
1000
0001
0000
,
1000
0100
1000
0100
0001
0000
1100
0000
,
0001
0100
0001
0100
1000
0000
0101
0000
,
1000
0001
1010
0011
,
1000
0001
0010
0000
0200
0000
1000
0000
,
0001
1000
0310
0011
,
0000
0000
2002
0000
,
0000
0000
3003
0000
;

//---------------dance-single - ----------------
#NOTES:
     dance-single:
     :
     Medium:
     7:
     0.346497,0.421879,0.258030,0.175460,0.000000,235.000000,210.000000,25.000000,17.000000,0.000000,0.000000,0.346497,0.421879,0.258030,0.175460,0.000000,235.000000,210.000000,25.000000,17.000000,0.000000,0.000000:
0000
0000
0000
0000
,
0000
0000
0000
0000
,
2000
0000
0000
3010
0000
0000
0000
0000
,
0200
0000
0000
0301
0000
0000
0000
0000
,
1000
0100
1000
0100
,
0010
0001
0010
0100
,
0020
0000
0002
0033
,
1000
0010
0001
0100
,
1000
0001
1000
0000
0010
0000
0100
0000
,
0001
1000
0001
0000
0010
0000
0100
0000
,
1000
0100
0001
0100
,
1000
2002
0000
3003
,
0001
0100
0001
0100
,
0010
1000
0010
0100
,
0020
0000
2000
3030
,
0001
0010
1000
0100
,
0001
1000
0001
0000
0010
0000
0100
0000
,
1000
0001
1000
0000
0010
0000
0100
0000
,
0001
0100
1000
0100
,
0001
0100
0010
1000
0000
1001
0000
0000
,
0001
0010
1000
0010
,
0001
0100
1000
0100
,
0001
0100
0001
0000
1000
0010
1000
0000
,
0001
0010
0100
1000
0000
0000
1001
0000
,
1000
0010
0001
0010
,
1000
0100
0001
0100
,
1000
0100
0010
0001
0000
1000
1000
1000
,
0001
0100
0010
1000
0000
0010
0100
0000
,
0001
0001
0000
0011
0000
0000
0000
1001
,
0000
0000
1000
0010
,
0100
0010
1000
0001
,
0010
0100
1000
0000
1001
0000
1010
0000
,
0010
0100
0001
0000
1001
0000
0011
0000
,
0000
0000
0010
0100
1000
0000
2002
0000
,
0000
3003
1000
0100
,
0010
0000
0001
0000
1000
0010
1000
0010
,
1000
0010
1000
0000
1010
0000
1001
0000
,
0001
1000
0011
1001
,
1000
0001
0100
0010
,
1000
0010
0200
0000
,
0002
0000
0303
0000
1001
0000
1000
0001
,
1000
0001
1000
0001
1000
0000
0010
0000
,
0100
0010
1000
0001
,
0010
0100
1000
0000
1001
0000
1010
0000
,
0010
0100
0001
0000
1001
0000
0011
0000
,
0010
0100
0010
0002
,
0000
1003
0001
0010
,
0100
0010
0001
1000
,
0010
0100
0001
0000
1001
0000
0011
0000
,
0010
0100
1000
0000
1001
0000
1010
0000
,
0010
0100
0001
1000
,
0001
0010
0020
0000
,
0200
0000
0330
1001
,
0000
0000
0220
0000
,
0000
0000
0330
0000
;

//---------------dance-single - ----------------
#NOTES:
     dance-single:
     :
     Easy:
     4:
     0.231490,0.281253,0.103212,0.299315,0.000000,157.000000,147.000000,10.000000,29.000000,0.000000,0.000000,0.231490,0.281253,0.103212,0.299315,0.000000,157.000000,147.000000,10.000000,29.000000,0.000000,0.000000:
0000
0000
0000
0000
,
0000
0000
0000
0000
,
2000
0000
3000
0000
,
0002
0000
0003
0100
,
0100
0010
1000
0001
,
0010
0010
0001
1000
,
0200
0000
0300
0010
,
0020
0000
0030
0000
,
0001
1000
0001
0100
,
0020
0000
0030
0000
,
1000
0001
1000
0100
,
0020
0000
0030
0010
,
0010
0100
1000
0001
,
0100
0100
0001
1000
,
0020
0000
0030
0100
,
0200
0000
0300
0000
,
0001
1000
0001
0010
,
0200
0000
0300
0000
,
1000
0001
1000
0010
,
0200
0300
0110
0000
,
0001
0001
0010
0100
,
1000
1000
1001
0000
,
0001
0100
1000
0100
,
0002
0000
1003
0000
,
1000
1000
0100
0010
,
0001
0001
1001
0000
,
2000
0000
3000
1010
,
0002
0000
0003
0011
,
0001
0000
0001
0000
,
1000
0000
0010
0010
,
0100
0001
1000
0001
,
0010
0010
0002
0003
,
1000
1000
0020
0030
,
0100
0010
0100
0220
,
0000
0330
1001
0000
,
0000
0000
1000
1000
,
1000
1000
0002
0003
,
0010
0100
2000
3000
,
0010
0100
0001
1000
,
0001
0010
0020
0000
,
0030
0100
0200
0000
,
0000
0300
1000
1000
,
0001
0010
0100
0010
,
0100
0100
2000
3000
,
0001
0001
0200
0300
,
0010
1000
0001
2002
,
0000
3003
0001
0001
,
1000
0010
0100
0010
,
0100
0100
0002
0003
,
1000
1000
0200
0000
,
0000
0300
0010
0100
,
0010
0100
1000
0001
,
1000
0001
0100
0110
,
0000
0000
2002
0000
,
0000
0000
3003
0000
;

//---------------dance-single - ----------------
#NOTES:
     dance-single:
     :
     Beginner:
     3:
     0.157767,0.225002,0.061927,0.134176,0.000000,107.000000,101.000000,6.000000,13.000000,0.000000,0.000000,0.157767,0.225002,0.061927,0.134176,0.000000,107.000000,101.000000,6.000000,13.000000,0.000000,0.000000:
// measure 0
0000
0000
0000
0000
,  // measure 1
0000
0000
0000
0000
,  // measure 2
2000
0000
3000
0000
,  // measure 3
0002
0000
0003
0000
,  // measure 4
0100
0100
0100
0000
,  // measure 5
0010
0010
0010
0010
,  // measure 6
0020
0000
0030
0000
,  // measure 7
0200
0000
0300
0000
,  // measure 8
0001
0000
0001
0000
,  // measure 9
0001
0000
0000
0000
,  // measure 10
1000
0000
1000
0000
,  // measure 11
1000
0000
0000
0000
,  // measure 12
0100
0100
0100
0000
,  // measure 13
0010
0010
0010
0010
,  // measure 14
0020
0000
0030
0000
,  // measure 15
0200
0000
0300
0000
,  // measure 16
1000
0000
1000
0000
,  // measure 17
1000
0000
0000
0000
,  // measure 18
0001
0000
0001
0000
,  // measure 19
0001
0000
1001
0000
,  // measure 20
1000
0000
1000
0000
,  // measure 21
0001
0000
0001
0000
,  // measure 22
0100
0000
0010
0000
,  // measure 23
0100
0000
0110
0000
,  // measure 24
0001
0000
0001
0000
,  // measure 25
1000
0000
1000
0000
,  // measure 26
0100
0100
0100
0000
,  // measure 27
0010
0010
0010
0000
,  // measure 28
0000
0000
0001
0000
,  // measure 29
1000
0000
0001
0001
,  // measure 30
0001
0000
0100
0000
,  // measure 31
0010
0000
1000
0000
,  // measure 32
0010
0000
0001
0000
,  // measure 33
0010
0000
0000
0110
,  // measure 34
0000
0000
1001
0000
,  // measure 35
0000
0000
1000
1000
,  // measure 36
1000
1000
2000
0000
,  // measure 37
3000
0000
0002
0000
,  // measure 38
0003
0000
0100
0000
,  // measure 39
0010
0000
0200
0000
,  // measure 40
0300
0000
0020
0000
,  // measure 41
0030
0000
1000
1000
,  // measure 42
1000
0000
0100
0000
,  // measure 43
0010
0000
0001
0000
,  // measure 44
0010
0000
1000
0000
,  // measure 45
0010
0000
0000
0110
,  // measure 46
0000
0000
0001
0001
,  // measure 47
0001
0000
0100
0000
,  // measure 48
0010
0000
1000
0000
,  // measure 49
0010
0000
0001
0000
,  // measure 50
0010
0000
1000
0000
,  // measure 51
0001
0000
0010
0010
,  // measure 52
0010
0010
0020
0030
,  // measure 53
0000
0000
2002
0000
,  // measure 54
0000
0000
3003
0000
;
