#TITLE:THAT'S A NO NO;
#SUBTITLE:;
#ARTIST:있지;
#TITLETRANSLIT:;
#SUBTITLETRANSLIT:;
#ARTISTTRANSLIT:ITZY;
#GENRE:K-Pop;
#CREDIT:;
#BANNER:THAT'S A NO NO.png;
#BACKGROUND:THAT'S A NO NO-bg.png;
#LYRICSPATH:;
#CDTITLE:cdtitle.png;
#MUSIC:THAT'S A NO NO.ogg;
#OFFSET:-0.373282;
#SAMPLESTART:64.309044;
#SAMPLELENGTH:17.875000;
#LASTBEATHINT:174.490952;
#SELECTABLE:YES;
#DISPLAYBPM:60.000000:120.000000;
#BPMS:0.000000=120.000000
,28.000000=180.000000
,28.375000=90.000000
,28.750000=180.000000
,29.125000=90.000000
,29.500000=180.000000
,29.750000=90.000000
,30.500000=180.000000
,31.000000=120.000000
,47.000000=180.000000
,47.500000=90.000000
,48.000000=120.000000
,51.000000=180.000000
,51.500000=90.000000
,52.000000=120.000000
,55.000000=180.000000
,55.500000=90.000000
,56.000000=120.000000
,63.000000=60.000000
,78.000000=120.000000
,79.000000=180.000000
,79.500000=90.000000
,80.000000=120.000000
,83.000000=180.000000
,83.500000=90.000000
,84.000000=120.000000
,87.000000=180.000000
,87.500000=90.000000
,88.000000=120.000000
,95.000000=180.000000
,95.500000=90.000000
,96.000000=120.000000
,99.000000=180.000000
,99.500000=90.000000
,100.000000=120.000000
,103.000000=180.000000
,103.500000=90.000000
,104.000000=120.000000
,113.000000=240.000000
,115.000000=120.000000
,117.000000=240.000000
,119.000000=120.000000
,129.000000=240.000000
,131.000000=120.000000
,133.000000=240.000000
,135.000000=120.000000
,143.000000=180.000000
,143.500000=90.000000
,144.000000=120.000000
,147.000000=180.000000
,147.500000=90.000000
,148.000000=120.000000
,151.000000=180.000000
,151.500000=90.000000
,152.000000=120.000000
,159.000000=180.000000
,159.500000=90.000000
,160.000000=120.000000
,163.000000=180.000000
,163.500000=90.000000
,164.000000=120.000000
,167.000000=180.000000
,167.500000=90.000000
,168.000000=120.000000
;
#STOPS:30.000000=0.500000,
78.000000=0.500000,
113.000000=0.125000,
113.500000=0.125000,
114.000000=0.250000,
117.000000=0.125000,
117.500000=0.125000,
118.000000=0.250000,
129.000000=0.125000,
129.500000=0.125000,
130.000000=0.250000,
133.000000=0.125000,
133.500000=0.125000,
134.000000=0.250000
;
#BGCHANGES:;
#KEYSOUNDS:;
#ATTACKS:;

//---------------dance-single - ----------------
#NOTES:
     dance-single:
     :
     Hard:
     13:
     0.538517,0.843886,0.605123,0.307521,0.267841,380.000000,319.000000,61.000000,31.000000,0.000000,0.000000,0.538517,0.843886,0.605123,0.307521,0.267841,380.000000,319.000000,61.000000,31.000000,0.000000,0.000000:
// measure 0
0000
0000
0000
0000
,  // measure 1
0000
0000
0000
0000
,  // measure 2
0000
0000
0000
0000
,  // measure 3
0000
0000
0000
0000
,  // measure 4
1000
0100
0010
0100
1000
0000
0100
0000
0010
0000
0001
0010
0100
0000
1000
0000
,  // measure 5
0010
0000
0010
1000
0000
0000
0001
0000
0010
0000
0010
0001
0000
0000
1000
0000
,  // measure 6
0001
0100
0010
0100
0001
0000
0100
0000
0010
0000
1000
0010
0100
0000
0001
0000
,  // measure 7
0101
0000
0000
1100
0000
0000
1001
0000
2002
0000
3003
0000
1000
0000
0100
0000
,  // measure 8
1000
0000
0001
0000
1000
0000
0010
0000
1010
0000
0000
0000
0001
0100
0001
0000
,  // measure 9
1000
0001
1000
0000
0001
0010
0001
0000
0011
0000
0000
0000
0001
0000
0010
0000
,  // measure 10
0110
0000
1100
0000
1000
0000
0010
0000
0110
0000
0101
0000
0100
0000
0001
1000
,  // measure 11
0100
0010
0001
0000
2000
0000
3010
0000
0002
0000
0013
0000
2001
0000
0000
0000
,  // measure 12
3001
0010
0100
0010
1000
0010
0002
0000
,  // measure 13
1003
0010
0100
0010
0001
0010
2000
0000
,  // measure 14
3010
0000
0100
0000
0001
0100
0001
0000
1000
0000
1000
0000
0100
0000
0100
0000
,  // measure 15
0010
0000
0100
0000
0010
0000
0000
0000
0001
0000
0000
0000
0001
0000
0000
0000
1001
0000
0000
0000
1001
0000
0000
0000
1000
0000
0000
1000
0000
0000
1000
0000
,  // measure 16
1000
0000
0000
0000
0000
0000
0000
0000
0010
0000
0000
0010
0000
0000
0010
0000
0010
0000
0000
0000
0000
0000
0000
0000
0100
0000
0000
0100
0000
0000
0100
0000
,  // measure 17
0100
0000
0000
0000
0000
0000
0000
0000
0001
0000
0000
1000
0000
0000
0001
0000
1000
0000
0000
0000
0000
0000
0000
0000
0001
0000
0011
0000
0110
0000
0100
0000
,  // measure 18
1000
0000
1100
0000
1001
0000
1000
0000
0001
0000
0000
0010
0000
0000
0100
0000
1000
0000
0000
0100
0000
0000
0010
0000
0001
0000
0011
0000
1001
0000
1000
0000
,  // measure 19
0010
0000
1010
0000
1001
0000
0001
0000
0101
0000
0000
1100
0000
0000
1001
0000
1001
0000
0000
0000
0000
0000
0000
0000
0002
0000
0000
0000
0000
0000
0000
0000
,  // measure 20
1003
0001
0200
0000
0301
1000
0200
0000
,  // measure 21
1300
0001
1000
0010
0001
0010
0200
0000
,  // measure 22
0301
0100
0020
0000
1030
0001
0011
0010
,  // measure 23
0110
0100
1100
1000
1001
0001
2000
0000
,  // measure 24
3001
1000
0200
0000
1300
0001
0200
0000
,  // measure 25
0301
1000
0001
0010
1000
0010
0200
0000
,  // measure 26
1300
0100
0020
0000
0031
1000
1010
0010
,  // measure 27
0110
0100
0101
0001
1001
1000
1100
0001
,  // measure 28
0101
0000
1000
0000
1010
0000
0101
0000
1010
0000
0000
0000
0101
0000
0100
0001
,  // measure 29
1000
0000
0001
1000
0100
0000
0110
0000
1001
0000
0000
0000
1000
0000
0100
0010
,  // measure 30
0001
0000
1000
0010
0200
0000
1300
0000
0200
0000
0301
0000
0100
0001
0100
0000
,  // measure 31
0101
0000
1100
0000
1000
0100
1000
0000
1100
0000
0000
0000
0011
0000
1000
0000
,  // measure 32
1010
0000
0001
0000
1100
0000
0011
0000
1100
0000
0000
0000
0011
0000
0010
0001
,  // measure 33
1000
0000
0001
1000
0010
0000
0110
0000
1001
0000
0000
0000
1000
0000
0010
0100
,  // measure 34
0001
0000
1000
0001
0020
0000
1030
0000
0020
0000
0031
0000
0010
0001
0010
0000
,  // measure 35
0011
0000
1001
0000
1000
0010
1000
0000
1010
0000
1001
0000
0002
0000
0000
0000
,  // measure 36
0103
0001
2000
0000
3100
1000
0002
0000
,  // measure 37
0013
0010
1000
0010
0100
0010
0002
0000
,  // measure 38
0013
0001
2000
0000
3010
1000
1010
0000
,  // measure 39
0011
0000
0000
0000
0010
0001
0000
1000
0001
0000
0001
0000
2000
0000
0000
0000
,  // measure 40
3010
1000
0002
0000
0013
0001
2000
0000
,  // measure 41
3010
0010
0001
0010
0100
0010
2000
0000
,  // measure 42
3100
1000
0002
0000
0103
0001
0101
0000
,  // measure 43
1100
0000
0000
0000
0001
1000
0000
1000
0001
0000
1001
0000
0000
0000
0000
0000
;

//---------------dance-single - ----------------
#NOTES:
     dance-single:
     :
     Medium:
     8:
     0.324527,0.389486,0.357122,0.347202,0.044640,229.000000,193.000000,36.000000,35.000000,0.000000,0.000000,0.324527,0.389486,0.357122,0.347202,0.044640,229.000000,193.000000,36.000000,35.000000,0.000000,0.000000:
// measure 0
0000
0000
0000
0000
,  // measure 1
0000
0000
0000
0000
,  // measure 2
0000
0000
0000
0000
,  // measure 3
0000
0000
0000
0000
,  // measure 4
1000
0010
1010
0000
0000
0000
0000
0000
,  // measure 5
1000
0000
0010
1000
0001
0000
1000
0001
,  // measure 6
0010
0001
0011
0000
0000
0000
0000
0000
,  // measure 7
0020
0000
0000
0230
0000
0000
2300
0000
0002
0000
3003
0000
1000
0000
0000
0000
,  // measure 8
0100
0000
0010
0001
1000
0000
0001
0000
,  // measure 9
0010
0000
0100
1000
0001
0000
1000
0000
,  // measure 10
1000
0010
0001
0000
0001
0010
1000
0000
,  // measure 11
1000
0010
0200
0000
0302
0000
0023
0000
,  // measure 12
0130
0010
0100
0000
0010
0000
0002
0000
,  // measure 13
1003
0001
1000
0000
0001
0000
0200
0000
,  // measure 14
0310
0100
0010
0100
0010
0000
1000
0001
,  // measure 15
1000
0000
0100
0010
0100
0000
1000
1000
,  // measure 16
1000
0000
0010
0010
0010
0000
0100
0100
,  // measure 17
0100
0000
0000
0000
0000
0000
0000
0000
0001
0000
0000
0000
1000
0000
0000
0000
0001
0000
0000
0000
0000
0000
0000
0000
1000
0000
0000
1000
0000
0000
0100
0000
,  // measure 18
1000
0000
0000
0000
0000
0000
0000
0000
0001
0000
0000
0001
0000
0000
0100
0000
0001
0000
0000
0000
0000
0000
0000
0000
1000
0000
0000
1000
0000
0000
0001
0000
,  // measure 19
1000
0000
0000
0000
0000
0000
0000
0000
0100
0000
0000
0010
0000
0000
0001
0000
1000
0000
0000
0000
0000
0000
0000
0000
2002
0000
0000
0000
0000
0000
0000
0000
,  // measure 20
3003
1000
0100
0000
0010
0000
0220
0000
,  // measure 21
0330
0010
0100
0000
1000
0000
2002
0000
,  // measure 22
3003
0001
0100
0000
0010
0000
0110
0000
,  // measure 23
1001
0110
1001
0220
,  // measure 24
0330
0100
0010
0000
1000
0000
2002
0000
,  // measure 25
3003
0001
1000
0000
0100
0000
0220
0000
,  // measure 26
0330
0010
0100
0000
1000
0000
1001
0000
,  // measure 27
0110
1001
0110
0001
,  // measure 28
0100
0000
0010
1000
1010
0000
1000
0000
,  // measure 29
0100
0000
0010
0001
0011
0000
0001
1000
,  // measure 30
0001
0000
0100
0010
0100
0000
0001
0000
,  // measure 31
1001
1000
1001
0001
,  // measure 32
0010
0000
0100
1000
1100
0000
1000
0000
,  // measure 33
0010
0000
0100
0001
0101
0000
0100
0001
,  // measure 34
0100
0000
0010
0100
0010
0000
1000
0010
,  // measure 35
1000
0000
0001
1000
0001
0000
2002
0000
,  // measure 36
3003
1000
0100
0000
0010
0000
0220
0000
,  // measure 37
0330
0010
0001
0000
1000
0000
2002
0000
,  // measure 38
3003
0001
0100
0000
0010
0000
0110
0000
,  // measure 39
0110
0110
0110
0220
,  // measure 40
0330
0010
1000
0000
0001
0000
2002
0000
,  // measure 41
3003
1000
0100
0000
0010
0000
0220
0000
,  // measure 42
0330
0010
0001
0000
1000
0000
1001
0000
,  // measure 43
1001
0000
1001
0000
2002
3003
0000
0000
;

//---------------dance-single - ----------------
#NOTES:
     dance-single:
     :
     Easy:
     5:
     0.196984,0.281295,0.128961,0.357122,0.000000,139.000000,126.000000,13.000000,36.000000,0.000000,0.000000,0.196984,0.281295,0.128961,0.357122,0.000000,139.000000,126.000000,13.000000,36.000000,0.000000,0.000000:
// measure 0
0000
0000
0000
0000
,  // measure 1
0000
0000
0000
0000
,  // measure 2
0000
0000
0000
0000
,  // measure 3
0000
0000
0000
0000
,  // measure 4
0001
0001
0000
0000
,  // measure 5
0001
0000
1001
0000
,  // measure 6
1000
1000
0000
0000
,  // measure 7
1000
0000
1001
0001
,  // measure 8
0000
0001
0000
1000
,  // measure 9
1000
1000
0000
0010
,  // measure 10
0000
0010
0000
0100
,  // measure 11
0100
0100
0000
0001
,  // measure 12
0100
0002
0003
1000
,  // measure 13
0001
2000
3000
0100
,  // measure 14
1000
0200
0300
0020
,  // measure 15
0030
0002
0003
2000
,  // measure 16
3000
0002
0003
2000
,  // measure 17
3000
0000
0001
1000
0001
0000
0100
0100
,  // measure 18
0100
0000
0010
0010
0010
0000
2000
0000
,  // measure 19
3002
0000
0013
0100
0110
0000
2000
0000
,  // measure 20
3000
0100
0010
0002
,  // measure 21
0003
0100
0010
2000
,  // measure 22
3000
0100
0010
0001
,  // measure 23
1001
1000
1001
0002
,  // measure 24
0003
1000
0010
0200
,  // measure 25
0300
0001
0010
0200
,  // measure 26
0300
1000
0001
1000
,  // measure 27
1001
0001
1001
1000
,  // measure 28
0010
0200
0300
0010
,  // measure 29
0100
0220
0330
0001
,  // measure 30
0001
1000
1000
0001
,  // measure 31
1001
1000
1001
0001
,  // measure 32
0010
0200
0300
0010
,  // measure 33
0100
0220
0330
1000
,  // measure 34
1000
0001
0001
1000
,  // measure 35
1001
0001
1001
2000
,  // measure 36
3000
0010
1000
0020
,  // measure 37
0030
1000
0001
2000
,  // measure 38
3000
0100
1000
0200
,  // measure 39
0320
0032
2003
3020
,  // measure 40
0030
0100
0001
0200
,  // measure 41
0300
0001
1000
0002
,  // measure 42
0003
1000
0100
0020
,  // measure 43
0032
0000
2003
0000
3002
0003
0000
0000
;

//---------------dance-single - ----------------
#NOTES:
     dance-single:
     :
     Beginner:
     1:
     0.100618,0.150165,0.029760,0.000000,0.000000,71.000000,68.000000,3.000000,0.000000,0.000000,0.000000,0.100618,0.150165,0.029760,0.000000,0.000000,71.000000,68.000000,3.000000,0.000000,0.000000,0.000000:
// measure 0
0000
0000
0000
0000
,  // measure 1
0000
0000
0000
0000
,  // measure 2
0000
0000
0000
0000
,  // measure 3
0000
0000
0000
0000
,  // measure 4
0001
0000
0000
0000
,  // measure 5
0000
0000
0000
0000
,  // measure 6
1000
0000
0000
0000
,  // measure 7
0000
0000
0000
0001
,  // measure 8
0000
0000
0000
0001
,  // measure 9
0000
0000
0000
1000
,  // measure 10
0000
1000
0000
0001
,  // measure 11
0000
0001
0000
1001
,  // measure 12
0000
0000
0000
1001
,  // measure 13
0000
0000
0000
1001
,  // measure 14
0000
1000
0000
0001
,  // measure 15
0000
1000
0000
0010
,  // measure 16
0000
0010
0000
0010
,  // measure 17
0000
0010
0010
0100
,  // measure 18
0000
0100
0000
0100
,  // measure 19
0100
0100
0000
0001
,  // measure 20
0000
0000
0000
0001
,  // measure 21
0000
0000
0000
1000
,  // measure 22
0000
0000
0000
1000
,  // measure 23
0000
1000
0000
1000
,  // measure 24
0000
0000
0000
1000
,  // measure 25
0000
0000
0000
0001
,  // measure 26
0000
0000
0000
0001
,  // measure 27
0000
0001
0000
0010
,  // measure 28
0010
0010
0000
0010
,  // measure 29
0010
0010
0000
0100
,  // measure 30
0000
0100
0000
1000
,  // measure 31
0000
0001
0000
0100
,  // measure 32
0100
0100
0000
0100
,  // measure 33
0100
0100
0000
0010
,  // measure 34
0000
0010
0000
1000
,  // measure 35
0000
0001
0000
1000
,  // measure 36
0000
0000
0000
0100
,  // measure 37
0000
0000
0000
0010
,  // measure 38
0000
0001
0000
1000
,  // measure 39
1000
1000
0000
0001
,  // measure 40
0000
0000
0000
0100
,  // measure 41
0000
0000
0000
0010
,  // measure 42
0000
1000
0000
0001
,  // measure 43
0001
0001
0000
0000
;
