#TITLE:Show Me;
#SUBTITLE:;
#ARTIST:Jessica Sutta;
#TITLETRANSLIT:;
#SUBTITLETRANSLIT:;
#ARTISTTRANSLIT:;
#GENRE:;
#CREDIT:hooky;
#BANNER:Show Me.png;
#BACKGROUND:Show Me-bg.png;
#LYRICSPATH:;
#CDTITLE:;
#MUSIC:Show Me.ogg;
#OFFSET:0.000000;
#SAMPLESTART:43.120007;
#SAMPLELENGTH:16.520000;
#SELECTABLE:YES;
#DISPLAYBPM:128.000000;
#BPMS:0.000000=128.000000
;
#STOPS:
;
#BGCHANGES:3.750=Show Me.avi=1.000=1=0=0=StretchNoLoop==CrossFade==,
99999=-nosongbg-=1.000=0=0=0 // don't automatically add -songbackground-
;
#KEYSOUNDS:;
#ATTACKS:;

//---------------dance-single - ----------------
#NOTES:
     dance-single:
     Expert:
     Hard:
     9:
     0.369061,0.412942,0.213590,0.162736,0.071197,254.000000,233.000000,21.000000,16.000000,0.000000,0.000000,0.369061,0.412942,0.213590,0.162736,0.071197,254.000000,233.000000,21.000000,16.000000,0.000000,0.000000:
0000
0000
0000
0000
,
0000
0000
0000
0000
,
0000
0000
0000
0000
,
1000
0000
0000
1000
0000
0000
1000
0000
,
0000
0001
0000
0000
0001
0000
0000
0001
,
0000
0010
0000
0000
0000
0000
0000
0010
0000
0000
0000
0000
0000
0010
0000
0000
,
0000
0000
0000
0100
0000
0000
0000
0000
0000
0100
0000
0000
0000
0000
0000
0000
,
1100
0000
1100
0000
0010
0100
0001
0000
,
0101
0000
0101
0000
0010
0100
0001
0000
,
0010
0010
0001
0000
0001
0001
0010
0000
,
0010
0100
1000
1000
0002
0000
1003
0000
,
0110
0000
0110
0000
0100
0001
0010
0000
,
0011
0000
0011
0000
0010
0100
1000
0000
,
1000
1000
0001
0000
0001
0001
1000
0000
,
0220
0000
0000
0330
,
0100
0101
0100
0101
,
0010
0001
1000
0000
0010
1000
0100
0000
,
1000
0000
1100
0000
0100
0000
1000
0010
,
0100
0010
0000
0010
0100
0010
0100
0000
,
0001
0000
0011
0000
0010
0100
1000
0000
,
1000
1000
0010
0000
0010
0010
0100
0000
,
0100
0001
0010
0000
0001
0000
1000
0000
,
0020
1000
0001
1030
,
0010
0100
0001
0000
0011
0000
0101
0000
,
0010
1000
0100
0000
1100
0000
1010
0000
,
0010
0100
0001
0010
0002
0000
1003
0000
,
0001
0100
0010
1000
0020
0000
0130
0000
,
0100
0100
0010
0000
0010
0010
0100
0000
,
0100
0001
0010
0100
1000
1000
0001
0000
,
2000
0000
0000
0010
3000
0000
2000
0000
0000
0000
3010
0000
0000
0000
0000
0000
,
0020
1000
0001
0130
,
0001
0100
1000
0100
0001
0000
0001
0000
,
1000
0010
0001
0010
1000
0000
1000
0000
,
1000
0010
0001
0010
1000
0100
0001
0100
,
1000
1000
0002
1003
,
0010
0100
0001
0000
0011
0000
0101
0000
,
0010
1000
0100
0000
1100
0000
1010
0000
,
0010
0000
0000
0100
0000
0000
0010
0000
0000
0000
0100
0000
0000
0000
0000
0000
,
0020
0000
0000
1000
1000
0000
1030
0000
,
0001
0000
0010
0000
1000
0000
0010
0000
0001
0000
0001
0000
0100
0000
0000
0010
,
0000
0100
0010
0000
0000
0100
0000
0000
0010
0000
1000
0000
0100
0000
0000
0000
,
1000
0100
0001
0100
1000
0010
0100
0000
,
0100
0010
0100
0001
0010
0010
0001
0000
,
1000
0000
0100
0000
0001
0000
0100
0000
1000
0000
1000
0000
0010
0000
0000
0100
,
0000
0010
0100
0000
0000
0010
0000
0000
0100
0000
0001
0000
0010
0000
0000
0000
,
0001
0010
1000
0010
0001
0100
0010
0000
,
0200
1000
0010
0301
,
0020
0000
0000
0000
,
0030
0002
0000
0000
0000
0000
0000
0003
,
0000
2000
0000
0000
0000
0000
0000
0000
0000
0000
0000
0000
0000
0000
0000
0000
,
0002
0000
0000
3003
;

//---------------dance-single - ----------------
#NOTES:
     dance-single:
     Difficult:
     Medium:
     7:
     0.257180,0.335515,0.081368,0.152565,0.010171,177.000000,169.000000,8.000000,15.000000,0.000000,0.000000,0.257180,0.335515,0.081368,0.152565,0.010171,177.000000,169.000000,8.000000,15.000000,0.000000,0.000000:
0000
0000
0000
0000
,
0000
0000
0000
0000
,
0000
0000
0000
0000
,
2000
0000
0000
0000
,
3000
0002
0000
0000
0000
0000
0000
0000
,
0003
0020
0000
0000
0000
0000
0000
0000
0000
0000
0000
0000
0000
0000
0000
0030
,
0200
0000
0000
0300
,
1000
1000
0010
0100
,
0001
0001
0010
0100
,
0010
0001
1000
0001
,
1000
1000
0001
0001
,
0100
0110
0010
1000
,
0010
0110
0100
0001
,
0010
0100
0110
0010
,
0002
0000
0000
0003
,
1000
1010
0010
0110
,
0100
0101
0001
0011
,
0010
0010
0100
0010
,
0001
0001
1000
1000
,
0001
0001
0100
0010
,
1000
1000
0100
0010
,
0100
1000
0001
1000
,
0002
0000
1003
1010
,
1000
0100
1000
1000
,
0010
0100
0001
0001
,
0010
0000
0001
0000
0010
0010
0010
0000
,
0100
0000
1000
0000
0010
0010
0010
0000
,
0100
0001
0010
0001
,
0100
0010
1000
1000
,
0100
0000
1000
0000
0100
0100
0100
0000
,
0010
0000
0001
0000
0100
0100
0100
0000
,
0001
0100
1000
0100
,
0001
0010
1000
0010
,
0001
0010
1000
0100
,
0001
0100
1000
0010
,
0001
1000
0001
0001
,
0010
0100
0010
0010
,
0002
0000
0000
0013
0000
0000
0000
0000
,
0200
0000
0000
1000
1300
0000
0010
0000
,
0010
0100
0001
0000
0010
0000
0010
0000
,
0002
0000
0013
0000
0010
0100
1000
0000
,
1000
0001
1000
1000
,
0010
0100
0001
0010
,
0100
1000
0010
0000
1000
0000
0100
0000
,
2000
0000
3010
0000
0100
0001
0010
0000
,
0001
1000
0001
0001
,
0200
0000
0010
0310
,
0200
0000
0000
0000
,
0000
0300
0020
0000
0000
0000
0000
0000
0000
0000
0000
0000
0000
0000
0000
0000
,
0030
2000
0000
0000
0000
0000
0000
0000
0000
0000
0000
0000
0000
0000
0000
0000
,
0002
0000
0000
3003
;

//---------------dance-single - ----------------
#NOTES:
     dance-single:
     Basic:
     Easy:
     4:
     0.201966,0.232280,0.000000,0.152565,0.000000,139.000000,139.000000,0.000000,15.000000,0.000000,0.000000,0.201966,0.232280,0.000000,0.152565,0.000000,139.000000,139.000000,0.000000,15.000000,0.000000,0.000000:
// measure 0
0000
0000
0000
0000
,  // measure 1
0000
0000
0000
0000
,  // measure 2
0000
0000
0000
0000
,  // measure 3
2000
0000
0000
3000
,  // measure 4
0200
0000
0000
0300
,  // measure 5
0002
0000
0000
0003
,  // measure 6
0200
0000
0000
0300
,  // measure 7
1000
1000
0001
0000
,  // measure 8
1000
1000
0001
0000
,  // measure 9
0100
0010
0100
0010
,  // measure 10
0200
0000
0020
0330
,  // measure 11
0010
0010
1000
0000
,  // measure 12
0010
0010
1000
0000
,  // measure 13
1000
1000
0100
0100
,  // measure 14
0020
0000
0001
0031
,  // measure 15
1000
0001
1000
0000
,  // measure 16
0010
0100
0001
0000
,  // measure 17
0010
0010
0100
0000
,  // measure 18
0010
0001
0010
0100
,  // measure 19
1000
1000
0010
0000
,  // measure 20
0100
0001
0010
0010
,  // measure 21
0001
0000
1000
0000
,  // measure 22
0010
0010
0010
0010
,  // measure 23
0100
0010
0100
0100
,  // measure 24
0001
0010
0100
0100
,  // measure 25
1000
0001
1000
0000
,  // measure 26
1000
0001
1000
0000
,  // measure 27
0010
0100
0001
0001
,  // measure 28
0010
0100
1000
0010
,  // measure 29
0200
0001
0301
0000
,  // measure 30
0020
0100
0130
0000
,  // measure 31
0100
0000
1000
0000
,  // measure 32
0010
0000
1000
0000
,  // measure 33
0001
0001
0001
0000
,  // measure 34
0010
0100
0010
0001
,  // measure 35
1000
1000
0001
0001
,  // measure 36
1000
0001
1000
0010
,  // measure 37
0200
0000
0301
0000
,  // measure 38
0200
0000
0010
0310
,  // measure 39
0010
1000
0100
0100
,  // measure 40
1000
0010
0100
0100
,  // measure 41
0001
0010
0100
1000
,  // measure 42
0002
0000
0100
0103
,  // measure 43
0010
0100
0001
0010
,  // measure 44
0001
0001
0010
0001
,  // measure 45
1000
0100
0010
0001
,  // measure 46
2000
0000
0010
3010
,  // measure 47
0020
0000
0000
0000
,  // measure 48
0030
0000
0000
0000
,  // measure 49
0200
0000
0000
0000
,  // measure 50
0000
0000
0000
0300
;
