#TITLE:SEVEN ~漆戒~;
#SUBTITLE:;
#ARTIST:NAOKI feat.小坂りゆ;
#TITLETRANSLIT:;
#SUBTITLETRANSLIT:;
#ARTISTTRANSLIT:NAOKI feat. Riyu Kosaka;
#GENRE:;
#CREDIT:;
#MUSIC:SEVEN.ogg;
#BANNER:;
#BACKGROUND:;
#CDTITLE:;
#SAMPLESTART:74.328;
#SAMPLELENGTH:15.000;
#SELECTABLE:YES;
#OFFSET:1.543;
#BPMS:0.000=155.000;
#STOPS:;
#BGCHANGES:;
#FGCHANGES:;

//--------------- dance-single - ----------------
#NOTES:
     dance-single:
     :
     Beginner:
     2:
     0,0,0,0,0:
0000
0000
0000
0000
,
0000
0000
0000
0000
,
0000
0000
0000
0000
,
0000
0000
0000
0000
,
0000
0000
0000
0000
,
1000
0000
0000
0000
,
0001
0000
0000
0000
,
0100
0000
0000
0000
,
0010
0000
0000
0000
,
1000
0000
1000
0000
,
0010
0000
0010
0000
,
0001
0000
0001
0000
,
0010
0000
0010
0000
,
1000
0000
1000
0000
,
0010
0000
0010
0000
,
0100
0000
0001
0000
,
2000
0000
0000
3000
,
0001
0000
0010
0000
,
0100
0000
0000
0000
,
1000
0000
0010
0000
,
0100
0000
0000
0000
,
0001
0000
0010
0000
,
0100
0000
0000
0000
,
1000
0000
1000
0000
,
0001
0000
0001
0000
,
1000
0000
0010
0000
,
0001
0000
0000
0000
,
0001
0000
0010
0000
,
1000
0000
0000
0000
,
1000
0000
0010
0000
,
0001
0000
0000
0000
,
0010
0000
0010
0000
,
0110
0000
0000
0000
,
1002
0000
0000
0000
,
0000
0000
0000
0000
,
0000
0000
0000
0000
,
0000
0000
0000
0000
,
0000
0000
0000
0000
,
0000
0000
0000
0000
,
0000
0000
0000
0000
,
0000
0000
0000
0000
,
0103
0000
0100
0000
,
1000
0000
0000
0000
,
0010
0000
0010
0000
,
0001
0000
0000
0000
,
0100
0000
0100
0000
,
1000
0000
0000
0000
,
0010
0000
0010
0000
,
0001
0000
0000
0000
,
1000
0000
0010
0000
,
0001
0000
1000
0000
,
0001
0000
0010
0000
,
1000
0000
0001
0000
,
1000
0000
0100
0000
,
0001
0000
1000
0000
,
0100
0000
0001
0000
,
1000
0000
1001
0000
,
0001
0000
0100
0000
,
0010
0000
1000
0000
,
0001
0000
0010
0000
,
0100
0000
1000
0000
,
0001
0000
0100
0000
,
0010
0000
1000
0000
,
0100
0000
0001
0000
,
0100
0000
0010
0000
,
0001
0000
0010
0000
,
0100
0000
1000
0000
,
0001
0000
0100
0000
,
0010
0000
1000
0000
,
0001
0000
0010
0000
,
0100
0000
1000
0000
,
0010
0000
0001
0000
,
0010
0000
0100
0000
,
0210
0000
0000
0000
,
0000
0000
0000
0300
,
0000
0000
0000
0000
,
0001
0000
1000
0000
,
0200
0000
0000
0000
,
0000
0000
0000
0000
,
0000
0000
0000
0000
,
0000
0000
0000
0000
,
0300
0000
0000
0000
;

//--------------- dance-single - ----------------
#NOTES:
     dance-single:
     :
     Easy:
     5:
     0,0,0,0,0:
0000
0000
0000
0000
,
0000
0000
0000
0000
,
0000
0000
0000
0000
,
0000
0000
0000
0000
,
0000
0000
0000
0000
,
1000
0000
0001
0000
,
0100
0000
0010
0000
,
1000
0000
0001
0000
,
0010
0000
0200
0000
,
1300
0000
0001
0000
,
0100
0100
1000
0000
,
0001
0000
1000
0000
,
0100
0100
0001
0000
,
1000
0000
0001
0000
,
0010
0010
1000
0000
,
0001
0000
1000
0000
,
0010
0010
0001
0000
,
1000
0010
1000
0000
,
0002
0010
0000
0003
,
1000
0010
1000
0000
,
0002
0010
0000
0003
,
1000
0100
1000
0000
,
0002
0100
0000
0003
,
0010
0010
0100
0100
,
0001
1000
0110
0000
,
0001
0010
0001
0000
,
1000
0100
0001
0000
,
1000
0010
1000
0000
,
0001
0100
1000
0000
,
0001
0100
0001
0000
,
1000
0010
0100
0000
,
0001
0001
1000
0010
,
1010
0000
0000
0000
,
0102
0000
0000
0000
,
0000
0000
0000
0000
,
0000
0000
0000
0000
,
0000
0000
0000
0000
,
0000
0000
0000
0000
,
0000
0000
0000
0000
,
0000
0000
0000
0000
,
0000
0000
0000
0000
,
2003
0000
3200
0000
,
0302
0000
0000
0000
,
2003
0000
3020
0000
,
0032
0000
0000
0000
,
2003
0000
3020
0000
,
0032
0000
0000
0000
,
2003
0000
3200
0000
,
0302
0000
0000
0000
,
1003
0100
0001
0010
,
0100
0000
0001
0001
,
1000
0010
0001
0100
,
0010
0000
0001
0001
,
1000
0100
0001
0010
,
0100
0000
0010
0010
,
1000
0000
0001
0000
,
0110
0000
1001
0000
,
1000
0010
0001
0100
,
0001
0010
1000
0000
,
0001
0010
1000
0100
,
1000
0010
0001
0000
,
1000
0010
0001
0100
,
0001
0010
1000
0000
,
0001
0010
1000
0100
,
0001
0010
0100
0000
,
1000
0100
0001
1000
,
0100
1000
0010
0000
,
0001
0100
1000
0001
,
0100
0001
0010
0000
,
1000
0100
0001
1000
,
0100
1000
0010
0000
,
0100
0001
0010
1000
,
0100
0010
0001
1000
,
0020
0000
0000
0000
,
0000
0000
0000
0030
,
0000
0000
0000
0000
,
2000
0000
3001
0200
,
0020
0000
0000
0000
,
0000
0000
0000
0000
,
0000
0000
0000
0000
,
0000
0000
0000
0000
,
0330
0000
0000
0000
;

//--------------- dance-single - ----------------
#NOTES:
     dance-single:
     :
     Medium:
     9:
     0,0,0,0,0:
0000
0000
0000
0000
,
0000
0000
0000
0000
,
0000
0000
0000
0000
,
0000
0000
0000
0000
,
0000
0000
0000
0000
,
1000
0010
0100
0001
,
1000
0100
0010
0001
,
1000
0010
0100
0001
,
1000
0000
0100
0000
0020
0000
0031
0001
,
1000
0000
0001
0100
0020
0000
0031
0000
,
0020
1000
0130
0000
,
0001
0000
1000
0100
0020
0000
1030
0000
,
0020
0001
0130
0000
,
1000
0000
0001
0100
0020
0000
0031
0000
,
0020
1000
0130
0000
,
0002
0013
2000
3100
,
0002
0010
1003
1001
,
0001
0010
0001
0000
0010
1000
0010
0000
,
0001
0010
0000
0010
0200
0000
0300
0000
,
1000
0010
1000
0000
0010
0001
0010
0000
,
1000
0010
0000
0010
0200
0000
0300
0000
,
0001
0010
0001
0000
0010
1000
0010
0000
,
0001
0010
0000
0010
0200
0000
0300
0000
,
1100
0010
0101
0010
,
1100
0010
2002
3003
,
0001
0100
0001
0000
0100
1000
0100
0000
,
0001
0100
0000
0100
0020
0000
0030
0000
,
1000
0100
1000
0000
0100
0001
0100
0000
,
1000
0100
0000
0100
0020
0000
0030
0000
,
0001
0100
0001
0000
0100
1000
0100
0000
,
0001
0100
0000
0100
0020
0000
0030
0000
,
1010
0100
0011
0100
,
1001
0000
0000
0000
,
2002
0000
0000
0000
,
0000
0000
0000
0000
,
0000
0000
0000
0000
,
0000
0000
0000
0000
,
0000
0000
0000
0000
,
0000
0000
0000
0000
,
0000
0000
0000
0000
,
0000
0000
0000
3003
,
0002
0000
0000
0100
0000
0000
0000
0000
,
2003
0000
0000
0000
,
3002
0000
0000
0010
0000
0000
0000
0000
,
2003
0000
0000
0000
,
3020
0000
0000
1000
0000
0000
0000
0000
,
0230
0000
0000
0000
,
0302
0000
0000
0100
0000
0000
0000
0000
,
2000
0000
0000
3003
,
0001
0010
0100
0000
0010
0100
1000
0000
,
2010
0001
0010
3001
,
1000
0010
0100
0000
0010
0100
0001
0000
,
0012
1000
0010
1003
,
0001
0010
0100
0000
0010
0100
1000
0000
,
2010
0001
0010
3001
,
1100
0000
0101
0000
,
1000
0000
0000
1000
0000
0000
1000
0000
0001
0000
0000
0000
0100
0000
0000
0000
,
0001
0100
0001
0000
0100
1000
0100
0000
,
1000
0010
1000
0000
0020
0000
0030
0000
,
0001
0010
0001
0000
0010
1000
0010
0000
,
1000
0100
1000
0000
0200
0000
0300
0000
,
0001
0100
0001
0000
0100
1000
0100
0000
,
1000
0010
1000
0000
0020
0000
0030
0000
,
0001
0010
0001
0000
1000
0100
1000
0000
,
0001
0010
0001
0000
1000
0000
0010
0000
,
0100
1000
0100
0000
0001
0010
0001
0000
,
0100
1000
0100
0000
0001
0000
1000
0000
,
0100
0001
0100
0000
1000
0010
1000
0000
,
0100
0001
0100
0000
1000
0000
0001
0000
,
0100
1000
0100
0000
0001
0010
0001
0000
,
0100
1000
0100
0000
0001
0000
1000
0000
,
0100
0010
0001
0000
0100
0010
1000
0000
,
0001
0000
0000
0001
0000
0000
0001
0000
0010
0000
0000
0000
0100
0000
0000
0000
,
2100
0000
0000
0000
,
0000
0000
0000
0000
,
0000
0000
0000
0000
,
3001
0000
0000
0001
0000
0000
1000
0000
0020
0000
0000
0000
0230
0000
0000
0000
,
0002
0000
0000
0000
,
0000
0000
0000
0000
,
0000
0000
0000
0000
,
0000
0000
0000
0000
,
0303
0000
0000
0000
;

//--------------- dance-single - ----------------
#NOTES:
     dance-single:
     :
     Hard:
     12:
     0,0,0,0,0:
0000
0000
0000
0000
,
0000
0000
0000
0000
,
0000
0000
0000
0000
,
0000
0000
0000
0000
,
0000
0000
0000
0000
,
1000
0010
0001
0100
,
1000
0100
0001
0010
,
1000
0010
0001
0100
,
1000
0000
0001
0000
0200
0000
0310
0100
,
0001
0000
1000
0000
0100
0001
0100
0000
,
1000
0100
2000
0000
0002
0000
3003
0000
,
1000
0000
0001
0000
0100
1000
0100
0000
,
0010
0100
0002
0000
2000
0000
3003
0000
,
0001
0000
1000
0000
0100
0001
0100
0000
,
1000
0100
2000
0000
0002
0000
3003
0000
,
1000
0010
0100
0000
0001
0100
0010
0000
,
1000
0001
0010
0100
1000
0000
1001
0000
,
0001
0100
0010
0100
1000
0100
0010
0100
,
0001
0100
0010
1000
0002
0000
0003
0000
,
1000
0100
0010
0100
0001
0100
0010
0100
,
1000
0100
0010
0001
2000
0000
3000
0000
,
0001
1000
0010
0100
1000
0100
0010
1000
,
0001
0100
0010
1000
0002
0000
0003
0000
,
1100
0011
1100
0011
,
1000
0001
0100
0010
1000
0000
1001
0000
,
0001
0010
0100
0010
1000
0010
0100
0010
,
0001
0010
0100
1000
0002
0000
0003
0000
,
1000
0010
0100
0010
0001
0010
0100
0010
,
1000
0010
0100
0001
2000
0000
3000
0000
,
0001
1000
0100
0010
1000
0010
0100
1000
,
0001
0010
0100
1000
0002
0000
0003
0000
,
1010
0000
0101
0000
1010
0000
0001
0010
,
0011
0000
0000
1000
0000
0000
0010
0000
0110
0000
0000
0000
0002
0000
0000
0000
,
2000
0000
0000
0000
,
0000
0000
0000
0000
,
0000
0000
0000
0000
,
0000
0000
0000
0003
,
0200
0000
0000
0000
,
0000
0000
0000
0000
,
0000
0000
0000
0000
,
0000
0000
0000
3000
,
0310
0001
1000
0200
0000
0000
0000
0000
,
2300
0000
0000
0001
0000
0000
0000
0000
,
3010
1000
0001
0200
0000
0000
0000
0000
,
0302
0000
0000
1000
0000
0000
0000
0000
,
0013
0001
1000
0200
0000
0000
0000
0000
,
0320
0000
0000
1000
0000
0000
0000
0000
,
0031
0010
0100
2000
0000
0000
0000
0000
,
3001
1000
0010
0200
0000
0000
0000
0000
,
0301
0100
1000
0001
0010
1000
0001
0100
,
0010
1000
0110
1001
,
1000
0100
0001
1000
0010
0001
1000
0100
,
0001
0100
1100
0011
,
0001
1000
0010
0001
1000
0001
0010
1000
,
0001
0010
0110
1001
,
1100
0000
0000
0010
0000
0000
0001
0000
0101
0000
0000
0010
0000
0000
1000
0000
,
1100
0000
0000
0011
0000
0000
1001
0000
2002
0000
0000
0000
3003
0000
0000
0000
,
1000
0000
0010
0100
0000
0000
0010
0000
0001
0000
0010
0100
0000
0000
0010
0000
,
1000
0000
0010
0100
0000
0000
0001
0000
2000
0000
0000
0000
3000
0000
0000
0000
,
0001
0000
0010
0100
0000
0000
0010
0000
1000
0000
0010
0100
0000
0000
0010
0000
,
0001
0000
0010
0100
0000
0000
1000
0000
0002
0000
0000
0000
0003
0000
0000
0000
,
1000
0000
0010
0100
0000
0000
0010
0000
0001
0000
0010
0100
0000
0000
0010
0000
,
1000
0000
0010
0100
0000
0000
0001
0000
2000
0000
0000
0000
3000
0000
0001
0010
,
0001
0000
1000
0100
0000
0000
0010
0000
0001
0000
1000
0010
0000
0000
0100
0000
,
0001
0000
1000
0100
0000
0000
0010
0000
0001
0000
1000
0000
0010
0000
0100
0000
,
0001
0000
1000
0100
0000
1000
0100
0000
1000
0000
0001
0100
0000
0001
0100
0000
,
0001
0000
1000
0100
0000
1000
0100
0000
0010
0000
0000
0000
0010
0000
0001
0000
,
1000
0000
0010
1000
0000
0010
1000
0000
0001
0000
0010
0001
0000
0010
0001
0000
,
1000
0000
0010
1000
0000
0010
1000
0000
0001
0000
0000
0000
0001
0000
0010
0000
,
0100
0000
1000
0100
0000
1000
0100
0000
1000
0000
0001
0100
0000
0001
0100
0000
,
0001
0000
1000
0100
0000
1000
0100
0000
0010
0000
0000
0000
0010
0000
0001
0000
,
1000
0000
0010
0100
0000
0010
0100
0000
0001
0000
1000
0100
0000
1000
0100
0000
,
0010
0000
0000
0010
0000
0000
0001
0000
1001
0000
0000
0000
0110
0000
0000
0000
,
2002
0000
0000
0000
,
0000
0000
0000
3003
,
0000
0000
0000
0000
,
2000
0000
0000
3200
0000
0000
0320
0000
0032
0000
0000
0000
0203
0000
0000
0000
,
2000
0000
0000
0000
,
0000
0000
0000
0000
,
0000
0000
0000
0000
,
0000
0000
0000
0000
,
3300
0000
0000
0000
;

//--------------- dance-single - ----------------
#NOTES:
     dance-single:
     :
     Challenge:
     14:
     0,0,0,0,0:
0000
0000
0000
0000
,
0000
0000
0000
0000
,
0000
0000
0000
0000
,
0000
0000
0000
0000
,
0000
0000
0000
0000
0000
0000
0000
0000
0000
0000
0000
0000
0000
0000
0010
0001
,
1000
1000
0010
0010
,
0001
0001
0100
0100
,
1000
1000
0100
0100
,
0001
0000
0001
0000
0020
0000
0130
0010
,
1000
0000
0000
0000
1000
0000
0001
0010
0200
0000
0000
0302
0000
0000
0203
0000
,
2300
0000
0000
3002
0000
0000
0203
0000
0000
0000
0000
0000
0310
0000
0100
0010
,
1000
0000
0000
0000
1000
0000
0001
0000
0020
0000
0000
2030
0000
0000
3020
0000
,
0230
0000
0000
0302
0000
0000
0203
0000
2300
0000
0000
0000
3001
0000
1000
0001
,
0100
0000
0000
0000
0100
0000
0010
0000
0002
0000
0000
0023
0000
0000
2030
0000
,
3002
0000
0000
0203
0000
0000
2300
0000
0000
0000
0000
0000
3100
0000
0010
0100
,
0002
0000
0000
2003
0000
0000
3200
0000
0302
0000
0000
2003
0000
0000
3002
0000
,
0203
0000
0000
2300
0000
0000
3001
0000
0100
0000
0010
0000
1001
0000
0000
0000
,
1000
0000
0010
0100
0010
0000
1000
0000
0001
0000
0010
0100
0010
0000
0001
0000
,
1000
0000
0100
0010
0100
0000
1000
0000
0002
0000
0000
0000
0003
0000
1000
0001
,
0100
0000
0010
0100
0010
0000
1000
0000
0001
0000
0010
0100
0020
0000
0001
0000
,
0031
0000
1000
0100
1000
0000
0001
0000
0200
0000
0000
0000
0300
0000
0010
1000
,
0001
0000
0100
0010
0100
0000
0001
0000
1000
0000
0100
0010
0100
0000
1000
0000
,
0001
0000
0010
0100
0010
0000
0001
0000
2000
0000
0000
0000
3000
0000
0010
1000
,
0001
1100
0101
1001
,
1020
0000
0000
0230
0000
0000
0302
0000
1003
0000
0000
0000
0001
0010
0100
1000
,
0001
0000
0100
1000
0100
0000
0010
0000
1000
0000
0100
0001
0100
0000
0010
0000
,
0001
0000
0100
1000
0100
0000
0010
0000
2000
0000
0000
0000
3000
0000
0010
1000
,
0001
0000
0010
1000
0010
0000
0001
0000
1000
0000
0010
0001
0010
0000
0100
0000
,
0001
0000
0010
1000
0010
0000
0100
0000
2000
0000
0000
0000
3000
0000
0100
1000
,
0001
0000
0100
1000
0100
0000
0010
0000
1000
0000
0100
0001
0100
0000
0010
0000
,
0001
0000
0100
1000
0100
0000
0010
0000
2000
0000
0000
0000
3000
0000
0010
1000
,
0001
0000
0000
0000
0011
0000
0000
0000
1010
0000
0000
0000
0110
0000
0010
0100
,
0001
0000
0000
0101
0000
0000
0110
0000
1001
0000
0000
0000
1100
0000
0000
0000
,
0022
0000
0000
0000
,
0000
0000
0000
0000
,
0000
0000
0000
0000
,
0000
0000
0000
0030
,
2000
0000
0000
0000
,
0000
0000
0000
0000
,
0000
0000
0000
0000
,
0000
0000
0000
0003
,
3020
0000
0000
0230
0000
0000
0302
0000
2003
0000
0000
3200
0000
0000
2300
0000
,
3002
0000
0010
0013
,
0002
0000
0000
0023
0000
0000
2030
0000
3002
0000
0000
0203
0000
0000
2300
0000
,
3002
0000
0100
0103
,
2000
0000
0000
3200
0000
0000
0302
0000
2003
0000
0000
3200
0000
0000
0320
0000
,
2030
0000
0010
3010
,
2000
0000
0000
3020
0000
0000
0032
0000
2003
0000
0000
3020
0000
0000
0230
0000
,
0002
0000
0000
0303
,
1000
0000
0100
0010
0100
0000
0001
0000
1000
0000
0010
0100
1000
0000
0001
0000
,
0200
1000
0010
0301
,
1000
0000
0010
0100
0010
0000
0001
0000
1000
0000
0100
0010
1000
0000
0001
0000
,
0020
0000
1000
0000
0001
0000
0130
0010
,
0001
0000
1000
0010
0100
0000
1000
0000
0001
0000
0010
0100
0001
0000
1000
0000
,
0200
0001
0010
1300
,
1001
0000
0000
0001
0000
0000
0100
0000
0110
0000
0000
1000
0000
0000
0100
0000
,
0110
0000
0000
1001
0000
0000
1010
0000
1010
0000
0000
0000
0001
0100
0010
0000
,
0100
0000
0100
0001
0000
0001
1000
0000
1000
0000
1000
0100
0000
0100
0010
0000
,
0010
0000
0010
0001
0000
0001
1000
0000
2002
0000
0000
0000
3003
0000
0000
0000
,
0010
0000
0010
1000
0000
1000
0001
0000
0001
0000
0001
0010
0000
0010
0100
0000
,
0100
0000
0100
1000
0000
1000
0001
0000
2002
0000
0000
0000
3003
0000
0000
0000
,
1000
0000
1000
0010
0000
0010
0100
0000
0100
0000
0100
0001
0000
0001
1000
0000
,
1000
0000
1000
0100
0000
0100
0010
0000
0220
0000
0000
0000
0330
0000
0010
0001
,
1000
0000
0001
0100
0000
0100
0010
0000
0010
0000
0010
1000
0000
1000
0001
0000
,
0001
0000
0001
0010
0000
0010
0100
0000
0220
0000
0000
0000
0330
0000
0000
0000
,
0010
0000
0010
0001
0000
0001
0100
0000
0100
0000
0100
1000
0000
1000
0100
0000
,
0100
0000
0100
0001
0000
0001
0010
0000
0001
0000
0010
0000
0100
0000
1000
0001
,
1000
0000
0010
1000
0000
1000
0100
0000
0100
0000
0100
0001
0000
0001
0100
0000
,
0100
0000
0100
1000
0000
1000
0010
0000
0100
0000
0100
0000
0001
0000
1000
0100
,
1000
0000
0100
1000
0000
1000
0010
0000
0010
0000
0010
0001
0000
0001
0100
0000
,
0100
0000
0100
1000
0000
1000
0010
0000
0100
0000
0001
0000
1000
0000
0010
0100
,
0010
0000
0100
0001
0000
0001
0010
0000
0010
0000
0010
1000
0000
1000
0001
0000
,
1001
0000
0000
0100
0000
0000
1000
0000
0001
0000
0000
0000
0010
0100
1000
0001
,
0020
0000
0000
0000
,
0000
0000
0000
0030
,
0000
0000
0000
0000
,
0002
0000
0000
0203
0000
0000
0320
0000
2030
0000
0000
0000
3200
0000
0000
0000
,
0002
0000
0000
0000
,
0000
0000
0000
0000
,
0000
0000
0000
0000
,
0000
0000
0000
0000
,
0303
0000
0000
0000
;
