#TITLE:Pretty Savage;
#SUBTITLE:;
#ARTIST:BLACKPINK;
#TITLETRANSLIT:;
#SUBTITLETRANSLIT:;
#ARTISTTRANSLIT:;
#GENRE:;
#CREDIT:;
#MUSIC:Pretty Savage.ogg;
#BANNER:Pretty Savage.png;
#BACKGROUND:Pretty Savage-bg.png;
#CDTITLE:./CDTITLES/NONE.PNG;
#SAMPLESTART:67.895;
#SAMPLELENGTH:15.000;
#SELECTABLE:YES;
#OFFSET:0.000;
#BPMS:0.000=152.000;
#STOPS:34.000=0.39473684210526315789473684210526
,65.000=0.39473684210526315789473684210526
,110.000=0.19736842105263157894736842105263
,110.500=0.19736842105263157894736842105263
,111.000=0.39473684210526315789473684210526
,166.000=0.39473684210526315789473684210526
,197.000=0.39473684210526315789473684210526
,228.000=0.39473684210526315789473684210526
,291.000=0.39473684210526315789473684210526
;
#BGCHANGES:0.000=Pretty Savage.avi=1.000=0=0=0=StretchNoLoop====,
99999.000=-nosongbg-=1.000=0=0=0=StretchNoLoop====
;
#FGCHANGES:;

//--------------- dance-single - t7r ----------------
#NOTES:
     dance-single:
     t7r:
     Beginner:
     2:
     0,0,0,0,0:
0000
0000
0000
0000
,
0000
0000
0000
0000
,
0000
0000
0000
0000
,
0000
0000
0000
0000
,
0000
0000
0000
0000
,
0000
0000
0000
0000
,
0000
0000
0000
0000
,
0000
0000
0000
0000
,
0000
0000
0000
1000
,
0000
0000
0001
0001
,
0000
0000
0000
0100
,
0000
0000
0010
0010
,
0000
0000
0000
1000
,
0000
0000
0010
0010
,
0000
0000
0000
0100
,
0000
0000
0001
0001
,
0000
0000
1000
0000
,
0000
0000
1000
0000
,
0000
0000
0001
0000
,
0000
0000
0001
0000
,
0000
0000
0010
0000
,
0000
0000
0010
0000
,
0000
0000
0100
0000
,
0000
0000
0000
0000
,
0000
0000
0010
0000
,
0010
0000
0010
0000
,
0000
0000
1000
0000
,
1000
0000
0000
0000
,
0001
0000
0000
0000
,
0001
0000
0001
0000
,
1000
0000
0000
0000
,
0010
0000
0000
0000
,
0100
0000
0000
0000
,
0000
0000
0000
0000
,
0010
0000
0000
0000
,
0000
0000
0000
0000
,
1000
0000
0000
0000
,
0000
0000
0000
0000
,
0001
0000
0000
0000
,
0001
0000
0000
0000
,
1000
0000
0000
0000
,
1000
0000
0000
0001
,
0000
0000
0001
0001
,
0000
0000
0000
1000
,
0000
0000
1000
1000
,
0000
0000
0000
0010
,
0000
0000
0010
0010
,
0000
0000
0000
0100
,
0000
0000
0100
0100
,
0000
0000
0010
0000
,
0000
0000
0010
0000
,
0010
0000
0100
0000
,
0000
0000
0100
0000
,
0100
0000
0001
0000
,
0000
0000
0001
0000
,
0001
0000
1000
0000
,
0000
0000
1000
0000
,
1000
0000
0000
0000
,
0000
0000
0000
0000
,
0000
0001
0000
0000
,
0000
0000
0000
0000
,
0000
0100
0000
0000
,
0000
0000
0000
0000
,
0000
0010
0000
0000
,
0000
0000
0000
0000
,
0000
1000
0000
0000
,
0000
1000
0000
0000
,
0000
0001
0000
0000
,
0000
0001
0000
0000
,
0000
0100
0000
0000
,
0000
0100
0000
0000
,
0000
0010
0000
0000
,
0000
0000
0000
0000
,
1000
0000
0000
0000
,
0000
0000
0000
0000
,
0001
0000
0000
0000
,
1000
0000
1000
0000
,
0001
0000
0000
0000
,
0000
0000
0000
0000
,
0100
0000
0100
0000
,
0010
0000
0010
0000
;

//--------------- dance-single - t7r ----------------
#NOTES:
     dance-single:
     t7r:
     Easy:
     5:
     0,0,0,0,0:
0000
0000
0000
0000
,
0000
0000
0000
0000
,
0000
0000
0000
0000
,
0000
0000
0000
0000
,
0000
0000
0000
0000
,
0000
0000
0000
0000
,
0000
0000
0000
0000
,
0000
0000
0000
0000
,
0000
0000
0000
0100
,
0010
2000
3000
0001
,
1000
0002
0003
0010
,
0100
0020
0030
0001
,
0100
0010
1000
0010
,
0100
0002
0003
1000
,
0001
2000
3000
0100
,
0010
0200
0300
1000
,
0001
1001
0010
0000
,
0010
0000
1000
0100
,
0010
0000
0001
0000
,
0001
0000
0100
0010
,
1000
0000
0001
0000
,
1000
0000
0100
1000
,
0010
0000
0100
0000
,
0010
0000
2002
0000
,
0000
3003
1000
0000
,
0001
0000
1000
0100
,
0020
0030
0001
0000
,
1000
0000
0000
0000
0010
0010
0010
0000
,
0110
0000
1001
0000
,
0100
0010
2000
3000
,
0001
0000
1000
0000
,
0001
0010
0100
0000
,
0020
0000
0000
0000
,
0032
0000
0000
0000
,
1003
0000
1000
0000
,
0001
0100
0010
0000
,
0200
0000
0000
0000
,
0320
0000
0000
0000
,
1030
0000
0100
0000
,
0001
0000
0010
0000
,
1000
0000
0100
0000
,
0010
0000
1001
0001
,
0100
0020
0030
1000
,
0100
0001
0100
1000
,
0010
0200
0300
0001
,
0010
1000
0010
0001
,
0100
0020
0030
1000
,
0100
0001
0100
0010
,
0001
0200
0300
0001
,
1000
1001
0101
0000
,
1100
0000
0001
1000
,
0010
0000
1100
0000
,
0101
0000
1000
0001
,
0100
0000
0011
0000
,
1010
0000
0001
1000
,
0010
0000
1010
0000
,
0011
0000
1000
0001
,
1001
0020
0000
0000
,
0000
0000
0000
0000
,
0000
0230
0000
0000
,
0000
2300
0000
3001
,
0000
0200
0000
0000
,
0000
0000
0000
0000
,
0000
0320
0000
0000
,
0000
2030
0000
3001
,
0000
1000
0000
0100
,
0000
0001
0000
0010
,
0000
1000
0000
0100
,
0000
0010
0000
0001
,
0000
0100
0000
1000
,
0000
0010
0000
0100
,
0000
1000
0000
0001
,
0000
0000
0000
1001
,
0010
0000
0010
0100
,
0002
0000
0103
0000
,
0010
0000
0100
0010
,
1000
0000
1001
0000
,
0200
0000
0000
0000
,
0000
0000
0310
0000
,
0001
0000
1000
0000
,
0001
0010
1000
0010
;

//--------------- dance-single - t7r ----------------
#NOTES:
     dance-single:
     t7r:
     Medium:
     7:
     0,0,0,0,0:
0000
0000
0000
0000
,
0000
0000
0000
0000
,
0000
0000
0000
0000
,
0000
0000
0000
0000
,
0000
0000
0000
0000
,
0000
0000
0000
0000
,
0000
0000
0000
0000
,
0000
0000
0000
0000
,
0000
0000
0000
0210
,
0302
0000
0023
0000
0030
0000
0001
1000
,
0002
0203
0320
2030
,
3200
0000
0320
0000
0030
0000
0100
1000
,
0020
2030
3002
0023
,
0032
0000
0203
0000
0300
0000
0001
1000
,
0002
0000
0023
0000
0230
0000
1300
0010
,
1000
0000
0001
0000
0100
0000
0001
1000
,
0001
1000
0001
0000
1002
0000
0000
0000
,
0103
0000
0010
1000
,
0100
0000
2000
0000
,
3010
0000
0100
0001
,
0010
0000
0200
0000
,
0310
0000
0001
1000
,
0100
0000
0020
0000
,
0130
0000
1000
1000
,
0002
0000
0003
0000
1000
0000
0001
0100
,
0001
0000
0000
0000
1000
0010
1000
0000
,
0002
0000
1003
0000
0001
0000
1000
0100
,
1000
0000
0000
0000
0100
0100
0100
0000
,
1100
0101
1100
0000
,
0011
1010
0011
0000
,
1000
0100
0000
0000
1000
0001
1000
0000
,
0010
0100
2002
3003
,
0020
0000
0000
0000
,
0230
0000
0000
0000
,
0301
0000
0100
0000
,
1000
0000
0010
0000
,
0200
0000
0000
0000
,
0320
0000
0000
0000
,
0031
0000
0010
0000
,
1000
0000
0100
0000
,
0001
0001
1000
1000
,
0010
0000
0110
2001
,
3200
0320
0030
0002
,
0203
2300
3200
0302
,
0203
0320
0030
2000
,
3020
0032
0023
2030
,
3200
0320
0030
0002
,
0023
2030
3020
0032
,
0203
0000
0320
0000
0030
0000
1000
0001
,
1000
0001
1000
0000
1010
0000
0011
0000
,
0000
0000
2001
0000
3010
1000
0200
0000
,
2300
3001
0011
1010
,
0000
0000
0020
0000
1030
0100
0002
0000
,
0203
1300
0101
1100
,
0000
0000
0020
0000
1030
0010
0002
0000
,
0023
0000
1030
0000
0001
0100
0001
0000
,
1000
0100
1000
0000
0001
1000
0001
1000
,
0001
0200
0000
0001
,
0000
1000
0001
0310
,
0000
0002
0000
0010
,
0000
0100
0010
1003
,
0000
0020
0000
0100
,
0000
1000
0100
0031
,
0000
2000
0000
0100
,
0000
0010
0001
3100
,
0000
1000
0100
0010
,
0000
0000
0002
0000
0000
0103
0000
0001
,
0100
0001
0010
0100
,
0000
0000
2000
0000
0000
3010
0000
1000
,
0010
1000
0100
0001
,
0000
0000
0200
0000
0000
0310
0000
0001
,
0010
0001
0100
1000
,
0000
0000
0000
0110
,
1000
0100
0002
0203
,
2300
0001
3010
0000
,
0001
0100
1000
0100
,
0002
0010
1000
0103
,
0220
0000
0000
0000
,
0000
0000
0000
0330
,
0001
0020
2030
3020
,
0031
0100
1000
0100
;

//--------------- dance-single - t7r ----------------
#NOTES:
     dance-single:
     t7r:
     Hard:
     10:
     0,0,0,0,0:
0000
0000
0000
0000
,
0000
0000
0000
0000
,
0000
0000
0000
0000
,
0000
0000
0000
0000
,
0000
0000
0000
0000
,
0000
0000
0000
0000
,
0000
0000
0000
0000
,
0000
0000
0000
0000
,
0000
0000
0000
0210
,
0301
0100
0020
0000
2030
0000
3100
1000
,
0020
0230
0302
2003
,
3001
0010
0200
0000
0320
0000
0031
0100
,
2000
3200
0302
0023
,
0031
0010
0200
0000
2300
0000
3010
1000
,
0200
0320
0032
2003
,
3001
0010
2000
0000
3020
0000
0031
0001
,
1000
1000
1001
0000
0120
0000
0000
0000
,
1030
0100
0001
0100
,
2000
3010
0210
0000
,
0301
0010
1000
0010
,
0002
0103
0120
0000
,
1030
0010
0001
0010
,
0200
0301
1000
0100
,
0001
0000
0100
0000
1000
0001
1000
0000
,
2002
3003
1100
0001
,
1000
0100
0010
0000
0001
0100
0010
1000
,
0002
1003
0101
1000
,
0001
0100
0010
0000
0100
0100
1010
0000
,
0110
0101
1100
0101
,
1001
0110
2010
3001
,
1000
0100
0000
1000
0010
0100
0001
0000
,
0100
0010
2002
3003
,
0020
0000
0000
0000
,
0230
0000
0000
0000
,
1300
1000
0001
0001
,
1000
0010
0001
0010
,
2000
0000
0000
0000
,
3002
0000
0000
0000
,
0013
0000
0100
1000
0010
0000
0100
0000
,
0001
0000
0010
0001
0100
0000
0001
0000
,
1000
0100
0001
0100
1000
0100
0010
0001
,
2000
0000
3001
1200
,
1300
0100
0002
0000
0203
0000
1300
0100
,
0002
0000
2003
0000
3010
0001
0200
0000
,
0301
0010
2000
0000
3020
0000
0031
0010
,
2000
3002
0203
2300
,
3001
0100
2000
0000
3200
0000
0301
0100
,
2000
0000
3002
0000
0013
1000
0001
0100
,
0001
0100
0010
1000
0010
1000
0001
0001
,
1000
1000
1001
0000
1100
0000
0101
0000
,
1000
0000
2100
0000
3001
0010
0200
0000
,
0320
0031
0101
1100
,
0001
0000
0102
0000
1003
0010
0200
0000
,
0320
1030
1010
0011
,
1000
0100
0002
0000
0103
1000
0001
0000
,
0101
0000
1001
0000
0001
0010
0001
0010
,
0100
1000
0100
1000
0001
0001
1000
1000
,
1001
0010
1000
0200
,
0000
1000
0000
0310
,
0000
0001
0100
0020
,
0000
1030
0100
0001
,
1000
0010
0100
2000
,
0000
0100
0000
3001
,
0000
0100
0010
2000
,
0000
3001
0100
1000
,
0001
0010
0010
0100
,
0100
0000
0001
0000
0100
0001
0000
0100
,
1000
0100
0100
0010
,
0010
0000
1000
0000
0010
0001
0000
0010
,
1000
0001
0001
0010
,
0010
0000
1000
0000
0010
0001
0000
0010
,
1000
0010
0100
1000
,
0001
0000
0000
0110
,
1001
0000
1000
0100
0020
0000
0230
0000
,
2300
0000
3001
0010
1000
0001
0200
0000
,
2300
0000
3010
1000
0200
0000
2300
0000
,
3001
0100
0000
1000
0100
0000
0001
0010
0000
1000
0010
0000
,
0002
0000
1003
0010
2000
0000
3200
0000
,
0302
0000
1003
0010
0001
1000
0020
0000
,
0230
0000
0310
1000
0020
0000
0032
0000
,
0013
1000
0000
0010
0001
0000
0010
0100
0000
0001
1000
0000
;
