#TITLE:パンリーピーポー;
#SUBTITLE:;
#ARTIST:ルゼマヨ;
#TITLETRANSLIT:Panri People;
#SUBTITLETRANSLIT:;
#ARTISTTRANSLIT:Luze vs EBIMAYO;
#GENRE:PANDA;
#CREDIT:PANDA;
#BANNER:Panri People.png;
#BACKGROUND:Panri People-bg.png;
#LYRICSPATH:;
#CDTITLE:;
#MUSIC:Panri People.ogg;
#OFFSET:0.000000;
#SAMPLESTART:14.543000;
#SAMPLELENGTH:11.640000;
#SELECTABLE:YES;
#DISPLAYBPM:165.000000;
#BPMS:0.000000=165.000000
,128.000000=82.500000
,132.000000=165.000000
,148.000000=82.500000
,156.000000=165.000000
,244.000000=660.005005
,247.000000=165.000000
;
#STOPS:244.000000=0.070000,
244.250000=0.070000,
244.500000=0.070000,
244.750000=0.070000,
245.000000=0.070000,
245.250000=0.070000,
245.500000=0.070000,
245.750000=0.070000,
246.000000=0.070000,
246.250000=0.060000,
246.500000=0.060000,
246.750000=0.060000
;
#BGCHANGES:0.000=Panri People.avi=1.000=0=0=0=StretchNoLoop====,
99999=-nosongbg-=1.000=0=0=0 // don't automatically add -songbackground-
;
#KEYSOUNDS:;
#ATTACKS:;

//---------------dance-single - ----------------
#NOTES:
     dance-single:
     :
     Hard:
     13:
     0.671074,0.862004,0.310497,0.140224,0.280449,469.000000,438.000000,31.000000,14.000000,0.000000,0.000000,0.671074,0.862004,0.310497,0.140224,0.280449,469.000000,438.000000,31.000000,14.000000,0.000000,0.000000:
// measure 0
0000
0000
0000
0000
,  // measure 1
0000
0000
0000
0000
,  // measure 2
0000
0000
0000
0000
,  // measure 3
0000
0000
0000
0000
,  // measure 4
1001
0100
0000
0100
0000
0100
0001
0010
,  // measure 5
0001
1000
0000
1000
0000
1000
0100
1000
,  // measure 6
0001
0010
0000
0010
0000
0010
0001
1000
,  // measure 7
1001
0000
0000
0000
1100
0000
0000
0000
0101
0000
0000
0000
0010
0100
0010
0000
,  // measure 8
1000
0000
0000
0000
0100
0010
0001
0000
0011
0000
0000
0000
0100
0010
1000
0000
,  // measure 9
0100
0000
0010
0001
0100
0000
0010
1000
0100
0000
0010
0000
1001
0000
0000
0000
,  // measure 10
0010
0001
0100
0001
1000
0100
1000
0001
,  // measure 11
0100
0010
1000
0100
0010
0001
0100
0001
,  // measure 12
1000
0100
1000
0010
0100
0001
0010
0001
,  // measure 13
0100
0010
1000
0100
0010
0001
0100
0001
,  // measure 14
1000
0001
1000
0001
1000
0000
0000
0000
0010
0000
1000
0000
0100
0000
1000
0000
,  // measure 15
0010
0100
0001
0100
0010
1000
0001
1000
,  // measure 16
0100
0010
0100
1000
0010
0001
0010
1000
,  // measure 17
0100
0001
0100
1000
0100
0010
0110
0000
,  // measure 18
0020
0000
0000
0000
0032
0000
0000
0000
1003
0100
1000
0000
0010
0000
0000
0000
,  // measure 19
2000
0000
0000
0000
3200
0000
0000
0000
0310
0100
0010
0000
0001
0000
0000
0000
,  // measure 20
0200
0000
0000
0000
0320
0000
0000
0000
1030
0001
1000
0000
0010
0000
0000
0000
,  // measure 21
1100
0101
0110
1001
,  // measure 22
1000
0100
0001
0100
0010
0100
1000
0001
,  // measure 23
0010
0000
0020
0000
0000
0000
0000
0000
0000
0000
0000
0000
0130
0010
0100
0010
,  // measure 24
0001
1000
0100
1000
0010
0100
0110
0000
,  // measure 25
1000
0100
0001
1000
0100
0100
1001
0000
,  // measure 26
1000
0100
0010
0000
0010
0001
0011
0000
,  // measure 27
0001
1000
0100
0000
1000
0100
1100
0000
,  // measure 28
0010
0000
1000
0001
1000
0000
0000
0000
0100
0000
0010
0000
1001
0000
0000
0000
,  // measure 29
0100
0001
0010
0001
0100
0001
0010
0000
,  // measure 30
0101
0000
0000
0000
1100
0000
0010
0100
0010
0000
0000
0000
0000
0000
0000
0000
,  // measure 31
0001
0000
0100
0000
1000
0000
0100
0000
0001
0000
1000
0001
1000
0000
0000
0000
,  // measure 32
0200
0000
0000
0000
0000
0000
0300
0000
1000
0001
0100
0010
1000
0100
0010
0000
,  // measure 33
0110
0000
0000
0000
1000
0001
1000
0001
1000
0000
0000
0000
0001
0000
0001
0000
,  // measure 34
0200
0010
0001
1300
,  // measure 35
0001
1000
0100
0001
0100
1000
0010
0001
,  // measure 36
0010
1000
0100
0010
0001
1000
1001
0000
,  // measure 37
0010
0000
0100
0000
0010
0000
1000
0000
0000
0000
0001
0000
0010
0000
0100
0000
0010
0000
0000
0010
0000
0000
0010
0000
0000
0000
0100
0000
1000
0000
0001
0000
,  // measure 38
0010
0000
0001
0000
0100
0000
0001
0000
0000
0000
1000
0000
0100
0000
1000
0000
0010
0000
0000
1000
0000
0000
0100
0000
0000
0000
0010
0000
0001
0000
1000
0000
,  // measure 39
0020
0000
1030
2000
0000
3010
0100
0002
,  // measure 40
0000
0013
0100
2000
0000
3001
0000
0011
,  // measure 41
0100
0000
1000
0000
0001
0000
0100
0000
0010
0000
1000
0000
0010
0100
0010
0100
,  // measure 42
0010
0000
0000
0000
1001
0000
0000
0000
0110
0000
0000
0000
1000
0001
0100
0000
,  // measure 43
0010
0000
0000
0000
0100
0010
1000
0000
1010
0000
0000
0000
0100
0010
0001
0000
,  // measure 44
0100
0000
0010
1000
0100
0000
0010
0001
0100
0000
0010
0000
1001
0000
0000
0000
,  // measure 45
0010
1000
0100
1000
0010
1000
0001
1000
,  // measure 46
0100
0010
0001
0100
0001
0010
0100
0010
,  // measure 47
0001
0100
1000
0100
0001
0100
1000
0100
,  // measure 48
0001
0010
0100
1000
0001
0100
0110
0000
,  // measure 49
0001
0100
1000
0100
0001
0100
0010
0100
,  // measure 50
0001
0010
0100
1000
0001
0100
0001
1000
,  // measure 51
0100
0000
0000
0000
0011
0000
0000
0100
0000
0000
0010
0000
1000
0000
0100
0000
,  // measure 52
0010
0001
0010
1000
0010
0001
1001
0000
,  // measure 53
1000
0100
1000
0100
1000
0000
0000
1000
0001
0000
0000
0001
0010
0000
0000
0010
,  // measure 54
0100
1000
0100
0001
0100
0010
0001
0100
,  // measure 55
0001
0010
0100
0010
0001
0100
1000
0100
,  // measure 56
0001
0100
0010
0100
0001
0010
0100
0000
,  // measure 57
0010
0000
0001
0010
0000
0000
0001
0000
0100
0000
0000
0000
1000
0000
0100
0000
,  // measure 58
0001
0000
1000
0000
0001
1000
0001
1000
0010
0000
0000
0100
0000
0000
0010
0000
,  // measure 59
1000
0100
0001
0100
1000
0001
0100
0001
,  // measure 60
0010
0011
0000
1010
0000
1001
0000
0100
,  // measure 61
0020
0000
0000
0130
,  // measure 62
0100
0000
0000
0100
0001
0000
1000
0000
0100
0000
0000
0100
1000
0000
0001
0000
,  // measure 63
0100
0000
0000
0100
0010
0000
1000
0000
0100
0000
0100
0000
0100
0000
0000
0000
;

//---------------dance-single - ----------------
#NOTES:
     dance-single:
     :
     Medium:
     10:
     0.452152,0.510817,0.360577,0.130208,0.000000,316.000000,280.000000,36.000000,13.000000,0.000000,0.000000,0.452152,0.510817,0.360577,0.130208,0.000000,316.000000,280.000000,36.000000,13.000000,0.000000,0.000000:
0000
0000
0000
0000
,
0000
0000
0000
0000
,
0000
0000
0000
0000
,
0000
0000
0000
0000
,
0010
0001
0000
0001
0000
0001
0000
0001
,
1000
0100
0000
0100
0000
0100
1000
0010
,
1000
0001
0000
0001
0000
0001
0000
0001
,
0100
0110
1001
0100
,
1001
0000
0110
0000
,
1001
0110
1001
0100
,
0010
0000
1000
0100
0001
0000
0100
0000
,
1000
0000
0001
0100
1000
0000
0100
0000
,
0001
0000
1000
0100
0001
0000
0100
0000
,
1000
0000
0001
0100
1000
0000
0100
0000
,
0001
1000
0100
0001
0100
0000
1000
0000
,
0001
0000
0100
0000
0001
0100
1000
0000
,
0100
0000
0001
0000
1000
0100
0001
0000
,
0010
0010
0010
1001
,
0010
0000
1001
0000
0010
0100
0010
0000
,
0100
0000
1001
0000
0010
0100
0010
0000
,
1010
0000
0011
0000
1000
0001
1000
0000
,
0010
0100
0010
1001
,
1000
1000
0100
0000
0010
0010
0001
0000
,
0100
0200
0000
0000
0000
0000
0300
0000
,
0010
0000
1100
0000
0001
0001
0001
0000
,
1000
0000
0011
0000
1000
1000
1000
0000
,
0010
0000
1001
0000
0010
0010
0010
0000
,
0100
0000
1010
0000
0001
0001
0001
0000
,
0100
0000
0011
0000
1000
1000
1000
0000
,
0010
1000
0001
0000
0001
1000
0200
0000
,
0300
0100
1001
0000
,
0001
1000
0010
0100
0001
1000
0010
0000
,
0200
0000
0010
0310
,
2200
3300
0202
0303
,
2002
0000
0000
3003
,
0010
1000
0001
0100
0010
1000
0001
0100
,
0001
1000
0100
0010
0001
0100
0010
0000
,
0100
0010
0000
0010
0000
1000
0000
1000
,
0001
0100
0000
0100
0000
0010
0000
0010
,
0100
0000
0010
0020
0000
0030
1000
2000
,
0000
3000
0001
0002
0000
0003
0010
0100
,
0010
0010
0010
0010
,
1001
0110
1001
0100
,
1010
0000
0011
0000
,
1001
0110
1001
0100
,
0001
0000
1000
0000
0001
0100
1000
0000
,
0100
0000
0001
0000
1000
0100
0001
0000
,
0100
0000
1000
0000
0001
0100
1000
0000
,
0100
0000
0001
0000
1000
0100
0001
0000
,
0100
0000
1000
0000
0001
0100
1000
0000
,
0100
0000
0001
0000
1000
0100
0001
0000
,
0100
1000
0001
0000
0100
0001
1000
0000
,
0100
0100
0010
0010
,
0001
1000
1001
0000
0100
0000
0010
0000
,
1000
0100
0001
0000
0100
0000
1000
0000
,
0001
0100
1000
0000
1000
0100
0001
0000
,
1000
0100
0001
0000
1000
0100
0001
0000
,
0100
0000
0010
0001
0100
0000
0010
0000
,
1000
0000
0100
0010
0001
0000
0100
0000
,
0001
0000
1000
0100
0010
0000
0001
0100
,
0010
0000
1000
0001
1000
0000
0001
1000
,
0020
0000
0000
0130
,
1010
0000
0101
0000
,
1001
0000
0110
0000
1000
0001
1001
0000
;

//---------------dance-single - ----------------
#NOTES:
     dance-single:
     :
     Easy:
     8:
     0.326236,0.415039,0.320513,0.120192,0.000000,228.000000,196.000000,32.000000,12.000000,0.000000,0.000000,0.326236,0.415039,0.320513,0.120192,0.000000,228.000000,196.000000,32.000000,12.000000,0.000000,0.000000:
0000
0000
0000
0000
,
0000
0000
0000
0000
,
0000
0000
0000
0000
,
0000
0000
0000
0000
,
1001
0000
0001
0100
,
0001
0010
0100
0010
,
1001
0000
0000
1000
,
1010
0100
0010
0001
,
0011
0000
1001
0000
,
0110
0100
0010
1001
,
1000
0100
1000
0000
,
0001
0100
0001
0000
,
1000
1000
0001
0001
,
1000
0001
2002
3003
,
0010
0010
0010
0000
0000
0000
0000
0000
,
1000
0100
1000
0001
,
1000
1000
0001
0001
,
0010
0100
0220
0330
,
1000
0000
1000
0000
,
0001
0000
0001
0000
,
1000
0000
0001
0000
,
0010
0010
0010
1001
,
0000
0100
0001
1000
,
2002
0000
0000
3003
,
0100
0000
0010
0000
0100
0100
0100
0000
,
1001
0000
0000
0000
0100
0100
0100
0000
,
0010
0000
0000
0000
0100
0100
0100
0000
,
0001
0000
0000
0000
0100
0100
0100
0000
,
1000
0000
0000
0000
0100
0100
0100
0000
,
0001
1000
2002
3003
,
0000
0100
1001
0000
,
1000
0000
0001
0000
1000
0001
1000
0000
,
0200
0000
0000
0300
,
0010
0000
1100
0000
,
0020
0000
0000
0030
,
0001
0100
1000
0010
,
0001
0100
0020
0030
,
1000
0000
0001
0000
,
1000
0000
0001
0000
1000
0001
1000
0001
,
0010
0000
0000
1000
0000
0000
0000
0010
,
0000
0000
0000
0001
0000
0000
1000
0000
,
0001
0001
1000
1000
,
1001
0110
1001
0000
,
1010
0000
0101
0000
,
0010
0100
0010
1001
,
1000
0100
1000
0000
,
0001
0100
0001
0000
,
1000
1000
0001
0001
,
1000
0001
1001
0100
,
0001
0010
0001
0000
,
1000
0010
1000
0000
,
0001
0001
1000
1000
,
0001
1000
1001
0010
,
0100
0100
0100
0000
0000
0000
0000
0000
,
0010
1000
0100
1000
,
0001
0100
0001
0010
,
0100
0100
0010
0010
,
0001
1000
0001
1000
,
0100
1100
0001
0101
,
1000
1100
0001
0101
,
0010
0000
1000
0000
0001
0000
1000
0001
,
0020
0000
0000
0130
,
0011
0000
1100
0000
,
1001
0110
1001
0100
;

//---------------dance-double - ----------------
#NOTES:
     dance-double:
     :
     Hard:
     13:
     0.606685,0.606596,0.370593,0.090144,0.080128,424.000000,387.000000,37.000000,9.000000,0.000000,0.000000,0.606685,0.606596,0.370593,0.090144,0.080128,424.000000,387.000000,37.000000,9.000000,0.000000,0.000000:
00000000
00000000
00000000
00000000
,
00000000
00000000
00000000
00000000
,
00000000
00000000
00000000
00000000
,
00000000
00000000
00000000
00000000
,
10010000
01000000
00000000
01000000
00000000
01000000
00000000
00010000
,
00100000
00001000
00010000
00000100
00001000
00000010
00000100
00000001
,
00000010
00000100
00000000
00000100
00000000
00000100
00000000
00001000
,
00010100
00000000
00000000
00000000
00101000
00000000
00000000
00000000
01010000
00000000
00000000
00000000
10000000
00100000
10000000
00000000
,
10010000
00000000
00110000
00000000
,
00010100
00000001
00001010
00000100
,
00000010
00000100
00000001
00000100
00001000
00010000
01000000
10000000
,
00100000
10000000
01000000
10000000
00100000
01000000
00010000
00100000
,
00001000
00100000
00001000
00010000
00001000
00010000
00000100
00001000
,
00000010
00000100
00000010
00001000
00000001
00000100
00001000
00010000
,
01000000
00100000
01000000
00100000
01000000
00000000
10000000
00000000
01000000
00000000
00100000
00000000
00010000
00000000
01000000
00000000
,
00100000
01000000
00010000
00100000
00001000
00010000
00000100
00010000
,
00001000
00010000
01000000
10000000
01000000
00100000
01000000
10000000
,
01000000
00010000
00001000
00100000
00001000
00000100
00000001
00000000
,
00000010
00000000
00000000
00000000
00000010
00000000
00000000
00000000
00001000
00000001
00001000
00000000
00000100
00000000
00000000
00000000
,
00010000
00000000
00000000
00000000
00010000
00000000
00000000
00000000
00001000
00100000
00001000
00000000
00010000
00000000
00000000
00000000
,
01000000
00000000
00000000
00000000
10000000
00000000
00000000
00000000
00010000
10000000
00010000
00000000
00100000
00000000
00000000
00000000
,
10010000
00101000
00010010
00001001
,
00000020
00000000
00000130
00001000
00010000
01000000
10000000
01000000
,
00100000
00200000
00000000
00000000
00300000
00000000
00010000
00010000
,
10000000
00000000
10010000
00000000
10000000
01000000
00010000
00000000
,
00011000
00000000
00000100
00000000
00001000
00000100
00000001
00000000
,
00001000
00000001
00001001
00000000
00000001
00000100
00001000
00000000
,
00010000
01000000
10000000
00000000
10000000
00010000
10010000
00000000
,
10000000
00000000
00010000
01000000
00010000
00000000
00000000
00000000
01000000
00000000
00001000
00000000
00011000
00000000
00000000
00000000
,
00000100
00000010
00000001
00000000
00001000
00000001
00001001
00000000
,
00010010
00000000
00000000
00000000
00000100
00010000
00000000
00000000
00001000
00100000
00000000
00000000
00000000
00000000
00000000
00000000
,
01000000
10000000
01000000
00010000
01000000
00100000
00100000
00000000
,
00002000
00000000
00000000
00000000
00010000
00100000
00013000
01000000
,
00100000
00000000
00000000
00000000
10000000
01000000
10000000
01000000
10000000
00000000
00000000
00000000
01010000
00000000
01010000
00000000
,
00100000
00000000
00001000
00010000
00000200
00000000
00000300
00000000
,
00000010
00000001
00000100
00001000
00010000
00001000
00100000
01000000
,
10000000
00010000
01000000
00001000
00010000
00000100
00011000
00000000
,
00100000
00000000
00000000
00000000
01000000
00000000
00000000
00000000
10000000
00000000
01000000
00000000
00010000
00000000
00001000
00000100
,
00000010
00000000
00000100
00000000
00000001
00000000
00000100
00000000
00001000
00010000
00100000
00010000
00001000
00000000
00000100
00000000
,
00000001
00000010
00000001
00002000
00000000
00003100
00010000
02000000
,
00000000
03100000
00001000
00020000
00000000
00031000
00000100
00000001
,
00000010
00000100
00000010
00000001
00000100
00001000
00010000
00100000
,
01000000
00101000
00010100
00011000
,
00101000
00000000
11000000
00000000
,
00101000
00000100
00000010
00001001
,
00000001
00000100
00001000
00000010
00000001
00000010
00000100
00001000
,
00010000
00001000
00100000
00001000
00010000
00000100
00010000
00001000
,
00100000
01000000
10000000
01000000
00010000
01000000
00100000
00001000
,
00010000
00000100
00001000
00000010
00010000
00001000
00100000
00010000
,
01000000
00100000
10000000
01000000
00010000
01000000
00100000
10000000
,
01000000
00010000
00001000
00000100
00001000
00010000
00100000
01000000
,
00100000
00000000
10010000
00000000
00100000
00001000
00010000
00000100
,
00001000
00000100
00000001
00000100
00001000
00010000
01000000
00010000
,
00001000
00010000
00001000
00010000
00001000
00000000
00000000
00000000
00000100
00000000
00000001
00000000
00000100
00000000
00001000
00000000
,
00010000
00100000
00001000
00010000
00001000
01000000
00010000
00100000
,
00001000
00010000
01000000
10000000
01000000
00010000
00001000
00010000
,
00000100
00001000
00000010
00000001
00000010
00001000
00010000
01000000
,
10000000
01000000
00010000
00001000
00000100
00000000
00000001
00000100
,
00001000
00010000
00100000
10000000
01000000
00000000
00100000
00010000
,
00001000
00000100
00000001
00000100
00001000
00010000
00100000
00010000
,
00001000
00000100
00001000
00010000
00100000
00001000
00000100
00001000
,
00022000
00000000
00000000
00033000
,
00101000
00000000
00010100
00000000
,
00010100
00101000
00010100
00011000
;
