#TITLE:ぱんだしんけん1、2、3;
#SUBTITLE:~ちえ!おっしょさんにはかなわないや!~;
#ARTIST:おひさまくらぶ;
#TITLETRANSLIT:Panda shinken 1,2,3;
#SUBTITLETRANSLIT:~chie! Ossho-san ni wa kanawanaiya!~;
#ARTISTTRANSLIT:Ohisama Club;
#GENRE:;
#CREDIT:PANDA & BEAR;
#BANNER:Panda Shinken 123 ~chie! Ossho-san ni wa kanawanaiya!~.png;
#BACKGROUND:Panda Shinken 123 ~chie! Ossho-san ni wa kanawanaiya!~-bg.png;
#LYRICSPATH:;
#CDTITLE:;
#MUSIC:Panda Shinken 123 ~chie! Ossho-san ni wa kanawanaiya!~.ogg;
#OFFSET:-0.040000;
#SAMPLESTART:43.654999;
#SAMPLELENGTH:12.153000;
#SELECTABLE:YES;
#BPMS:0.000000=158.000000
;
#STOPS:275.000000=0.189000
;
#BGCHANGES:0.000=Panda Shinken 123 ~chie! Ossho-san ni wa kanawanaiya!~.avi=1.000=0=0=0=StretchNoLoop====,
99999=-nosongbg-=1.000=0=0=0 // don't automatically add -songbackground-
;
#KEYSOUNDS:;
#ATTACKS:;

//---------------dance-single - ----------------
#NOTES:
     dance-single:
     :
     Hard:
     12:
     0.522454,0.616691,0.374861,0.310860,0.109715,400.000000,359.000000,41.000000,34.000000,0.000000,0.000000,0.522454,0.616691,0.374861,0.310860,0.109715,400.000000,359.000000,41.000000,34.000000,0.000000,0.000000:
// measure 0
0000
0000
0000
0000
,  // measure 1
0000
0000
0000
0000
,  // measure 2
0000
0000
0000
0000
0000
0000
0000
0001
,  // measure 3
0011
0000
0000
1000
1010
0000
0000
0100
,  // measure 4
1001
0110
2002
3003
,  // measure 5
0001
0000
0000
0001
0100
0000
0000
0000
0010
0000
1000
0000
0001
0000
0000
0000
,  // measure 6
0100
0000
0000
0100
0010
0000
0000
0000
1000
0000
0001
0000
0100
0000
0000
0000
,  // measure 7
0010
0000
0000
0010
1000
0000
0000
0000
0100
0000
0010
0000
0001
0000
0000
0000
,  // measure 8
0100
0000
0000
0100
0001
0000
0000
0000
1000
0000
0100
0000
0001
0000
0100
0000
,  // measure 9
0010
0000
0000
0010
0001
0000
0000
0000
1000
0000
0100
0000
0001
0000
0000
0000
,  // measure 10
0100
0000
0000
0100
0010
0000
0000
0000
0001
0000
0100
0000
1000
0000
0000
0000
,  // measure 11
1000
0000
0000
1000
0100
0000
0000
0000
0001
0000
0010
0000
0100
0000
0000
0000
,  // measure 12
0100
0000
0000
0100
0010
0000
0000
0000
0001
0000
0100
0000
0001
0000
0010
0000
,  // measure 13
0200
0000
0300
0100
0000
0010
0001
1000
,  // measure 14
0100
0001
0100
1000
2000
0000
3000
0000
,  // measure 15
0002
0000
0003
0001
0000
0010
0001
0100
,  // measure 16
0001
0000
0000
1000
0100
0000
0010
0000
0100
0000
0100
0000
0000
0000
0000
0000
,  // measure 17
0020
0000
0030
0010
0010
0001
1000
0100
,  // measure 18
1000
0010
0100
0001
0001
1000
0100
0000
,  // measure 19
0010
0000
0001
0100
0010
0000
1010
0000
,  // measure 20
1000
0010
0100
0001
0002
0000
0003
0000
,  // measure 21
1000
1000
0100
2000
0000
3001
0001
0010
,  // measure 22
0001
0100
0100
0001
0000
0010
0100
0000
,  // measure 23
2000
0100
0001
3100
,  // measure 24
0002
0000
1000
0000
0010
0000
0103
0100
,  // measure 25
0010
1000
1000
0020
0000
0130
0100
0001
,  // measure 26
1000
0100
0100
2000
0000
3001
0010
0000
,  // measure 27
0200
0001
1000
0301
,  // measure 28
0010
0002
0000
0000
0000
0003
1000
1000
,  // measure 29
2010
0000
3100
0020
0000
0031
0100
1000
,  // measure 30
0100
0002
0000
0013
0100
0000
1100
0000
,  // measure 31
0010
0001
0100
0001
0010
1000
0010
0001
,  // measure 32
1000
1010
0000
0001
0011
0000
0000
0000
,  // measure 33
1000
1100
0001
0101
,  // measure 34
0010
0100
2002
3003
,  // measure 35
0010
0000
0001
0100
1000
0100
0001
1000
,  // measure 36
0001
0011
1000
1100
,  // measure 37
0200
0000
0300
0000
1001
0000
0000
0010
,  // measure 38
0020
0000
0030
0000
1001
0000
0000
0100
,  // measure 39
0200
0000
0300
0001
1001
0000
0000
0010
,  // measure 40
0110
1001
0110
0000
,  // measure 41
1000
0100
0000
0000
0010
0001
0000
0000
0100
0000
0010
0000
0110
0000
0000
0000
,  // measure 42
0010
1000
0000
0000
0001
0100
0000
0000
0001
0000
1000
0000
1001
0000
0000
0000
,  // measure 43
1000
0100
0000
0000
0001
0100
0000
0000
1000
0000
0001
0000
0100
0010
0100
0000
,  // measure 44
0001
0010
0011
0000
1100
0000
1001
0000
,  // measure 45
0010
1000
0000
0000
0001
0010
0000
0000
0100
0000
1000
0000
1100
0000
0000
0000
,  // measure 46
0010
0001
0000
0000
1000
0010
0000
0000
0100
0000
0100
0000
0100
0000
0010
0000
,  // measure 47
1000
0100
0000
0000
0001
0100
0000
0000
1000
0000
0001
0000
0100
0000
0000
0000
,  // measure 48
0010
1000
0000
0000
0001
0010
0000
0000
0220
0000
0000
0000
0330
0000
0000
0000
,  // measure 49
0002
0000
0000
0003
0000
1000
2000
0000
,  // measure 50
3020
0000
0000
0100
0130
0000
0000
0000
,  // measure 51
0011
0000
1010
0000
0001
0010
0001
1000
,  // measure 52
0100
0010
0000
0100
0200
0000
0300
0000
,  // measure 53
1000
1100
0001
0101
,  // measure 54
0010
0100
2002
3003
,  // measure 55
0010
0000
0001
0010
1000
0010
0001
1000
,  // measure 56
0010
0000
0000
0100
0010
0000
0110
0000
,  // measure 57
0001
1000
0100
0000
0001
1000
0100
0000
,  // measure 58
0001
1000
0100
0001
0100
1000
0001
0000
,  // measure 59
0100
1000
0001
0000
0100
1000
0001
0000
,  // measure 60
0100
1000
0001
0100
1000
0100
0001
0100
,  // measure 61
0010
0001
1000
0010
0001
0010
1000
0100
,  // measure 62
0010
0100
1000
0010
0001
0010
1000
0100
,  // measure 63
0010
1000
0010
0001
0100
1000
0100
0001
,  // measure 64
0010
0100
1000
0010
0001
0010
1000
0100
,  // measure 65
0010
0000
0000
0000
0000
0000
0000
0100
,  // measure 66
0110
0000
0000
0000
0000
0000
0000
0001
,  // measure 67
0011
0000
0000
1000
1010
0000
0000
0100
,  // measure 68
1001
0110
2002
3003
,  // measure 69
0220
0000
0000
0000
,  // measure 70
0000
0000
0000
0000
,  // measure 71
0330
0000
0000
0000
;

//---------------dance-single - ----------------
#NOTES:
     dance-single:
     :
     Medium:
     9:
     0.425800,0.454404,0.402289,0.237716,0.000000,326.000000,282.000000,44.000000,26.000000,0.000000,0.000000,0.425800,0.454404,0.402289,0.237716,0.000000,326.000000,282.000000,44.000000,26.000000,0.000000,0.000000:
0000
0000
0000
0000
,
0000
0000
0000
0000
,
0000
0000
0000
0000
,
1001
0000
0100
0000
,
1001
0110
2002
3003
,
1000
0000
1000
0000
1000
0100
1000
0000
,
0001
0000
0001
0000
0001
0010
0001
0000
,
0100
0000
0010
0000
1000
0100
1000
0000
,
0010
0000
0100
0000
0001
0010
0001
0000
,
1000
0000
0100
0000
1000
0001
0100
0000
,
0001
0000
1000
0000
0001
0010
0100
0000
,
0010
0000
0100
0000
0010
0001
1000
0000
,
0001
1000
0001
0000
0100
0000
1001
0000
,
0020
0000
0030
0010
0000
1000
0100
0000
,
0010
0000
0001
0100
0001
0000
0000
0000
,
0020
0000
0030
0010
0000
0100
1000
0000
,
0001
1000
0100
0000
0010
0010
0000
0000
,
0200
0000
0300
0000
0100
1000
0001
0000
,
0100
0000
0001
1000
0100
0000
0100
0000
,
0010
0010
0001
0100
,
0001
1000
0100
0000
2002
0000
3003
0000
,
0020
0000
0030
2000
0000
3000
0100
0000
,
0020
0000
0030
0002
0000
0003
0100
0000
,
0020
1000
0001
1030
,
0200
0001
1000
0301
,
0200
0000
0300
0002
0000
0003
0010
0000
,
2000
0000
3000
0020
0000
0030
0001
0000
,
1001
0000
0000
1001
0000
0000
0100
0000
,
0110
0000
0000
0110
0000
0000
0010
1000
,
0001
0010
0000
0010
0001
0000
0101
0000
,
0100
0010
0000
0010
1000
0000
1010
0000
,
1000
0100
1000
0000
0001
0100
0001
0000
,
1001
0000
0100
0010
0100
0000
0000
0000
,
0010
1010
1000
1100
,
0100
0101
0001
0011
,
0010
1000
0100
0001
,
0100
1000
0001
0001
,
1001
0000
0000
0000
0000
0000
0000
0100
,
0110
0000
0000
0000
0000
0000
0000
0010
,
1001
0000
0110
0000
,
1001
0110
1001
0000
,
1000
0000
0100
0000
0010
0001
0100
0000
,
0001
0000
1000
0000
0010
1000
0100
0000
,
1000
0000
0001
0000
1000
0100
1000
0000
,
0001
0100
0001
0000
0110
0000
1001
0000
,
1000
0100
1000
0000
0010
1000
0010
0000
,
0001
0010
0001
0000
0100
0001
0100
0000
,
1000
0010
1000
0000
0010
0001
0010
0000
,
0001
0100
1000
0000
0100
0000
1001
0000
,
0020
0000
0030
0000
0000
0100
0100
0000
,
0020
0000
0030
1000
0200
0000
0300
0000
,
0010
0000
0010
0000
0001
0100
0001
0000
,
0010
0000
0100
1000
0001
0000
0000
0000
,
0001
0101
1000
1100
,
0010
1010
0100
0101
,
0001
1000
1001
0100
,
0110
0000
1000
0001
0010
0000
1001
0000
,
1000
0100
0001
0000
1000
0100
0001
0000
,
1000
0100
0001
0000
2002
0000
3003
0000
,
0001
0100
1000
0000
0001
0100
1000
0000
,
0001
0100
1000
0000
0001
0100
1000
0000
,
1000
0100
0001
0000
1000
0100
0001
0000
,
1000
0100
0001
0000
2002
0000
3003
0000
,
0001
0010
1000
0000
1000
0100
0001
0000
,
0001
0010
1000
0000
1000
0100
0001
0000
,
1001
0000
0000
0000
0000
0000
0000
0100
,
0110
0000
0000
0000
0000
0000
0000
0010
,
1001
0000
0000
0100
0110
0000
0000
0010
,
0101
1100
1001
0000
,
0220
0000
0000
0000
,
0000
0000
0000
0000
,
0330
0000
0000
0000
;

//---------------dance-single - ----------------
#NOTES:
     dance-single:
     :
     Easy:
     5:
     0.286043,0.389489,0.283431,0.228574,0.000000,219.000000,188.000000,31.000000,25.000000,0.000000,0.000000,0.286043,0.389489,0.283431,0.228574,0.000000,219.000000,188.000000,31.000000,25.000000,0.000000,0.000000:
0000
0000
0000
0000
,
0000
0000
0000
0000
,
0000
0000
0000
0000
,
1001
0000
0100
0000
,
0010
1000
0002
0003
,
1000
0000
1000
0000
,
0001
0000
0001
0000
,
1000
0000
0001
0000
,
1000
0001
1001
0000
,
0010
0000
0100
0000
,
0010
0000
0100
0000
,
0010
0010
0100
0100
,
0001
1000
1001
0000
,
1000
0000
1000
0000
,
0100
0010
0100
0000
,
0001
0000
0001
0000
,
0100
0010
0110
0000
,
0001
0000
0001
0000
,
1000
0000
1000
0000
,
0010
1000
0001
1000
,
0100
0100
0110
0000
,
0010
0000
0001
0000
,
1000
0000
0010
0000
,
0220
0000
0000
0330
,
2002
0000
0000
3003
,
1000
0000
1000
0000
,
0001
0000
0001
0000
,
0101
0000
0010
0000
,
1001
0000
0100
0000
,
1000
0000
1000
0000
,
0100
1000
0020
0030
,
0001
0100
0001
0010
,
0100
0000
0010
0010
0010
0000
0000
0000
,
1000
1000
0001
0001
,
1001
0110
2002
3003
,
1000
0100
0001
0100
,
1000
0100
0001
0100
,
1001
0000
0000
0000
0000
0000
0000
0010
,
0100
0000
0000
0000
,
2002
3003
0200
0300
,
1001
0110
2002
3003
,
1000
0100
0001
0100
,
1000
0100
0001
0100
,
1000
0010
0001
0010
,
1000
0100
1001
0000
,
1000
0100
0001
0100
,
1000
0100
0010
0100
,
0001
0100
1000
0100
,
0101
1100
1001
0000
,
0020
0000
0000
0030
,
0200
0300
2002
3003
,
0220
0330
2000
3000
,
0002
0003
2002
3003
,
1000
1000
0001
0001
,
1000
0001
1001
0000
,
0010
0010
0100
0100
,
0001
1000
0001
1000
,
0001
0100
1000
0010
,
0001
0100
1000
0010
,
0001
0100
1000
0010
,
0001
0100
1000
0001
,
1000
0100
0001
0010
,
1000
0100
0001
0010
,
1000
0100
0001
0010
,
1000
0100
0001
1000
,
1001
0000
0000
0000
,
0110
0000
0000
0000
,
1001
0000
0110
0000
,
1000
0001
1001
0000
,
0220
0000
0000
0000
,
0000
0000
0000
0000
,
0330
0000
0000
0000
;

//---------------dance-single - ----------------
#NOTES:
     dance-single:
     :
     Beginner:
     2:
     0.126695,0.189259,0.036572,0.000000,0.000000,97.000000,93.000000,4.000000,0.000000,0.000000,0.000000,0.126695,0.189259,0.036572,0.000000,0.000000,97.000000,93.000000,4.000000,0.000000,0.000000,0.000000:
0000
0000
0000
0000
,
0000
0000
0000
0000
,
0000
0000
0000
0000
,
0000
0000
0000
0000
,
0000
0000
0000
0000
,
0010
0000
0000
0000
,
1000
0000
0000
0000
,
0001
0000
0000
0000
,
0001
0000
0000
0000
,
1000
0000
0000
0000
,
1000
0000
0000
0000
,
0001
0000
0000
0000
,
1000
0000
0000
0000
,
0010
0000
0000
0000
,
0010
0000
0010
0000
,
0100
0000
0000
0000
,
0100
0000
0100
0000
,
0010
0000
0000
0000
,
0010
0000
0000
0000
,
1000
0000
0000
0000
,
1000
0000
0000
0000
,
0001
0000
0000
0000
,
0010
0000
0000
0000
,
0100
0000
0000
0000
,
0100
0000
0000
0000
,
0010
0000
0000
0000
,
0010
0000
0000
0000
,
0001
0000
0000
0000
,
1001
0000
0000
0000
,
1000
0000
0000
0000
,
1000
0000
0000
0000
,
0001
0000
0000
0000
,
0001
0000
0000
0000
,
1000
0000
1000
0000
,
0001
0000
0001
0000
,
0100
0000
0100
0000
,
0010
0000
0010
0000
,
1001
0000
0000
0000
,
0100
0000
0000
0000
,
0010
0000
0000
0000
,
0100
0000
0000
0000
,
1000
0000
1000
0000
,
0001
0000
0001
0000
,
1000
0000
0001
0000
,
1000
0000
0001
0000
,
1000
0000
1000
0000
,
0001
0000
0001
0000
,
1000
0000
1000
0000
,
0001
0000
1001
0000
,
1000
0000
0000
0000
,
0010
0000
0000
0000
,
0100
0000
0000
0000
,
0001
0000
0000
0000
,
1000
0000
1000
0000
,
0001
0000
0001
0000
,
1000
0000
0001
0000
,
1000
0000
0001
0000
,
1000
0000
0100
0000
,
0001
0000
0010
0000
,
1000
0000
0100
0000
,
0001
0000
0010
0000
,
1000
0000
0100
0000
,
0001
0000
0010
0000
,
1000
0000
0100
0000
,
0001
0000
0010
0000
,
0100
0000
0000
0000
,
0010
0000
0000
0000
,
0100
0000
0010
0000
,
1000
0000
0001
0000
,
1001
0000
0000
0000
;

//---------------dance-double - ----------------
#NOTES:
     dance-double:
     :
     Hard:
     11:
     0.530291,0.584234,0.475433,0.265145,0.000000,406.000000,354.000000,52.000000,29.000000,0.000000,0.000000,0.530291,0.584234,0.475433,0.265145,0.000000,406.000000,354.000000,52.000000,29.000000,0.000000,0.000000:
00000000
00000000
00000000
00000000
,
00000000
00000000
00000000
00000000
00000000
00000000
00000000
10000000
,
11000000
00000000
00000000
00000000
00000000
00000000
00000000
00000100
,
00001001
00000000
00000000
00100000
00101000
00000000
00000000
01000000
,
00100000
10010000
22000000
33000000
,
00100000
00010000
01000000
00000000
00001000
00010000
00000100
00000000
,
00000010
00000001
00000100
00000000
00000001
00000100
00001000
00000000
,
00100000
00010000
01000000
00000000
00100000
10000000
01000000
00000000
,
10000000
01000000
00010000
00000100
00000010
00000001
00000100
00000000
,
00001000
00010000
00001000
00000000
00010000
00000100
00000010
00000000
,
00000001
00000100
00000010
00000000
00010000
00001000
01000000
00000000
,
00100000
10000000
01000000
00000000
00100000
00010000
01000000
00000000
,
00100000
10000000
01000000
00010000
00001000
00000100
00000001
00000000
,
00000020
00000000
00000030
00000010
00000000
00000001
00001000
00000100
,
00010000
01000000
10000000
01000000
00020000
00000000
00030000
00000000
,
02000000
00000000
03000000
01000000
00000000
00010000
01000000
10000000
,
01000000
00010000
00001000
00010000
01000000
02000000
00000000
03000000
,
00020000
00000000
00030000
00010000
00010000
00001000
00000100
00000001
,
00000100
00000010
00000100
00001000
00010000
01000000
00010000
00000000
,
02000000
00000000
03000000
10000000
00100000
00000000
10100000
00000000
,
01000000
00020000
00000000
00130000
00002000
00000000
00003000
00000000
,
00000100
00000001
00000100
00000001
00000010
00000100
00000010
00000100
,
00010000
00001000
00010000
00001000
00100000
00010000
00100000
00010000
,
02000000
10000000
00010000
03100000
,
00002000
00010000
00100000
01003000
,
00100000
10000000
00100000
10000000
01000000
00100000
01000000
00100000
,
00001000
00010000
00001000
00010000
00000010
00001000
00000001
00000000
,
00000101
00000000
00000000
00001100
00000000
00000000
00011000
00000000
,
00100000
02000000
00000000
00000000
00000000
00000000
03100000
00100000
,
00200000
00000000
00300000
00011000
00000000
00000100
00000002
00000000
,
00000023
00000000
00000000
00000100
00000130
00000000
00001100
00000000
,
00010000
00001000
01000000
01000000
00010000
00100000
01000000
10000000
,
00100000
01100000
00000000
10000000
10010000
00000000
00000000
00000000
,
10010000
00101000
00010100
00000110
,
00001001
00010100
00022000
00033000
,
00100000
00000000
01000000
10000000
00010000
00000000
01000000
00100000
,
01000000
01010000
00011000
00001000
,
00001100
00000000
00000000
00000000
00001001
00000000
00000000
00000100
,
00010100
00000000
00011000
00000000
,
00101000
00000000
01010000
00000000
,
10100000
01001000
00010100
00011000
,
00001000
00100000
00001000
00010000
00000100
00001000
00000010
00010000
,
00001000
00000100
00001000
00010000
00100000
10000000
01000000
00000000
,
00010000
00001000
00000100
00000001
00000100
00001000
00010000
01000000
,
00010000
00001000
00010000
00000000
00011000
00000000
00011000
00000000
,
00000100
00001000
00000010
00001000
00010000
00100000
00001000
00010000
,
00000100
00001000
00000010
00000100
00000001
00000100
00001000
00010000
,
01000000
00100000
00010000
01000000
00001000
00010000
00000100
00010000
,
00001000
00100000
00010000
01000000
00002000
00000000
00003000
00000000
,
00020000
00000000
00030000
01000000
,
21000000
00000000
00000000
00100000
30100000
00000000
00000000
00000000
,
01000000
00000000
00001000
00010000
00001000
00100000
00010000
00000000
,
01000000
00001000
00022000
00033000
,
00101000
00101000
01100000
01100000
,
11000000
11000000
20020000
30030000
,
00011000
00000000
00001000
00000100
00000001
00000000
00000010
00000100
,
00020000
00000000
00030000
01000000
01000000
00000000
01100000
00000000
,
10000000
01000000
00010000
00000000
00001000
00000100
00000001
00000000
,
00000001
00000100
00001000
00000100
00001000
00010000
01000000
00000000
,
10000000
01000000
00010000
00000000
00001000
00000100
00000010
00000000
,
00000100
00001000
00010000
00001000
00100000
00010000
01000000
00000000
,
00100000
10000000
01000000
00010000
00001000
00000100
00001000
00010000
,
01000000
00100000
00010000
01000000
00100000
10000000
01000000
00010000
,
00001000
00000100
00000001
00000010
00000100
00010000
01000000
10000000
,
00100000
01000000
00001000
00100000
00010000
01000000
00001000
00010000
,
00011000
00000000
00000000
00000000
00000000
00000000
00000000
00000010
,
00010010
00000000
00000000
00000000
00000000
00000000
00000000
01000000
,
01001000
00000000
00000000
00100000
10100000
00000000
00000000
10000000
,
10010000
00011000
00000200
00000300
,
00002002
00000000
00000000
00000000
,
00000000
00000000
00000000
00000000
,
00003003
00000000
00000000
00000000
;
