#VERSION:0.83;
#TITLE:Naturally (Ralphi Rosario Remix);
#SUBTITLE:;
#ARTIST:Selena Gomez & the Scene;
#TITLETRANSLIT:;
#SUBTITLETRANSLIT:;
#ARTISTTRANSLIT:;
#GENRE:;
#ORIGIN:;
#CREDIT:hooky;
#BANNER:Naturally (Ralphi Rosario Remix).png;
#BACKGROUND:Naturally (Ralphi Rosario Remix)-bg.png;
#PREVIEWVID:;
#JACKET:Naturally (Ralphi Rosario Remix)-jacket.png;
#CDIMAGE:;
#DISCIMAGE:;
#LYRICSPATH:;
#CDTITLE:cdtitle.png;
#MUSIC:Naturally (Ralphi Rosario Remix).ogg;
#OFFSET:0.000000;
#SAMPLESTART:60.910000;
#SAMPLELENGTH:17.120001;
#SELECTABLE:YES;
#DISPLAYBPM:130.000000;
#BPMS:0.000=130.000;
#STOPS:;
#DELAYS:;
#WARPS:;
#TIMESIGNATURES:0.000=4=4;
#TICKCOUNTS:0.000=4;
#COMBOS:0.000=1;
#SPEEDS:0.000=1.000=0.000=0;
#SCROLLS:0.000=1.000;
#FAKES:;
#LABELS:0.000=Song Start;
#BGCHANGES:3.500=Naturally (Ralphi Rosario Remix).avi=1.000=0=0=0=StretchNoLoop==CrossFade_Fastest==,
99999=-nosongbg-=1.000=0=0=0 // don't automatically add -songbackground-
;
#KEYSOUNDS:;
#ATTACKS:
;

//---------------dance-single - ----------------
#NOTEDATA:;
#CHARTNAME:;
#STEPSTYPE:dance-single;
#DESCRIPTION:;
#CHARTSTYLE:;
#DIFFICULTY:Hard;
#METER:11;
#RADARVALUES:0.454819,0.542867,0.027211,0.081634,0.195015,351.000000,348.000000,3.000000,9.000000,0.000000,0.000000,0.000000,0.000000,0.000000,0.454819,0.542867,0.027211,0.081634,0.195015,351.000000,348.000000,3.000000,9.000000,0.000000,0.000000,0.000000,0.000000,0.000000;
#CREDIT:hooky;
#DISPLAYBPM:130.000000;
#NOTES:
// measure 0
0000
0000
0000
0000
,  // measure 1
0000
0000
0000
0000
,  // measure 2
0000
0000
0000
0000
,  // measure 3
0000
0000
0000
0000
,  // measure 4
0000
0000
0000
0000
,  // measure 5
1000
0001
0000
0001
1000
0000
0000
0100
0000
0000
0100
0000
1000
0000
0000
0000
,  // measure 6
0010
0100
0000
0100
0001
0000
0000
0010
0000
0000
0010
0000
0001
0000
0000
0000
,  // measure 7
0010
0100
0000
0100
0010
0000
0000
0010
0000
0000
0001
0000
1000
0000
0000
0000
,  // measure 8
2002
0000
0000
3003
,  // measure 9
0001
0100
0010
0000
0001
0100
0010
0100
,  // measure 10
0010
1000
0100
1000
0001
0001
1000
0000
,  // measure 11
0100
1000
0010
0000
0100
1000
0010
0000
,  // measure 12
0010
0100
0001
0010
0000
0001
0001
0000
,  // measure 13
1000
1000
0001
0000
1000
1000
0001
0000
,  // measure 14
0200
0000
0310
0000
0010
1000
0100
0000
,  // measure 15
0010
0001
0100
0000
0001
0001
1000
0000
,  // measure 16
0100
0010
0001
0000
0001
1000
0100
0000
,  // measure 17
1000
0100
1000
0010
1000
0001
1000
0000
,  // measure 18
0010
0100
0001
0100
0010
0010
0100
0000
,  // measure 19
0100
0001
0010
0000
0010
0001
1000
0000
,  // measure 20
1000
0010
0001
0010
1000
1000
0100
0000
,  // measure 21
1000
1000
0100
0000
1000
1000
0001
0000
,  // measure 22
0100
0100
0010
0000
0010
0100
0001
0001
,  // measure 23
0020
1000
0001
0130
,  // measure 24
1000
0010
0100
0000
0100
0001
0010
0010
,  // measure 25
0002
0100
1000
0103
,  // measure 26
0200
0010
1000
0301
,  // measure 27
0010
0001
0010
0001
0010
0001
0010
0001
,  // measure 28
0100
0010
1000
0010
1000
0010
1000
0010
,  // measure 29
1000
0100
1000
0000
0010
0100
0001
0000
,  // measure 30
0010
0100
0001
0000
0100
1000
0010
0000
,  // measure 31
0220
0000
0000
0000
,  // measure 32
0000
0000
0000
0330
,  // measure 33
1000
0000
1000
0000
0001
0000
0000
0000
1000
0000
1000
0000
0001
0000
0100
0001
,  // measure 34
0100
0000
0001
0000
0010
0000
0001
0000
1000
0000
1000
0000
0001
0000
1000
0100
,  // measure 35
1000
0010
0100
0010
1000
1000
0001
0001
,  // measure 36
1000
0100
1000
0010
0100
0100
0001
0000
,  // measure 37
0001
0000
0100
0000
0001
0000
0010
0000
0001
0000
1000
0000
0001
0000
1000
0100
,  // measure 38
1000
0000
0001
0000
0001
0000
0100
0010
0100
0000
0010
0000
1000
0000
0100
1000
,  // measure 39
0010
0100
0001
0010
0001
0001
0100
0100
,  // measure 40
0001
0010
0100
0010
0001
0001
1000
0010
,  // measure 41
0100
0010
0000
0010
0100
0000
0000
0010
0000
0000
1000
0000
0001
0000
0000
0000
,  // measure 42
0001
1000
0000
1000
0001
0000
0000
0100
0000
0000
0100
0000
0010
0000
0000
0000
,  // measure 43
1000
0010
0000
1000
0010
0000
0000
0010
0000
0000
0100
0000
0001
0000
0000
0000
,  // measure 44
0010
0001
0000
0010
0001
0000
0000
0001
0000
0000
0010
0000
0100
0000
0000
0000
,  // measure 45
0010
0001
0100
0001
0010
0010
0100
0000
,  // measure 46
0100
1000
0010
0100
0001
0001
1000
0000
,  // measure 47
1000
1000
0100
0000
0010
0001
0100
0100
,  // measure 48
0020
1000
0001
1030
,  // measure 49
0100
1000
0000
0100
1000
0000
0000
0001
0000
0000
1000
0000
0010
0000
0100
0010
,  // measure 50
0100
0000
0010
0000
0100
0000
0001
0010
0100
0000
0100
0000
1000
0000
0010
0100
,  // measure 51
0001
0000
0001
0000
0010
0000
0010
0001
1000
0000
1000
0000
0001
0000
0001
0000
,  // measure 52
1000
0010
0000
0010
0100
0000
0000
0100
0000
0000
0001
0000
0001
0000
0000
0000
,  // measure 53
0010
0001
0000
0010
0001
0000
0000
1000
0000
0000
0001
0000
0100
0000
0010
0100
,  // measure 54
0010
0000
0100
0000
0010
0000
1000
0100
0010
0000
0010
0000
0001
0000
0100
0010
,  // measure 55
1000
0000
1000
0000
0100
0000
0100
1000
0001
0000
0001
0000
1000
0000
1000
0000
,  // measure 56
0001
0000
1000
0001
1000
0000
0010
0000
,  // measure 57
0110
0000
0000
0000
;

//---------------dance-single - ----------------
#NOTEDATA:;
#CHARTNAME:;
#STEPSTYPE:dance-single;
#DESCRIPTION:;
#CHARTSTYLE:;
#DIFFICULTY:Medium;
#METER:9;
#RADARVALUES:0.325241,0.361911,0.072564,0.190480,0.000000,251.000000,243.000000,8.000000,21.000000,0.000000,0.000000,0.000000,0.000000,0.000000,0.325241,0.361911,0.072564,0.190480,0.000000,251.000000,243.000000,8.000000,21.000000,0.000000,0.000000,0.000000,0.000000,0.000000;
#CREDIT:;
#DISPLAYBPM:130.000000;
#NOTES:
0000
0000
0000
0000
,
0000
0000
0000
0000
,
0000
0000
0000
0000
,
0000
0000
0000
0000
,
0000
0000
0000
0000
,
1000
0100
1000
1000
,
0010
0100
0001
0100
,
0001
0010
0100
0100
,
0022
0000
0000
0033
,
1100
0000
1010
0000
0010
0100
0001
0000
,
0010
0100
1000
0000
2000
0000
3001
0000
,
0001
0100
0010
0010
,
0100
0001
0010
0100
,
2000
0100
3100
0000
,
2000
0010
3010
0000
,
0200
0001
0301
0000
,
0002
0010
0013
0000
,
0010
0100
1000
0000
0010
0000
0010
0000
,
0100
0010
0110
0000
,
0100
0001
0010
0000
0010
0000
0100
0000
,
0010
0010
0002
1003
,
2000
3100
2000
3001
,
2000
3010
0020
0130
,
0100
0001
0010
0000
0010
0100
1000
0000
,
2000
0000
3001
0000
0002
1000
1003
0000
,
1000
0100
1000
0000
0100
0000
0100
0000
,
1000
0010
0100
0000
0001
0000
0001
0000
,
0100
0010
0001
0000
0010
0000
0010
0000
,
1000
0100
0010
0000
0001
0000
0001
0000
,
1000
0001
1000
0001
1000
0000
1000
0000
,
0010
0100
0010
0100
0010
0000
0010
0000
,
0220
0000
0000
0000
,
0000
0000
0000
0330
,
1001
0000
1010
0000
0010
1000
0100
0000
,
1000
1000
0100
0000
0010
0001
0100
0000
,
0002
1003
2000
3100
,
0010
0010
0010
0000
0010
0000
0001
0000
,
1000
1000
0001
0001
,
0010
0000
0100
0000
0010
0001
1000
0000
,
0001
0001
1000
0000
1000
1000
0001
0000
,
0200
0010
1000
0301
,
0010
0100
1000
0000
1000
0010
0100
0000
,
0001
0001
1000
0000
1000
1000
0001
0000
,
0100
0100
0010
0000
0010
0010
0100
0000
,
0002
0100
0010
1003
,
0100
0010
0001
0000
0001
0100
0010
0000
,
1000
1000
0001
0000
0001
0001
1000
0000
,
0010
0010
0100
0000
0100
0100
0010
0000
,
2000
0010
0100
3001
,
0001
0100
0010
0000
0001
0100
0010
0000
,
0010
1000
0100
0000
0010
1000
0100
0000
,
1000
0100
0010
0000
1000
0100
0010
0000
,
0001
0001
1000
0000
1000
1000
0001
0000
,
1000
0010
0100
0000
1000
0010
0100
0000
,
0100
0001
0010
0000
0100
0001
0010
0000
,
0001
0010
0100
0000
0001
0010
0100
0000
,
1000
0000
0001
1000
0001
0000
0001
0000
,
1001
0000
0000
0000
;

//---------------dance-single - ----------------
#NOTEDATA:;
#CHARTNAME:;
#STEPSTYPE:dance-single;
#DESCRIPTION:;
#CHARTSTYLE:;
#DIFFICULTY:Easy;
#METER:4;
#RADARVALUES:0.200846,0.336061,0.045352,0.126986,0.000000,155.000000,150.000000,5.000000,14.000000,0.000000,0.000000,0.000000,0.000000,0.000000,0.200846,0.336061,0.045352,0.126986,0.000000,155.000000,150.000000,5.000000,14.000000,0.000000,0.000000,0.000000,0.000000,0.000000;
#CREDIT:;
#DISPLAYBPM:130.000000;
#NOTES:
0000
0000
0000
0000
,
0000
0000
0000
0000
,
0000
0000
0000
0000
,
0000
0000
0000
0000
,
0000
0000
0000
0000
,
1000
0001
1000
1000
,
0010
0100
0010
0010
,
0100
0001
0010
0100
,
2000
0000
0000
3000
,
0001
1000
0001
0000
,
0100
0001
0010
0000
,
0010
0010
0100
0000
,
0100
0100
0010
0000
,
0002
1000
0010
0103
,
2000
0100
0010
3001
,
1000
1000
0001
0000
,
0100
0001
0010
0000
,
0010
0100
0010
0000
,
0010
0001
1000
0000
,
0010
0010
0100
0100
,
0010
0100
0010
0000
,
0010
1000
0100
0000
,
0010
0001
0100
0001
,
0010
0010
0100
0000
,
0100
1000
0001
0000
,
2000
0000
0000
3000
,
0002
0000
0000
0003
,
0200
0000
0000
0300
,
0020
0000
0000
0030
,
0200
0000
0000
0300
,
0002
0000
0000
0003
,
0020
0000
0000
0000
,
0000
0000
0000
0030
,
1010
0101
0100
0100
,
0011
1100
0001
1000
,
0100
1000
0010
0010
,
0100
0001
0010
0010
,
0100
0100
0010
0000
,
0010
0010
0001
0000
,
1000
0010
0100
0000
,
0100
0001
0010
0000
,
0100
0100
0010
0000
,
0010
0001
1000
0000
,
1000
0010
0100
0000
,
0010
0010
0100
0010
,
1000
0001
1000
0000
,
0100
0010
0001
0000
,
0001
1000
0010
0000
,
0200
0010
0010
0310
,
0100
0000
0001
0000
,
1000
0000
0001
0000
,
1000
0000
0100
0000
,
0010
0010
0001
0001
,
2000
0010
3010
0000
,
0200
0001
0301
0000
,
0002
0010
0013
0000
,
0100
1000
0001
1000
,
1001
0000
0000
0000
;

//---------------dance-single - ----------------
#NOTEDATA:;
#CHARTNAME:;
#STEPSTYPE:dance-single;
#DESCRIPTION:;
#CHARTSTYLE:;
#DIFFICULTY:Beginner;
#METER:1;
#RADARVALUES:0.092000,0.155105,0.027211,0.018141,0.000000,71.000000,68.000000,3.000000,2.000000,0.000000,0.000000,0.000000,0.000000,0.000000,0.092000,0.155105,0.027211,0.018141,0.000000,71.000000,68.000000,3.000000,2.000000,0.000000,0.000000,0.000000,0.000000,0.000000;
#CREDIT:;
#DISPLAYBPM:130.000000;
#NOTES:
0000
0000
0000
0000
,
0000
0000
0000
0000
,
0000
0000
0000
0000
,
0000
0000
0000
0000
,
0000
0000
0000
0000
,
1000
0000
0000
0000
,
0001
0000
0000
0000
,
0010
0000
0000
0000
,
0001
0000
0000
0000
,
1000
0000
0000
0000
,
0000
0000
0000
0000
,
0100
0000
0000
0000
,
0000
0000
0000
0000
,
0001
0000
0000
0000
,
0000
0000
0000
0000
,
0100
0000
0000
0000
,
0000
0000
0000
0000
,
1000
0000
0001
0000
,
1000
0000
0000
0000
,
0010
0000
0100
0000
,
0010
0000
0000
0000
,
0100
0000
0000
0000
,
0001
0000
0000
0000
,
1000
0000
0000
0000
,
0000
0000
0000
0000
,
0001
0000
0000
0000
,
0010
0000
0000
0000
,
0100
0000
0000
0000
,
1000
0000
0000
0000
,
0010
0000
0000
0000
,
0100
0000
0000
0000
,
2002
0000
0000
3003
,
0000
0000
0000
0000
,
0110
0000
0010
0000
,
0010
0000
1000
0000
,
0100
0000
0010
0000
,
0001
0001
0001
0000
,
1000
0000
0001
0000
,
1000
1000
1000
0000
,
0010
0000
0100
0000
,
0001
0000
0010
0000
,
0100
0000
1000
0000
,
0010
0000
0010
0000
,
0100
0000
0010
0000
,
0100
0000
0001
0000
,
0010
0000
0100
0000
,
1000
0000
1000
0000
,
0010
0000
1000
0000
,
0100
0000
1000
0000
,
0001
0000
0000
0000
,
0010
0000
0000
0000
,
0100
0000
0000
0000
,
1000
0000
0000
0000
,
0010
0000
0000
0000
,
0100
0000
0000
0000
,
0001
0000
0000
0000
,
1000
0000
0001
0000
,
1001
0000
0000
0000
;
