#TITLE:NRG STAR '86 feat. 大山愛未;
#SUBTITLE:;
#ARTIST:Y&Co.;
#TITLETRANSLIT:;
#SUBTITLETRANSLIT:;
#ARTISTTRANSLIT:;
#GENRE:Hi-NRG;
#CREDIT:;
#MUSIC:NRG STAR '86 feat. Oyama Aimi.ogg;
#BANNER:NRG STAR '86 feat. Oyama Aimi.png;
#BACKGROUND:NRG STAR '86 feat. Oyama Aimi-bg.png;
#JACKET:NRG STAR '86 feat. Oyama Aimi-jacket.png;
#CDTITLE:;
#SAMPLESTART:54.403;
#SAMPLELENGTH:15.000;
#SELECTABLE:YES;
#OFFSET:1.650;
#BPMS:0.000=145.000;
#STOPS:;
#DISPLAYBPM:145.000;
#BGCHANGES:;
#FGCHANGES:;

//--------------- dance-single - forcednature ----------------
#NOTES:
     dance-single:
     forcednature:
     Beginner:
     4:
     0,0,0,0,0:
0000
0000
0000
0000
,
0000
0000
0000
0000
,
0000
0000
0000
0000
,
0100
0100
0100
0000
,
0010
0010
0010
0000
,
1001
0000
0001
0000
,
0100
0000
0010
0000
,
1000
0000
0001
0000
,
1000
0000
0100
0000
,
0110
0000
0010
0000
,
0001
0000
0000
0000
,
0100
0000
0010
0000
,
1000
0000
1000
0000
,
0000
0001
0001
0001
,
0000
1000
1000
1000
,
0010
0000
0100
0000
,
0001
0000
1000
0000
,
1001
0000
0001
0000
,
0100
0000
0001
0000
,
1000
0000
0010
0000
,
1000
0000
0100
0000
,
0000
0010
0010
0010
,
0000
0100
0100
0100
,
1000
0000
0001
0001
,
0100
0000
0010
0000
,
1001
0000
1000
0000
,
0001
0000
0010
0000
,
0001
0000
0100
0000
,
0010
0000
0000
0000
,
1000
0000
0001
0000
,
1000
0000
0010
0000
,
0100
0000
0001
0000
,
0100
0100
0100
0100
,
0010
0010
0010
0000
,
1000
1000
0001
0001
,
0100
0000
1001
0000
,
0010
0000
1000
0000
,
0001
0000
0000
0000
,
0001
0001
1000
1000
,
0100
0000
1001
0000
,
0010
0000
0100
0000
,
1000
0000
0010
0000
,
0100
0000
0000
0000
,
0001
0000
0010
0000
,
0001
0000
1000
0000
,
0010
0000
0000
0000
,
1001
0000
1000
0000
,
0100
0000
0010
0000
,
0100
0000
1000
0000
,
0010
0000
0010
0000
,
0100
0100
0100
0100
,
0001
0000
1000
0000
,
0001
0000
0010
0000
,
0100
0000
1000
0000
,
0100
0100
0100
0100
,
0010
0010
0010
0000
,
1000
0001
1000
0001
,
0100
0100
0100
0000
,
0110
0000
1001
0000
,
0100
0100
0010
0000
,
1000
0000
0001
0000
,
0100
0000
0010
0000
,
0100
0100
0010
0010
,
0100
0000
1001
0000
,
1000
0000
0001
0000
,
0100
0000
0010
0000
,
1000
0000
0001
0001
,
0001
1000
0001
1000
,
0010
0010
0010
0010
,
0100
0100
0100
0100
,
0001
0001
1000
1000
,
0100
0010
0100
0010
,
1001
0000
0000
0000
;

//--------------- dance-single - forcednature ----------------
#NOTES:
     dance-single:
     forcednature:
     Easy:
     7:
     0,0,0,0,0:
0000
0000
0000
0000
,
0000
0000
0000
0000
,
0000
0000
0000
0000
,
0001
1000
0010
0100
,
1001
0000
1001
0000
1000
0000
0001
0100
,
0001
0010
0001
0100
,
0000
0010
1000
0100
,
0000
1000
0001
0001
,
0100
0010
0100
0000
,
1001
0001
0010
0100
,
1000
0010
0001
0010
,
0100
0001
0010
0100
,
1000
0001
0100
0001
,
0000
1000
0010
1000
,
0000
0001
0010
0100
,
1000
0010
0100
0110
,
0000
0100
0001
1001
,
1000
0100
1000
0010
,
0001
0000
0010
0000
1000
0000
0100
0010
,
0100
1000
0001
0100
,
0010
1000
0001
0010
,
0000
0100
1000
0010
,
0000
0000
0100
0000
0001
0000
1000
0001
,
1000
0010
0100
2002
,
3003
0000
0001
0000
0100
0010
0100
0010
,
0100
0000
0001
1000
,
0100
0010
0001
0100
,
0010
1000
0001
0100
,
0002
1000
1000
0003
,
0001
0100
0010
0100
,
1000
0100
0010
0100
,
0001
1000
0100
0010
,
0200
0000
0010
0000
,
0010
0010
0010
0300
,
1001
1001
0110
0110
,
0001
0100
1001
0000
,
1000
0100
0010
0001
,
0100
0010
1000
0000
,
0110
0110
1001
1001
,
1000
0100
1001
0000
,
0001
0010
0001
1000
,
0010
0100
0001
0000
,
2000
0000
0100
3100
,
1000
0001
0100
0010
,
1000
0000
0001
0000
,
0010
0000
0001
0000
1000
0001
1000
0001
,
1000
0000
0001
0100
,
0001
0010
0100
1000
,
0010
0100
0000
0100
,
0001
0000
0001
0000
0001
1000
0001
0000
,
1000
0000
0100
1000
0100
1000
0100
0000
,
0010
0001
0100
0010
,
1000
0001
1000
0100
,
0010
0001
0010
1000
,
0020
0000
0100
0000
,
0100
0100
0100
0030
,
0010
1001
0100
1001
,
1000
0001
1000
0001
1000
0000
0010
0000
,
0110
0000
1001
0000
,
0110
1001
0110
0000
,
0001
0100
0010
1000
,
0001
0010
0001
0000
,
0110
1001
0110
1001
,
0010
0100
1001
0000
,
1000
0010
1000
0001
,
0010
0100
1000
0000
,
1001
0000
0001
0100
,
0010
1000
0010
0000
0100
0000
0001
0000
,
1000
0100
1000
0000
0100
0000
0110
0000
,
0001
0100
0001
0000
0100
0000
0110
0000
,
1000
0001
1000
0000
0010
0100
0010
0000
,
0100
0001
0100
0000
1001
0000
0110
0000
,
1001
0000
0000
0000
;

//--------------- dance-single - forcednature ----------------
#NOTES:
     dance-single:
     forcednature:
     Medium:
     9:
     0,0,0,0,0:
0000
0000
0000
0000
,
0000
0000
0000
0000
,
0000
0000
0000
0000
,
1000
0001
1000
0010
0100
0000
0010
0000
,
1000
0000
0010
0000
0000
0101
0000
0000
0000
1100
0000
0000
0001
0000
1000
0000
,
0000
0001
0010
0100
1000
0001
1000
0010
,
0000
0100
0010
1000
0001
0010
0100
1000
,
0000
0010
0100
0001
0100
0010
1000
0001
,
1000
0100
0010
0001
0100
0000
0010
0000
,
1001
0000
0001
1000
0100
1000
0001
0000
,
0100
0000
0001
1000
0010
0100
0010
0100
,
0001
0000
0010
0000
0100
1000
0100
0000
,
0010
0001
1000
0000
0010
0100
0001
0100
,
0000
0010
1000
0001
0100
0001
1000
0010
,
0000
0100
0001
0010
,
0100
1000
0100
0000
0010
0000
1001
0000
,
0001
0100
0010
0000
1000
0100
0010
0001
,
0100
0010
1000
0100
0010
0000
0001
0000
,
0100
0000
0010
1000
0001
0000
0100
0100
,
0100
0000
0001
0010
0001
0100
0010
0000
,
1000
0100
0010
0000
0001
0100
0010
0000
,
0000
1000
0100
0010
0001
0010
0100
1000
,
0000
0000
0010
0000
1000
0000
0001
0001
,
0001
0010
0100
2001
,
3001
0000
1000
0000
0001
0100
0001
0100
,
0010
0000
1000
0000
0001
0010
0100
0010
,
0001
0000
0100
0000
0010
1000
0010
0100
,
0001
0000
1000
0000
0100
0010
0000
0110
,
0000
0001
2000
0000
3010
1000
0001
0100
,
0001
0000
1000
1000
0000
0001
0001
0000
,
1000
0001
0000
0100
0010
1000
0100
0010
,
0100
0000
0010
0000
0001
0100
0010
1000
,
0020
0000
0100
0000
0100
0000
0100
0030
,
0010
1000
0001
0000
0010
0000
1001
0000
,
0100
1001
0010
1001
,
0110
1001
0220
0330
,
0001
0100
0001
0000
1000
0010
1000
0000
,
0100
0010
0220
0330
,
0100
1001
0010
1001
,
0110
1001
0220
0330
,
1000
0100
1000
0000
0001
0010
0001
0000
,
0100
0000
0001
0000
1000
0010
1000
0010
,
0200
0000
0001
0000
0001
0000
0301
0100
,
0000
0100
0000
0001
1000
0000
0010
0000
,
1000
0100
0010
0002
1000
0000
1003
0001
,
0000
1000
0000
0010
1000
0001
1000
0001
,
0010
0000
0100
1000
0100
0010
0001
0000
,
0100
0000
0010
0000
1000
0010
0100
0010
,
1000
0001
0010
0000
0100
1000
0010
0000
,
1001
0000
0110
0000
0001
1000
0010
0000
,
1000
0100
0100
0100
0100
0100
0010
0000
,
0010
0000
0001
0001
0000
0100
0100
0000
,
0001
0100
0000
0010
1000
0100
1000
0001
,
1000
0000
0010
0000
0100
0001
0100
1000
,
0200
0000
0010
0000
0010
0000
0010
0300
,
0100
0001
1000
0000
0001
0000
0110
0000
,
1000
0000
0001
0100
0001
0000
1000
0100
,
1000
1000
0001
0001
0100
0100
0010
0000
,
1000
0011
0001
1010
,
0110
1001
0220
0330
,
0001
1000
0001
0000
0010
0100
0010
0000
,
0001
0010
0200
0300
,
0010
0101
0010
1100
,
0110
1001
0220
0330
,
1000
0100
0010
0000
0001
0010
0100
0000
,
1000
0000
0001
0000
0100
0001
0100
0001
,
1000
0000
0100
1000
0001
0001
0100
0000
,
0010
1000
0001
0100
0010
1000
0001
0000
,
0100
0000
0001
0000
0000
0010
0000
0000
0100
0000
0000
0000
1000
0000
0001
0000
,
1000
0000
0100
0000
0000
0010
0000
0000
0001
0000
0000
0000
1000
0000
0001
0000
,
1000
0100
0100
0000
1000
1000
0000
0001
,
0001
0000
0000
0100
0000
0000
0010
0000
0000
0100
0000
0000
0001
0000
1000
0000
0001
0000
1000
0000
0000
0100
0000
0000
,
0010
0000
0000
0000
;

//--------------- dance-single - forcednature ----------------
#NOTES:
     dance-single:
     forcednature:
     Hard:
     12:
     0,0,0,0,0:
0000
0000
0000
0000
,
0000
0000
0000
0000
,
0000
0000
0000
0000
,
0001
0000
0100
0000
0001
0000
1000
0010
0000
1000
0000
0001
0100
0000
0010
0000
,
1000
0000
0001
0000
0000
1000
0100
0000
0000
0010
0001
0000
1000
0000
0010
0000
,
0110
0010
1000
0001
0100
0001
1000
0010
,
0000
1000
0100
0010
1000
0010
0100
1000
,
0000
0000
0010
0000
1000
0000
0100
0000
1000
0001
1000
0001
1000
0000
0010
0000
,
0100
0000
0001
0000
0010
0000
1000
0000
0010
0000
0001
0000
0100
0001
0100
0001
,
0100
0010
0100
1000
0100
0010
0100
0001
,
0100
0010
1000
0001
1000
1000
1000
1000
,
0000
0001
0010
0100
0010
1000
0010
0001
,
0010
0100
0010
0001
0100
0010
1000
0100
,
0000
1000
0001
0100
1000
0100
0001
1000
,
0000
0011
0110
1100
,
1000
0001
0100
0000
0001
0000
0210
0000
,
0301
0010
0100
1000
0010
0000
2100
0000
,
3100
0001
0100
1000
0100
0010
0100
0001
,
0100
1000
0100
0010
0001
1000
0010
0010
,
0100
0001
0100
1000
0100
0010
0100
1000
,
0100
0001
0100
0010
1000
0001
0010
0001
,
1000
0001
1000
0100
0001
0100
1000
0001
,
0000
0000
0000
0000
0110
0000
0000
0000
1000
0000
0001
0000
1000
0100
1000
0100
,
1000
0010
0100
0001
1000
0000
0110
0000
,
0001
0000
0010
0000
0100
0000
1000
0000
0001
0000
0100
0000
0001
0100
0001
0100
,
0001
0000
0011
0001
1000
0100
0010
0001
,
0010
0100
1000
0000
1010
0010
0100
0001
,
0100
0010
1000
0000
0001
2000
0000
3200
,
0000
1300
0002
0000
0103
0010
1000
0001
,
0101
0000
1000
1100
0000
0001
0011
0000
,
0100
0110
0000
0001
1000
0010
1000
0001
,
1001
0000
0110
0000
1000
0100
0010
0001
,
0200
1000
0001
1300
,
0100
0001
0010
0100
1000
0001
1001
0000
,
0001
0100
0101
0000
1000
0010
1010
0000
,
0110
0000
0000
1000
0000
0000
0001
0000
0110
0000
0000
0000
1001
0000
0000
0000
,
0001
0100
0010
1000
0100
0001
1000
0010
,
0001
1000
0010
0200
0010
0000
0301
0000
,
1000
0001
1001
0000
0100
0010
0110
0000
,
1001
0000
0000
0010
0000
0000
0100
0000
1001
0000
0000
0000
0110
0000
0000
0000
,
1000
0010
1000
0100
0001
0100
0010
0001
,
1000
0000
0000
0000
0010
0000
0100
0000
0001
1000
0001
1000
0001
0000
0010
0000
,
0100
1000
0100
0010
0100
1000
0100
0010
,
0000
0001
0000
0100
0001
0000
1000
0000
,
0010
0100
0010
1000
0010
0100
0010
1000
,
0000
0000
0001
0000
0000
0000
0010
0000
0100
1000
0100
1000
0100
0000
0010
0000
,
0001
0000
0101
0000
1000
0001
1001
0000
,
0100
0000
1010
0000
0001
0010
0011
0000
,
1000
0100
0001
0100
0010
0100
2000
0000
,
0001
0000
0001
0000
3001
1000
1001
0000
,
0001
0000
0100
0001
0100
0001
0100
0001
0100
0000
0001
0000
0101
0000
0000
0000
,
1001
0000
1000
1010
0000
0001
0101
0000
,
0010
0110
0000
1000
0001
0100
1000
0100
,
0110
0000
1001
0000
0001
0010
0100
1000
,
0020
0001
1000
0031
,
0010
1000
0100
0010
0001
1000
1001
0000
,
0001
0100
0101
0101
1000
0100
1100
1100
,
0001
0001
1000
1000
0001
0001
0110
0000
,
1001
1100
1001
0101
,
1001
0000
0000
0001
0000
0000
0100
0000
0110
0000
0000
0000
1001
0000
0000
0000
,
1000
0100
0010
0001
0100
0010
0001
0010
,
1000
0001
0100
0020
1000
0000
0130
0000
,
0010
0101
0110
1010
,
1001
0000
0000
1000
0000
0000
0100
0000
1100
0000
0000
0000
1001
0000
0000
0000
,
1000
0100
0010
1000
0010
0100
1000
0010
,
0100
0000
0000
0000
0001
0000
0100
0000
0010
1000
0010
1000
0010
0000
0100
0000
,
0001
0000
1000
0001
1000
0001
1000
0001
1000
0000
0100
0000
0010
0000
0001
0000
,
0200
1300
0100
0001
0100
1000
0100
0001
,
0010
0000
0001
0010
0000
0001
0010
0000
0100
0000
1000
0000
0001
0000
1000
0000
,
0100
0000
1000
0010
0000
1000
0010
0000
0100
0000
0001
0000
0100
0000
0010
1000
,
0020
0000
0000
0030
1000
0000
0000
0000
0100
0000
0000
0000
0020
0000
0000
0030
0001
0000
0000
0000
0100
0000
0000
0000
0020
0000
0000
0030
1000
0000
0000
0000
,
0001
0000
0000
0100
0000
0000
0001
0000
0000
1000
0000
0000
0100
0000
0010
0000
0001
0000
1000
0000
0000
0010
0000
0000
,
0110
0000
0000
0000
;

//--------------- dance-double - forcednature ----------------
#NOTES:
     dance-double:
     forcednature:
     Easy:
     7:
     0,0,0,0,0:
00000000
00000000
00000000
00000000
,
00000000
00000000
00000000
00000000
,
00000000
00000000
00000000
00000000
,
00001000
00010000
00001000
00100000
,
00010000
10000000
00010000
00000000
01000000
00000000
00100000
00000000
,
10010000
10000000
01000000
00100000
,
00001000
00010000
00000010
00001000
,
00000001
00000000
00000010
00000000
00000100
00001000
00000100
00000000
,
00000010
00000001
00000100
00000010
,
00001001
00000000
00001000
00000000
,
00000001
00000100
00000001
00000010
,
00000100
00000000
00010000
00000000
,
00001000
00100000
00010000
10000000
,
00100000
00100000
01000000
01000000
,
00000000
00010000
00100000
01000000
,
10000000
00010000
01000000
00011000
,
00000000
00000100
00001000
00000110
,
00000001
00001000
00000010
00000100
,
00000001
00000000
00001000
00000000
00000100
00000000
00010000
00001000
,
00010000
00100000
01000000
00010000
,
10000000
01000000
00100000
00010000
,
00000000
01000000
01000000
00010000
,
00000000
00100000
00001000
00010000
,
00000100
00000000
00001000
00000020
,
00000030
00000000
00000100
00000000
00000001
00001000
00000001
00001000
,
00000001
00000000
00000010
00000100
,
00010000
00001000
01000000
00010000
,
10000000
00100000
00000000
01000000
,
00010000
01000000
00000000
00100000
,
10000000
01000000
00100000
00001000
,
00010000
00000100
00001000
00000001
,
00000100
00000100
00000010
00000010
,
00002000
00000000
00000001
00000000
,
00000001
00000001
00000001
00003000
,
00000001
00000110
00001000
00001001
,
00001000
00000000
00000000
00000100
00000000
00000000
00010000
00000000
00000100
00000000
00000000
00000000
00000000
00000000
00000000
00000000
,
00010000
00001000
00100000
00010000
,
10000000
00100000
01000000
00000000
,
10000000
01100000
01000000
10010000
,
00010000
00000000
00000000
01000000
00000000
00000000
00001000
00000000
00010000
00000000
00000000
00000000
00000000
00000000
00000000
00000000
,
00000010
00001000
00000001
00000010
,
00000100
00010000
00001000
01000000
,
01100000
00000000
10000000
00010000
,
10000000
01000000
00100000
00001000
,
00010000
00000010
00001000
00000001
,
00000010
00000000
00000100
00000000
00010000
00001000
00010000
00000000
,
00011000
00000000
00001000
01000000
,
00010000
10000000
00100000
01000000
,
00010000
00100000
00001000
00010000
,
00000100
00000100
00000100
00000000
,
00001000
00000001
00001000
00000001
00001000
00000001
00001000
00000000
,
00000010
00000100
00000001
00001000
,
00000100
00010000
00001000
01000000
,
00010000
10000000
00100000
01000000
,
00020000
00000000
10000000
00000000
,
10000000
10000000
10000000
00030000
,
10000000
00000000
00010000
10000000
00010000
00000000
00100000
00000000
,
00001000
00010000
00001000
00010000
00001000
00010000
00001000
00000000
,
00011000
00000000
00010100
00000000
,
00001000
00000000
00000000
00000010
00000000
00000000
00001000
00000000
00000100
00000000
00000000
00000000
00000000
00000000
00000000
00000000
,
00000010
00000001
00001000
00000100
,
00010000
00001000
01000000
00000000
,
00010000
01100000
01000000
10010000
,
10000000
00000000
00000000
00010000
00000000
00000000
01000000
00000000
00100000
00000000
00000000
00000000
00000000
00000000
00000000
00000000
,
10000000
01000000
00100000
00001000
,
00010000
00000100
00001000
00000001
,
00000100
00000000
00000000
00000000
00000010
00001000
00000010
00000000
,
00000100
00000001
00000100
00000000
00000100
00000000
00000100
00000000
,
00000010
00000100
00000010
00000000
00010000
00000000
00000100
00000000
,
00010000
00001000
00010000
00000000
01000000
00000000
00100000
00000000
,
00010000
10000000
00010000
00000000
01000000
00000000
00001000
00000000
,
00010000
00000100
00010000
00000000
00000100
00001000
00000100
00000000
,
00001001
00000000
00000000
00000000
;

//--------------- dance-double - forcednature ----------------
#NOTES:
     dance-double:
     forcednature:
     Medium:
     9:
     0,0,0,0,0:
00000000
00000000
00000000
00000000
,
00000000
00000000
00000000
00000000
,
00000000
00000000
00000000
00000000
,
00001000
00010000
00001000
00000000
00000100
00000000
00000001
00000000
,
00001000
00000000
00000100
00000000
00000000
00010000
00000000
00000000
00000000
00001000
00000000
00000000
00100000
00000000
00010000
00000000
,
10000000
00000000
00100000
01000000
00010000
00100000
10000000
00000000
,
00100000
00000000
00010000
00001000
00000100
00000000
00000010
00000001
,
00000100
00000000
00001000
00010000
00001000
00000010
00000001
00001000
,
00000010
00000100
00001000
00000000
00010000
01000000
10000000
00000000
,
01100000
00000000
00010000
01000000
00010000
01000000
00001000
00000000
,
00010000
00000000
00000100
00000010
00000001
00000010
00000001
00000010
,
00000100
00000000
00010000
00000000
00001000
01000000
00001000
00000000
,
00100000
00000000
01000000
10000000
00100000
00000000
00010000
00001000
,
00000010
00000000
00000001
00001000
00000100
00000010
00001000
00000000
,
00010000
00100000
10000000
00010000
,
00100000
00001000
00100000
00000000
01000000
00000000
00011000
00000000
,
00000100
00001000
00000010
00000000
00000100
00000001
00000100
00000001
,
00000010
00000100
00010000
00001000
01000000
00000000
00100000
00000000
,
10000000
00000000
01000000
00010000
00001000
00000000
00000100
00000100
,
00000100
00000000
00000001
00001000
00000001
00000100
00000010
00000000
,
00001000
00000100
00010000
00000000
00001000
00000000
00100000
01000000
,
10000000
00000000
00100000
00010000
00001000
00000100
00000010
00000000
,
00001000
00000000
00000100
00000000
00000010
00000000
00000001
00000001
,
00000001
00000100
00000010
00022000
,
00033000
00000000
01000000
00000000
00100000
10000000
00100000
10000000
,
01000000
00000000
00100000
00000000
00001000
00010000
00000010
00000000
,
00000100
00000000
00000001
00000000
00000010
00000100
00001000
00000010
,
00000100
00001000
00010000
00000000
01000000
10000000
00010000
00100000
,
00000000
00001000
00020000
00000000
00030100
00000010
00001000
00000010
,
00000001
00000000
00000100
00000100
00000000
00001000
00001000
00000000
,
00010000
00100000
00000000
10000000
00010000
10000000
01000000
00010000
,
00001000
00000000
00000100
00000000
00000001
00001000
00000100
00010000
,
00002000
00000000
01000000
00000000
01000000
00000000
01000000
00003000
,
00001000
00010000
00100000
00000000
10000000
00000000
01100000
00000000
,
00010000
00110000
00001000
00001010
,
00010100
01001000
00022000
00033000
,
00010000
00001000
00000010
00000000
00001000
00010000
01000000
00000000
,
00100000
00001000
00020000
00030000
,
00001000
00001010
00010000
00110000
,
01001000
00010100
00022000
00033000
,
00001000
00010000
00100000
00000000
00010000
00001000
00000100
00000000
,
00000010
00000000
00010000
00000000
00001000
01000000
00001000
01000000
,
00020000
10000000
10000000
10030000
,
00000000
00010000
00000000
00100000
00001000
00000000
00010000
00000000
,
00001000
00000100
00000001
00002000
00000000
00000000
00003000
00001000
,
00000000
00000100
00000000
00010000
00001000
00100000
00001000
00100000
,
00010000
00000000
01000000
00000000
00100000
10000000
01000000
00000000
,
00010000
00000000
00001000
00000000
00000010
00000001
00000100
00001000
,
00000100
00000001
00000010
00000000
00000100
00010000
00001000
00000000
,
01010000
00000000
10100000
00000000
10000000
10000000
01000000
00000000
,
00010000
00001000
00010000
00010000
00010000
00010000
00001000
00000000
,
00000100
00000000
00000001
00000001
00000000
00001000
00001000
00000000
,
00000010
00000010
00000000
00010000
00001000
00010000
00001000
00100000
,
00001000
00000000
01000000
00000000
00100000
10000000
01000000
00010000
,
00002000
00000000
00000100
00000000
00000100
00000000
00000100
00003000
,
00001000
00010000
00000100
00000000
00000010
00000000
00001001
00000000
,
00001000
00001100
00010000
01010000
,
00001000
00001000
00010000
00010000
01000000
01000000
00100000
00000000
,
00010000
00110000
00001000
00001010
,
00010100
01001000
00022000
00033000
,
00010000
00001000
00000100
00000000
00001000
00010000
01000000
00000000
,
10000000
00010000
02000000
03000000
,
00010000
01010000
00001000
00001100
,
00010100
01001000
00022000
00033000
,
00001000
00010000
00100000
00000000
00010000
00001000
00000010
00000000
,
00000100
00000000
00010000
00000000
00001000
01000000
00001000
01000000
,
00100000
00000000
00010000
00001000
00000010
00000010
00000100
00000000
,
00001000
00000001
00000100
00000001
00000100
00000001
00000100
00000000
,
00001000
00000000
00010000
00000000
00000000
00100000
00000000
00000000
10000000
00000000
00000000
00000000
01000000
00000000
00100000
00000000
,
01000000
00000000
00010000
00000000
00000000
00001000
00000000
00000000
00000100
00000000
00000000
00000000
00000001
00000000
00001000
00000000
,
00000001
00000010
00000010
00000000
00001000
00001000
00000000
00010000
,
00010000
00000000
00000000
00100000
00000000
00000000
00100000
00000000
00000000
00000000
00000000
00000000
00010000
00000000
00001000
00000000
00010000
00000000
00001000
00000000
00000000
00000000
00000000
00000000
,
00011000
00000000
00000000
00000000
;

//--------------- dance-double - forcednature ----------------
#NOTES:
     dance-double:
     forcednature:
     Hard:
     12:
     0,0,0,0,0:
00000000
00000000
00000000
00000000
,
00000000
00000000
00000000
00000000
,
00000000
00000000
00000000
00000000
,
00010000
00000000
00001000
00000000
00000010
00000000
00000001
00000100
00000000
00000010
00000000
00001000
00000100
00000000
00010000
00000000
,
00001000
00000000
00100000
00000000
00000000
01000000
10000000
00000000
00000000
00100000
01000000
00000000
00001000
00000000
00001000
00000000
,
00011000
00010000
00000100
00000001
00000100
00001000
00000010
00000100
,
00000000
00001000
00010000
00100000
10000000
01000000
00010000
00001000
,
00000000
00000000
01000000
00000000
00001000
00000000
00010000
00000000
00000100
00001000
00000100
00001000
00000100
00000000
00000010
00000000
,
00000001
00000000
00001000
00000000
00000010
00000000
00010000
00000000
00001000
00000000
00100000
00000000
01000000
10000000
01000000
10000000
,
01000000
00100000
01000000
00010000
01000000
00001000
01000000
00100000
,
01000000
10000000
00100000
00010000
00001000
00001000
00001000
00001000
,
00000000
00010000
00000100
00001000
00000100
00000001
00000100
00000010
,
00000001
00000100
00001000
00010000
01000000
00100000
00010000
10000000
,
00000000
00100000
00010000
00001000
00100000
00010000
00001000
00000100
,
00000000
00000011
00001001
00010100
,
00010000
00001000
00100000
00000000
01000000
00000000
10010000
00000000
,
10000000
01000000
00010000
00001000
00000010
00000000
00001001
00000000
,
00000001
00000100
00001000
00010000
01000000
10000000
01000000
00010000
,
00001000
00000000
00000100
00000000
00000001
00000000
00001000
00000000
00000100
00000000
00010000
00000000
00001000
00010000
00001000
00010000
,
00001000
00000010
00000001
00000100
00001000
00010000
00100000
10000000
,
01000000
00010000
00001000
00000010
00000001
00000100
00001000
00010000
,
00000000
01000000
00010000
00001000
01000000
00010000
00001000
00000010
,
00000000
00000000
00000000
00000000
00000110
00000000
00000000
00000000
00010000
00000000
00001000
00000000
01000000
00010000
01000000
00010000
,
01000000
00100000
10000000
01000000
00100000
10000000
00200000
00300000
,
00010000
00000000
01000000
00000000
00001000
00000000
00010000
00000000
00000010
00000000
00010000
00000000
00001000
01000000
00001000
01000000
,
00001000
00000000
00110000
00000000
00001000
00000100
00000110
00000000
,
00000001
00000000
00010100
00000000
00000010
00010000
00011000
00000000
,
00100000
00000000
10010000
00000000
00010000
02000000
00000000
03002000
,
00000000
00003010
00000200
00000000
00001300
00000001
00000100
00000010
,
00001010
00000000
00000100
00010100
00000000
00100000
00101000
00000000
,
01000000
01100000
00000000
00010000
10000000
00100000
00010000
00001000
,
00011000
00000000
00000110
00000000
00000001
00000100
00000010
00001000
,
00020000
01000000
10000000
00130000
,
00010000
00100000
00001000
00010000
00000100
00000010
00000110
00000000
,
00000001
00000010
00000011
00000000
00001000
00000100
00001100
00000000
,
00011000
00000000
00000000
01000000
00000000
00000000
00100000
00000000
10000000
00000000
00000000
00000000
10010000
00000000
00000000
00000000
,
00010000
01000000
00100000
00010000
00001000
00010000
00000100
00000010
,
00001000
00000010
00000001
00000100
00002000
00000000
00013000
00000000
,
01000000
10000000
11000000
00000000
00100000
00010000
00110000
00000000
,
00011000
00000000
00000000
00000010
00000000
00000000
00001000
00000000
00000100
00000000
00000000
00000000
00001001
00000000
00000000
00000000
,
00000001
00000100
00001000
01000000
00010000
00100000
01000000
10000000
,
00100000
00000000
00000000
00000000
00010000
00000000
00001000
00000000
00000100
00000001
00000100
00000001
00000100
00000000
00000010
00000000
,
00001000
00000100
00000010
00000001
00000100
00001000
00010000
00100000
,
00000000
10000000
00000000
01000000
00010000
00000000
00001000
00000000
,
00000010
00000100
00010000
00000010
00000100
00000001
00000010
00000100
,
00000000
00000000
00010000
00000000
00000000
00000000
00001000
00000000
00100000
00010000
00100000
00010000
00100000
00000000
01000000
00000000
,
10000000
00000000
01100000
00000000
00010000
01000000
01010000
00000000
,
00001000
00000000
00011000
00000000
00000100
00000010
00000110
00000000
,
00000001
00000100
00010000
00000100
00000010
00001000
00000200
00000000
,
00000001
00000000
00000010
00000000
00001300
00000100
00001100
00000000
,
00010000
00000000
00001000
00100000
00001000
00100000
00001000
00100000
00001000
00000000
00100000
00000000
00101000
00000000
00000000
00000000
,
10010000
00000000
10000000
10100000
00000000
00010000
00011000
00000000
,
00000100
00000110
00000000
00000001
00000100
00000010
00001000
00000100
,
00001100
00000000
00011000
00000000
00100000
00010000
10000000
00100000
,
02000000
10000000
00010000
03001000
,
01000000
00001000
00010000
00000100
00001000
00000001
00001001
00000000
,
00000001
00000100
00001000
00010000
01000000
10000000
00100000
00010000
,
00001000
00000010
00000001
00000100
00001000
00010000
00011000
00000000
,
01100000
00011000
00000110
00011000
,
01010000
00000000
00000000
01000000
00000000
00000000
00100000
00000000
10000000
00000000
00000000
00000000
10010000
00000000
00000000
00000000
,
10000000
01000000
00010000
01000000
00100000
00001000
00010000
00000010
,
00000100
00000001
00000100
00001000
00020000
00000000
00031000
00000000
,
01010000
01001000
00010100
00001100
,
00001001
00000000
00000000
00000001
00000000
00000000
00000010
00000000
00000100
00000000
00000000
00000000
00010100
00000000
00000000
00000000
,
00001000
00010000
00100000
01000000
00010000
00100000
10000000
00100000
,
00001000
00000000
00000000
00000000
00010000
00000000
00000010
00000000
00000100
00000001
00000100
00000001
00000100
00000000
00000010
00000000
,
00010000
00000000
00001000
01000000
00001000
01000000
00001000
01000000
00001000
00000000
00100000
00000000
00001000
00000000
00010000
00000000
,
00000010
00001000
00100000
00010000
00000100
00001000
01000000
00010000
,
00001000
00000000
00010000
00100000
00000000
10000000
00100000
00000000
01000000
00000000
00010000
00000000
00100000
00000000
00001000
00000000
,
00010000
00000000
00000100
00000010
00000000
00001000
00000010
00000000
00000001
00000000
00000100
00000000
00001000
00000000
00010000
00000000
,
00100000
01000000
00010000
10000000
00100000
00010000
00001000
00000100
,
00000001
00000000
00000000
00001000
00000000
00000000
00000100
00000000
00000000
00010000
00000000
00000000
00001000
00000000
00100000
00000000
01000000
00000000
10000000
00000000
00000000
00100000
00000000
00000000
,
01100000
00000000
00000000
00000000
;
