#TITLE:Laplace;
#SUBTITLE:;
#ARTIST:削除;
#TITLETRANSLIT:;
#SUBTITLETRANSLIT:;
#ARTISTTRANSLIT:Sakuzyo;
#GENRE:ArtBreaks;
#CREDIT:;
#BANNER:Laplace.png;
#BACKGROUND:Laplace-bg.png;
#LYRICSPATH:;
#CDTITLE:cdtitle.png;
#MUSIC:Laplace.ogg;
#OFFSET:-3.147000;
#SAMPLESTART:27.921000;
#SAMPLELENGTH:15.000000;
#SELECTABLE:YES;
#DISPLAYBPM:78.000000:155.000000;
#BPMS:0.000000=77.500000
,30.000000=155.000000
,95.000000=77.500000
,103.000000=155.000000
,151.000000=77.500000
,167.000000=155.000000
;
#STOPS:30.000000=1.161000
;
#BGCHANGES:-4.000=Laplace.avi=1.000=0=0=0=StretchNoLoop==CrossFade_Fastest==,
99999=-nosongbg-=1.000=0=0=0 // don't automatically add -songbackground-
;
#KEYSOUNDS:;
#ATTACKS:;

//---------------dance-single - Daff_4K----------------
#NOTES:
     dance-single:
     Daff_4K:
     Beginner:
     2:
     0.083117,0.113068,0.027273,0.118182,0.000000,64.000000,61.000000,3.000000,13.000000,0.000000,0.000000,0.083117,0.113068,0.027273,0.118182,0.000000,64.000000,61.000000,3.000000,13.000000,0.000000,0.000000:
0000
0000
0000
0000
,
0000
0000
0000
0000
,
0001
0000
0001
0000
,
1000
0000
1000
0000
,
0020
0000
0030
0000
,
0200
0000
0300
0000
,
0001
0000
0001
0000
,
1000
0000
1000
0000
,
0000
0000
0000
0100
,
0000
0000
0000
0001
,
0000
0000
0000
0100
,
0000
1000
0000
0001
,
0000
0000
0000
0100
,
0000
0000
0000
1000
,
0000
0000
0000
0100
,
0000
0001
0000
2000
,
0000
3000
0000
0020
,
0000
0030
0000
0002
,
0000
0003
0000
0020
,
0000
0030
0000
1000
,
0000
0001
0000
1000
,
0000
0000
0000
0100
,
0000
0010
0000
0100
,
0000
0000
0000
1001
,
0000
0000
0000
0000
,
0000
0000
0000
0001
,
0000
0000
0000
1000
,
0000
0000
0000
0010
,
0000
0100
0000
0010
,
0000
0000
0000
0010
,
0000
0010
0000
0100
,
0000
0000
0000
0001
,
0000
1000
0000
0001
,
0000
0000
0000
0010
,
0000
0010
0000
0100
,
0000
0000
0000
1000
,
0000
0001
0000
0020
,
0000
0030
0000
1001
,
0000
0000
0000
0000
,
0000
0000
0000
0020
,
0000
0030
0000
0200
,
0000
0300
0000
0002
,
0000
0003
0000
0020
,
0000
0030
0000
2000
,
0000
3000
0000
0020
,
0000
0030
0000
0001
,
0000
1000
0000
0001
,
0000
0000
0000
0100
,
0000
0010
0000
0100
,
0000
0000
0000
1001
;

//---------------dance-single - Daff_4K----------------
#NOTES:
     dance-single:
     Daff_4K:
     Easy:
     4:
     0.184416,0.203523,0.036364,0.254545,0.000000,142.000000,138.000000,4.000000,28.000000,0.000000,0.000000,0.184416,0.203523,0.036364,0.254545,0.000000,142.000000,138.000000,4.000000,28.000000,0.000000,0.000000:
0000
0000
0000
0000
,
0000
0000
0000
0000
,
1000
1000
0001
0001
,
0100
0010
0200
0000
,
0301
0001
1000
0000
,
1000
1000
0001
0000
,
0010
0010
0100
0100
,
1000
0001
0100
0002
,
0000
1003
0000
0010
,
0100
0001
0000
0020
,
0000
0130
0000
1000
,
0010
0001
0010
2000
,
0000
3001
0000
0010
,
0100
1000
0000
0020
,
0000
0130
0000
0001
,
0010
1000
0010
0002
,
0000
0103
0000
2000
,
0000
3100
0000
0001
,
0010
0200
0000
0320
,
0000
0031
1000
0020
,
0000
0130
0001
2000
,
0000
3100
0010
0002
,
0000
1003
0000
0220
,
0000
0000
0330
2000
,
0010
3010
0100
0002
,
0010
0013
0100
1000
,
0010
0100
0001
0001
,
0010
0100
1000
0010
,
0010
0100
0100
0002
,
0000
1003
0000
1000
,
0100
0010
0000
0001
,
0100
0010
0000
1000
,
0100
0001
0100
0010
,
0001
1000
0000
0001
,
0100
0010
0000
1000
,
0100
0010
0000
0001
,
0100
1000
0100
0020
,
0000
0130
0000
1001
,
0000
0000
0010
0010
,
0000
0000
0000
1000
,
1000
0001
0001
0010
,
0010
0200
0300
2000
,
0000
3100
0000
0002
,
0000
0103
0000
1000
,
0010
0200
0000
0320
,
0000
1030
0001
0020
,
0000
0130
1000
0002
,
0000
0103
0010
2000
,
0000
3001
0000
0220
,
0000
0000
0330
1001
;

//---------------dance-single - Daff_4K----------------
#NOTES:
     dance-single:
     Daff_4K:
     Medium:
     9:
     0.318182,0.339205,0.209091,0.500000,0.000000,245.000000,222.000000,23.000000,55.000000,0.000000,0.000000,0.318182,0.339205,0.209091,0.500000,0.000000,245.000000,222.000000,23.000000,55.000000,0.000000,0.000000:
0000
0000
0000
0000
,
0000
0000
0000
0000
,
2000
0010
3010
0002
,
0010
0010
2000
3003
,
2000
0000
0010
0000
3010
0000
1000
0001
,
0200
0010
0310
0100
,
0002
0000
0010
0000
0013
0000
0001
1000
,
0200
0000
0310
0000
1001
0000
1000
0100
,
1000
0000
0001
0100
0000
0010
1000
0000
,
0001
0010
0000
0100
0010
0100
1000
0000
,
0001
0000
1000
0010
0000
0010
0100
0000
,
0100
0001
0000
1000
0100
0010
0001
0100
,
0001
0000
1000
0100
0000
0010
0001
0000
,
1000
0010
0000
0100
0010
0100
0001
0000
,
1000
0000
0001
0010
0000
0010
0100
0000
,
0100
1000
0000
0001
0100
0000
2020
0000
,
3030
0000
1000
0001
0010
0000
0220
0000
,
0330
0000
0100
1000
0001
0000
0100
0010
,
0100
0000
0001
1000
0001
0000
0020
0000
,
0130
2000
3001
0022
,
0033
0000
0001
1000
0010
0000
0220
0000
,
0330
0000
0100
0001
1000
0000
2200
0000
,
3300
0022
0033
0220
,
0000
0000
0330
2001
,
3020
0230
0302
0023
,
0230
0000
2300
0000
3001
0000
1000
0001
,
1000
0000
0100
0100
0010
0000
0001
1000
,
0001
0000
0100
0100
0010
0000
1000
0100
,
1000
0000
0001
0100
0001
0000
0220
0000
,
0330
0000
2002
0000
3003
0000
1000
0100
,
0010
0000
0001
0100
0010
0000
1000
0100
,
1000
0001
0100
0001
0010
0000
0100
0010
,
0100
2000
3001
0200
,
0310
0000
1000
0001
0010
0100
1000
0000
,
0002
1003
0200
0310
,
0001
1000
0010
0100
0001
0000
1000
0100
,
0001
0000
0001
0100
1000
0000
2002
0000
,
3003
0220
0330
2002
,
0000
0000
3003
2000
,
0010
3010
0100
0002
,
0010
0013
0100
2000
,
3001
0000
0100
0010
0100
0000
2001
0000
,
3100
0000
0010
0001
1000
0000
1002
0000
,
0103
0000
0010
1000
0001
0000
1000
0100
,
1000
0000
0001
0100
0001
0000
1000
0010
,
1000
0001
0010
0001
1000
0000
1200
0000
,
0010
0310
1001
0201
,
0010
0000
0310
0000
1001
0000
1000
0100
,
1000
0000
0001
0100
0001
0000
2002
0000
,
3003
0220
0330
1001
;

//---------------dance-single - Daff_4K----------------
#NOTES:
     dance-single:
     Daff_4K:
     Hard:
     12:
     0.496104,0.565341,0.545455,0.318182,0.272727,382.000000,322.000000,60.000000,35.000000,0.000000,0.000000,0.496104,0.565341,0.545455,0.318182,0.272727,382.000000,322.000000,60.000000,35.000000,0.000000,0.000000:
// measure 0
0000
0000
0000
0000
,  // measure 1
0000
0000
0000
0000
,  // measure 2
2001
0000
0000
0000
3020
0000
0000
0000
0230
0000
0000
0000
0301
1000
0010
1000
,  // measure 3
0002
0000
0000
0000
0023
0000
0000
0000
0230
0000
0000
0000
1300
0001
1000
0000
,  // measure 4
0002
0000
0000
0000
0203
0000
0000
0000
2300
0000
0000
0000
3100
0010
0100
0010
,  // measure 5
2000
0000
0000
0000
3200
0000
0000
0000
0302
0000
0000
0000
0103
0010
0100
0000
,  // measure 6
0020
0000
0000
0000
0032
0000
0000
0000
2003
0000
0000
0000
3001
0100
0001
0100
,  // measure 7
0020
2030
3001
0011
,  // measure 8
1100
0000
0000
1000
0001
0000
0100
0000
0010
0000
0000
0010
1000
0000
0100
0000
,  // measure 9
0001
0100
0010
0001
1000
0000
0110
0000
,  // measure 10
1001
0000
0000
0001
0100
0000
0010
0000
1000
0000
0000
1000
0001
0000
0010
0000
,  // measure 11
1000
0010
0100
1000
0010
0000
1010
0000
,  // measure 12
0101
0000
0000
0001
1000
0000
0100
0000
0010
0000
0000
0010
0001
0000
0100
0000
,  // measure 13
1000
0100
0010
1000
0001
0000
0110
0000
,  // measure 14
1001
0000
0000
1000
0100
0000
0010
0000
0001
0000
0000
0001
1000
0000
0010
0000
,  // measure 15
0001
0010
0100
0001
0010
0000
2001
0000
,  // measure 16
3010
0000
0000
0010
0100
0000
0001
0000
1000
0000
0000
0000
1002
0000
0000
0000
,  // measure 17
0013
0000
0000
0010
0100
0000
1000
0000
0001
0000
0000
0000
0101
0000
0000
0100
,  // measure 18
0010
0000
1000
0000
0100
0000
0000
0100
0010
0000
0001
0000
1000
0000
0000
0000
,  // measure 19
1001
0110
1001
0101
,  // measure 20
1010
0000
0000
1000
0001
0000
0010
0000
0100
0000
0000
0000
1100
0000
0000
0000
,  // measure 21
0011
0000
0000
0001
1000
0000
0010
0000
0100
0000
0000
0000
1001
0000
0000
1000
,  // measure 22
0001
0000
0010
0000
0110
0000
0000
0100
1000
0000
0001
0000
2002
0000
0000
0000
,  // measure 23
3003
0000
1000
0010
0100
0001
1001
0000
,  // measure 24
1100
0011
0101
1010
,  // measure 25
1001
0000
0110
0000
1001
0000
0001
1000
,  // measure 26
0010
0000
0000
0010
0100
0000
0001
0000
1000
0000
0010
0000
1000
0000
0001
0000
,  // measure 27
0010
0000
0000
0010
0100
0000
1000
0000
0001
0000
0010
0000
0001
0000
1000
0000
,  // measure 28
0010
0000
0000
0010
0100
0000
0001
0000
0010
0000
0100
0000
2200
0000
0000
0000
,  // measure 29
3300
0022
0033
0110
,  // measure 30
1001
0000
0000
0001
0100
0000
0010
0000
1000
0000
0100
0000
0010
0001
0000
0010
,  // measure 31
0001
0000
1000
0010
0000
1000
0010
0000
0100
0000
0001
0000
0011
0000
0000
0000
,  // measure 32
1100
0000
0000
0000
1000
0001
1000
0000
0001
0100
0000
0010
0000
0100
0010
0000
,  // measure 33
1000
0000
0100
0010
0100
0000
0010
0000
0001
0000
0100
0000
0110
0000
0000
0000
,  // measure 34
1001
0000
0000
1000
0100
0000
0010
0000
0001
0000
0100
0000
0010
1000
0000
0010
,  // measure 35
1000
0000
0001
0010
0000
0001
0010
0000
0100
0000
1000
0000
1010
0000
0000
0000
,  // measure 36
0101
0000
0000
0001
1000
0000
0100
0000
0010
0000
0001
0000
2002
0000
0000
0000
,  // measure 37
3003
0220
0330
2001
,  // measure 38
0100
0010
0100
3002
,  // measure 39
0100
0000
0000
0000
0010
0000
0000
0000
0100
0000
0000
0000
1003
0010
1000
0000
,  // measure 40
0010
0100
0010
0000
0100
0001
0100
0000
0001
1000
0001
0000
1000
0100
1000
0100
,  // measure 41
0010
0001
0010
0001
0200
0000
0010
0000
0020
0000
0330
0000
2001
0000
0000
0000
,  // measure 42
3010
0000
0000
1000
0001
0000
0010
0000
0100
0000
1000
0000
1002
0000
0000
0000
,  // measure 43
0013
0000
0000
0001
1000
0000
0010
0000
0100
0000
0001
0000
0011
0000
0000
0010
,  // measure 44
0100
0000
1000
0000
1010
0000
0000
0010
0100
0000
0001
0000
0011
0000
0000
0000
,  // measure 45
1100
1010
0101
0110
,  // measure 46
1001
0000
0000
1000
0100
0000
0001
0000
0100
0000
0010
0000
0110
0000
0000
0000
,  // measure 47
1001
0000
0000
0001
0100
0000
1000
0000
0100
0000
0010
0000
1010
0000
0000
1000
,  // measure 48
0100
0000
0010
0000
0011
0000
0000
0001
1000
0000
0010
0000
0110
0000
0000
0000
,  // measure 49
1001
0000
0000
0001
0010
0000
0100
0000
1000
0000
0001
0000
1001
0000
0000
0000
;
