#TITLE:LUV CAN SAVE U;
#SUBTITLE:;
#ARTIST:HIDEKI NAGANUMA;
#TITLETRANSLIT:;
#SUBTITLETRANSLIT:;
#ARTISTTRANSLIT:HIDEKI NAGANUMA;
#GENRE:;
#CREDIT:;
#MUSIC:LUV CAN SAVE U.mp3;
#BANNER:LUV CAN SAVE U.png;
#BACKGROUND:LUV CAN SAVE U-bg.png;
#CDTITLE:;
#SAMPLESTART:40.500;
#SAMPLELENGTH:15.000;
#SELECTABLE:YES;
#OFFSET:-0.237;
#BPMS:0.000=140.000;
#STOPS:;
#BGCHANGES:-2.000=LUV CAN SAVE U.avi=1.000=1=0=0=StretchNoLoop==CrossFade==,
99999.000=-nosongbg-=1.000=0=0=0=StretchNoLoop====
;
#FGCHANGES:;

//--------------- dance-single - ----------------
#NOTES:
     dance-single:
     :
     Beginner:
     3:
     0,0,0,0,0:
0000
0000
0000
0000
,
0000
0000
0000
0000
,
0000
0000
0000
0000
,
0000
0000
0000
0000
,
0001
0000
0001
0001
,
1000
0000
1000
1000
,
0001
0000
0001
0001
,
1000
0000
1000
1000
,
0001
0001
0100
0000
,
0010
0001
0010
0000
,
0001
0000
0000
0001
0000
0000
0000
0000
,
1000
0000
0000
1000
0000
0000
0000
0000
,
0001
0001
0000
1000
,
0001
0001
0000
1000
,
0010
0010
0000
1000
,
0010
0010
0000
1000
,
0001
0001
0000
1000
,
0001
0001
0000
1000
,
0100
0100
0000
0001
,
0001
0000
1000
0000
,
1000
0000
0001
0000
,
0100
0000
0100
0000
,
1000
0000
0001
0000
,
0010
0001
0000
0010
,
0001
1000
0001
1000
,
1000
0001
1000
0001
,
1000
0001
1000
0001
,
0001
1000
0001
1000
,
1000
1000
1000
1000
,
0001
0001
0001
0001
,
0010
0000
0000
0010
0000
0000
0000
0000
,
0000
0010
0001
0001
,
0200
0000
0000
0000
,
0320
0000
0000
0000
,
0230
0000
0000
0000
,
0320
0000
0000
0000
,
2030
0000
0000
0000
,
3002
0000
0000
0000
,
2003
0000
0000
0000
0000
0000
0000
3000
,
0002
0000
0000
0000
,
0003
0100
0010
1000
,
0000
0001
0000
0000
0001
0000
0001
0000
,
0000
0100
0001
0001
,
0000
0010
1000
1000
,
0000
0100
1000
1000
,
0000
0001
0000
0000
0001
0000
0001
0000
,
0000
0000
0000
0000
,
1000
1000
0001
1000
,
0000
1000
0010
0000
,
0010
0000
0001
0000
,
0000
0001
0100
0000
,
0100
0000
0000
0000
,
0001
0010
0001
0000
,
0001
1000
0001
1000
,
1000
0001
1000
0001
,
1000
0001
1000
0001
,
0001
1000
0001
1000
,
1000
0000
1000
0000
,
0001
0000
0001
0000
,
0001
0000
0000
0001
0000
0100
0000
0000
,
0100
0000
0000
0000
,
0001
0000
0001
0000
,
0100
0000
0100
0000
,
0010
0000
0010
0000
,
0010
0000
0001
0000
,
1000
0000
0010
0000
,
1000
0000
0010
0000
,
0001
0000
0001
0000
,
0001
1000
0001
0000
,
1001
0000
0000
0000
;

//--------------- dance-single - ----------------
#NOTES:
     dance-single:
     :
     Easy:
     6:
     0,0,0,0,0:
0000
0000
0000
0000
,
0000
0000
0000
0000
,
0000
0000
0000
0000
,
0000
0000
0000
0000
,
0001
0010
0001
0000
0001
0000
0001
0000
,
1000
0100
1000
0000
1000
0000
1000
0000
,
0001
0000
0001
0000
0001
0010
0001
0000
,
1000
0000
1000
0000
1000
0100
1000
0000
,
0001
0001
0100
0010
,
0010
0100
0010
0000
0100
0000
0001
0000
,
0001
0000
0000
0010
0000
0000
0001
0000
0000
0000
0000
0000
0000
0000
0000
0000
,
0100
0000
0000
0010
0000
0000
0100
0000
0000
0000
0000
0000
0000
0000
0000
0000
,
0001
0000
0001
0000
0000
0100
1000
0000
,
0001
0000
0001
0000
0000
0100
1000
0000
,
0010
0000
0010
0000
0000
0001
1000
0000
,
0010
0000
0010
0000
0000
0001
1000
0000
,
0001
0000
0001
0000
0000
0010
1000
0000
,
0001
0000
0001
0000
0000
0010
1000
0000
,
1000
0000
1000
0000
0000
0100
0001
0000
,
0001
0100
0001
0000
0001
0100
0001
0000
,
1000
0001
0001
1000
,
0010
0100
0100
0010
,
1000
1000
0001
0001
,
0010
0001
0001
0010
,
0001
1000
0001
1000
,
1000
0001
1000
0001
,
1000
0001
1000
0001
,
0001
1000
0001
1000
,
1000
0100
1000
0000
1000
0000
1000
0000
,
0001
0010
0001
0000
0001
0000
0001
0000
,
0010
0000
0000
0001
0000
0000
0010
0000
0000
0000
0000
0000
0001
0000
0000
0000
,
0001
0010
0001
0001
,
0200
0010
0000
0010
,
0320
0100
0000
0100
,
0230
0010
0000
0010
,
0320
0100
0000
0100
,
2030
0001
0001
0000
,
3002
1000
1000
0000
,
2003
0000
0001
0000
0001
0000
0000
3000
,
2002
0000
0000
0000
,
3003
0000
0100
0000
0010
0100
0010
0000
,
0000
0000
0001
0000
0000
1000
0000
0000
0001
0000
0000
0000
1000
0000
0000
0000
,
0000
0000
0100
0000
0001
0000
0001
0100
,
0000
0010
1000
1000
,
0000
0000
0100
0000
1000
0100
1000
0000
,
0000
0000
0001
0000
0000
1000
0000
0000
0001
0000
0000
0000
1000
0000
0000
0000
,
0000
0000
0001
0000
0000
0010
0000
0000
0001
0000
0000
0010
0000
0000
0000
0000
,
1000
1000
0001
1000
,
0000
1000
0010
0000
,
0010
0000
0001
0000
,
0000
0001
0100
0000
,
0100
0000
0000
0001
0000
0000
0000
0000
0000
0000
0000
0000
0000
0000
0000
0000
,
1000
0100
0010
0001
,
0001
1000
0001
1000
,
1000
0001
1000
0001
,
1000
0001
1000
0001
,
0001
1000
0001
1000
,
0010
0100
0010
0000
0100
0000
0100
0000
,
0001
0010
0001
0000
0001
0000
0001
0000
,
0001
0000
0000
0010
0000
0000
0001
0000
0000
0000
0100
0000
0000
0001
0000
0000
,
0100
0000
0000
0000
,
0001
0010
0001
0010
,
0000
0010
0001
0010
,
0000
1000
0010
1000
,
0000
0100
0001
0100
,
0000
0001
0010
0001
,
0000
0001
0010
0001
,
0000
0100
1000
0100
,
0000
0010
0001
0010
,
1001
0000
0000
0000
;

//--------------- dance-single - ----------------
#NOTES:
     dance-single:
     :
     Medium:
     9:
     0,0,0,0,0:
0000
0000
0000
0000
,
0000
0000
0000
0000
,
0000
0000
0000
0000
,
0000
0000
0000
0000
,
0001
0100
0000
0100
0001
0010
0001
0000
,
1000
0100
0000
0100
1000
0010
1000
0000
,
0001
0010
0001
0000
0001
0010
0001
0000
,
1000
0100
1000
0000
1000
0100
1000
0000
,
0001
0010
0000
1000
0100
1000
0100
0000
,
0010
0100
0000
1000
0100
0010
0001
0000
,
0001
0000
0000
0010
0000
0000
0001
0000
0000
0000
1000
0000
0000
0010
0000
0000
,
1000
0000
0000
0010
0000
0000
1000
0000
0000
0000
0000
0000
0000
0000
0000
0000
,
0001
0010
0001
0000
0000
0100
1000
0000
,
0001
0010
0001
0000
0000
0100
1000
0000
,
0010
0100
0010
0000
0000
0001
1000
0000
,
0010
0100
0010
0000
0000
0001
1000
0000
,
0001
0100
0001
0000
0000
0010
1000
0000
,
0001
0100
0001
0000
0000
0010
1000
0000
,
1000
0010
1000
0000
0000
0100
0001
0000
,
0001
0100
0001
0000
0001
0100
0001
0000
,
1000
1001
0001
1001
,
0010
0110
0100
0110
,
1000
1010
0001
0101
,
1000
1001
0001
0010
,
0001
0100
1000
0100
0001
0100
1000
0000
,
1000
0001
1000
0001
,
1000
0100
0001
0100
1000
0100
0001
0000
,
0001
1000
0001
1000
,
1000
0100
1000
0010
1000
0100
1000
0000
,
0001
0010
0001
0010
,
0100
0000
0000
1000
0000
0000
0110
0000
0000
0000
0001
0000
0010
0000
0001
0000
,
0010
0010
0001
0001
,
0200
0000
0000
0000
,
0320
0001
0001
0001
,
0230
0000
0000
0000
,
0320
1000
1000
1000
,
2030
0001
0000
0001
,
3002
1000
0000
1000
,
2003
0000
0001
0000
0000
0000
0001
3000
,
2002
0000
0000
0000
,
3003
1000
0100
0000
1000
0100
1000
0000
,
0000
0000
0001
0000
0000
1000
0000
0000
0001
0000
0000
0000
1001
0000
0000
0000
,
0000
0001
0010
0001
0010
0000
0001
0100
,
0000
0001
0010
0100
1000
0100
1000
0000
,
0000
1000
0100
0000
1000
0100
1000
0000
,
0000
0000
0001
0000
0000
1000
0000
0000
0001
0000
0000
0000
1001
0000
0000
0000
,
0000
0000
0001
0000
0000
0010
0000
0000
0100
0000
0000
1000
0000
0000
0100
0000
,
1000
0010
1000
0000
0001
0100
0001
0000
,
0000
0000
0000
0000
1000
0000
0100
0000
0010
0000
0000
0001
0000
0000
0000
0000
,
0010
0000
0000
0100
0000
0000
0000
0000
0001
0000
0000
0010
0000
0000
0000
0000
,
0000
0000
0000
0000
0001
0000
0010
0000
0100
0000
0000
1000
0000
0000
0000
0000
,
0100
0000
0000
1000
0000
0000
0000
0000
0000
0000
0000
0000
0000
0000
0000
0000
,
1000
0100
0010
0001
,
0001
0100
1000
0100
0001
0100
1000
0000
,
1000
0001
1000
0001
,
1000
0100
0001
0100
1000
0100
0001
0000
,
0001
1000
0001
1000
,
1000
0010
0100
0010
1000
0010
0100
0000
,
0001
0010
0001
0010
,
0001
0000
0000
0010
0000
0000
0001
0000
0000
0000
1000
0000
0000
0001
0000
0000
,
1000
0000
0000
0000
,
0001
0010
0001
0000
,
0100
1000
0100
0000
,
0010
1000
0010
0000
,
0010
0100
0001
0000
,
1000
0100
0010
0001
,
1000
0100
0010
0001
,
0010
0100
1000
0100
,
1000
0001
1000
1001
,
1001
0000
0000
0000
;

//--------------- dance-single - ----------------
#NOTES:
     dance-single:
     :
     Hard:
     11:
     0,0,0,0,0:
0000
0000
0000
0000
,
0000
0000
0000
0000
,
0000
0000
0000
0000
,
0000
0000
0000
0000
,
0001
0100
1000
0100
0001
0010
0001
0000
,
1000
0100
0001
0100
1000
0010
1000
0000
,
0001
0010
0001
0100
0001
0010
0001
0000
,
1000
0100
1000
0010
1000
0100
1000
0000
,
0001
0010
0001
1000
0100
1000
0010
0000
,
0010
0100
0010
1000
0100
0010
0001
0000
,
0101
0000
0000
1010
0000
0000
0101
0000
0000
0000
1000
0000
0000
0010
0000
0000
,
1100
0000
0000
0011
0000
0000
1100
0000
0000
0000
0000
0000
0000
0000
0000
0000
,
0001
0000
0010
0000
0001
0000
0000
1000
0000
0000
0100
0000
1000
0000
0000
0000
,
0001
0000
0010
0000
0001
0000
0000
1000
0000
0000
0100
0000
1000
0000
0000
0000
,
0010
0000
0100
0000
0010
0000
0000
1000
0000
0000
0001
0000
1000
0000
0000
0000
,
0010
0000
0100
0000
0010
0000
0000
1000
0000
0000
0001
0000
1000
0000
0000
0000
,
0001
0000
0100
0000
0001
0000
0000
1000
0000
0000
0010
0000
1000
0000
0000
0000
,
0001
0000
0100
0000
0001
0000
0000
1000
0000
0000
0010
0000
1000
0000
0000
0000
,
1000
0000
0010
0000
1000
0000
0000
0001
0000
0000
0100
0000
0001
0000
0000
0000
,
0001
0100
1000
0000
1000
0100
0001
0000
,
1000
1001
0001
1001
,
0010
0110
0100
0110
,
1000
1010
0001
0101
,
0110
1001
0001
0010
,
0001
0100
1000
0100
0001
0100
1000
0000
,
1000
0100
0001
0100
1000
0100
0001
0000
,
1000
0100
0001
0100
1000
0100
0001
0000
,
0001
0010
1000
0010
0001
0010
1000
0000
,
1000
0100
1000
0010
1000
0100
1000
0000
,
0001
0010
0001
0100
0001
0010
0001
0000
,
0110
0000
0000
1001
0000
0000
0110
0000
0000
0000
1000
0000
0100
0000
0010
0000
,
0001
0010
0001
0001
,
0200
0010
1000
0010
,
0320
0100
0001
0100
,
0230
0010
1000
0010
,
0320
0100
0001
0100
,
2030
0001
0001
0001
,
3002
1000
1000
1000
,
2003
0000
0001
0000
0001
0000
0001
3000
,
2002
0000
0000
0000
,
3003
1000
0100
0000
0010
0100
1000
0000
,
0000
0000
0001
0000
0000
1000
0000
0000
0001
0000
0000
0000
1001
0000
0000
0000
,
0000
1000
0100
0010
0001
0000
0001
0100
,
0000
0001
0010
0100
1000
0100
1000
0000
,
0000
1000
0100
0000
0010
0100
1000
0000
,
0000
0000
0001
0000
0000
1000
0000
0000
0001
0000
0000
0000
1001
0000
0000
0000
,
0000
0000
0001
0000
0000
0010
0000
0000
0100
0000
0000
1000
0000
0000
0100
0000
,
1000
0000
0010
0000
1000
0100
0000
0000
0001
0000
0100
0000
1000
0010
0000
0000
,
0000
0000
0000
0000
1000
0000
0100
0000
0010
0000
0000
0001
0000
0000
0001
0000
,
0010
0000
0000
0100
0000
0000
0010
0000
0001
0000
0000
0010
0000
0000
0000
0000
,
0000
0000
0000
0000
0001
0000
0010
0000
0100
0000
0000
1000
0000
0000
1000
0000
,
0100
0000
0000
1001
0000
0000
0000
0000
0000
0000
0000
0000
0000
0000
0000
0000
,
1000
0100
0010
0001
,
0001
0100
1000
0100
0001
0100
1000
0000
,
1000
0100
0001
0100
1000
0100
0001
0000
,
1000
0100
0001
0100
1000
0100
0001
0000
,
0001
0010
1000
0010
0001
0010
1000
0000
,
1000
0010
0100
0010
1000
0010
0100
0000
,
0001
0100
0010
0100
0001
0100
0010
0000
,
1001
0000
0000
0110
0000
0000
1001
0000
0000
0000
1100
0000
0000
0101
0000
0000
,
1100
0000
0000
0000
,
0001
0010
0001
0010
,
0100
1000
0100
1000
,
0010
1000
0010
1000
,
0010
0100
0001
1000
,
1000
0100
0010
0001
,
1000
0100
0010
0001
,
0001
0100
1000
0100
,
0001
1000
0001
0110
,
1001
0000
0000
0000
;
