#TITLE:LADYLIKE;
#SUBTITLE:;
#ARTIST:KIRA;
#TITLETRANSLIT:;
#SUBTITLETRANSLIT:;
#ARTISTTRANSLIT:;
#GENRE:;
#CREDIT:;
#BANNER:LADYLIKE.png;
#BACKGROUND:LADYLIKE-bg.png;
#LYRICSPATH:;
#CDTITLE:;
#MUSIC:LADYLIKE.ogg;
#OFFSET:0.000000;
#SAMPLESTART:42.070633;
#SAMPLELENGTH:17.142860;
#SELECTABLE:YES;
#BPMS:0.000000=112.000000
;
#STOPS:
;
#BGCHANGES:11.500=LADYLIKE.avi=1.000=1=0=0=StretchNoLoop==CrossFade==,
99999=-nosongbg-=1.000=0=0=0 // don't automatically add -songbackground-
;
#KEYSOUNDS:;
#ATTACKS:;

//---------------dance-single - ----------------
#NOTES:
     dance-single:
     :
     Hard:
     10:
     0.382723,0.380856,0.261372,0.261372,0.000000,287.000000,259.000000,28.000000,28.000000,0.000000,0.000000,0.382723,0.380856,0.261372,0.261372,0.000000,287.000000,259.000000,28.000000,28.000000,0.000000,0.000000:
// measure 0
0000
0000
0000
0000
,  // measure 1
0000
0000
0000
0000
,  // measure 2
0000
0000
0000
0000
,  // measure 3
0000
0000
0000
0000
,  // measure 4
1000
0000
1100
0000
0001
1000
1100
0000
,  // measure 5
0100
0000
0010
0000
0001
0010
0001
1000
,  // measure 6
0001
0000
0101
0000
1000
0001
0101
0000
,  // measure 7
0100
0000
0010
0000
1000
0010
1000
0001
,  // measure 8
0010
0000
0011
0000
1000
0001
0011
0000
,  // measure 9
0001
0000
0010
0000
0100
0010
0001
1000
,  // measure 10
0010
0000
0110
0000
0100
0010
0100
0001
,  // measure 11
0010
0000
0110
0000
0100
0010
0100
1000
,  // measure 12
0001
0000
0100
0000
0010
0100
0001
0000
,  // measure 13
0100
0001
0010
0000
0200
0000
2300
0000
,  // measure 14
3002
0000
0013
0000
0001
1000
0010
0000
,  // measure 15
0100
0000
0001
0100
0010
0000
0100
0010
,  // measure 16
1000
0100
1000
0100
0010
0100
0010
0100
,  // measure 17
0001
0100
0010
0100
1000
0000
0001
0001
,  // measure 18
1000
0010
1000
0010
0100
0010
0100
0010
,  // measure 19
0001
0010
0100
0010
1000
0010
0100
0000
,  // measure 20
0101
0000
1001
0000
0002
1000
1000
1003
,  // measure 21
0001
0000
0011
0000
0010
0100
1000
0000
,  // measure 22
1100
0000
1001
0000
2000
0001
0001
3001
,  // measure 23
1000
0000
1010
0000
0010
0100
0001
0000
,  // measure 24
0101
0000
0110
0000
1000
0001
1000
0000
,  // measure 25
1100
0000
0110
0000
0010
0100
1000
0100
,  // measure 26
0020
0000
0031
1000
0020
0000
1030
0001
,  // measure 27
0020
0000
0230
0000
1300
0100
0010
0001
,  // measure 28
1000
0000
1001
0000
0002
0100
0100
0103
,  // measure 29
0001
0000
0101
0000
0010
0001
0101
0000
,  // measure 30
0001
0000
1001
0000
2000
0100
0100
3100
,  // measure 31
1000
0000
1100
0000
0010
1000
1100
0100
,  // measure 32
0020
0000
0031
0001
0010
0001
1000
0001
,  // measure 33
2000
0010
3010
0000
0100
0010
1000
0001
,  // measure 34
0020
0000
0031
1000
0020
0000
1030
0001
,  // measure 35
2000
3200
0320
0032
,  // measure 36
1003
0000
1000
0010
0001
0000
1000
0010
,  // measure 37
0001
0000
1000
0010
0001
0000
1000
0010
,  // measure 38
0100
0000
0001
0010
1000
0000
0001
0010
,  // measure 39
1000
1000
0010
0010
0001
0010
1000
0010
,  // measure 40
0001
0000
0011
0000
0001
0010
0001
1000
,  // measure 41
0001
0000
0100
0000
0010
0100
0001
1000
,  // measure 42
0100
0000
1100
0000
1000
0100
1000
0001
,  // measure 43
1000
0000
0010
0000
0100
0001
1000
0100
,  // measure 44
0010
0000
0110
0000
0100
0010
0001
1000
,  // measure 45
0020
0230
0302
2003
,  // measure 46
3200
0000
1300
0001
0200
0000
0301
1000
,  // measure 47
0200
0320
0032
1003
,  // measure 48
1001
0000
0000
0000
;

//---------------dance-single - ----------------
#NOTES:
     dance-single:
     :
     Medium:
     7:
     0.293377,0.358453,0.130686,0.242703,0.000000,220.000000,206.000000,14.000000,26.000000,0.000000,0.000000,0.293377,0.358453,0.130686,0.242703,0.000000,220.000000,206.000000,14.000000,26.000000,0.000000,0.000000:
0000
0000
0000
0000
,
0000
0000
0000
0000
,
0000
0000
0000
0000
,
0000
0000
0000
0000
,
1000
0000
0100
0000
0010
0100
1000
0000
,
0001
0001
1001
0000
,
0001
0000
0100
0000
0010
1000
0010
0000
,
1000
0000
0100
0000
0010
0001
0010
0000
,
0001
0000
0100
0000
0010
0100
0001
0000
,
1000
1000
1001
0000
,
1000
0000
0001
0000
1000
0001
1000
0000
,
0010
0000
0100
0000
0010
0100
0010
0000
,
0210
0010
0001
0001
,
1000
0001
0320
2030
,
3200
1000
0010
0010
,
0001
0010
1000
0310
,
0002
0013
0020
0130
,
0200
1300
2000
3001
,
0001
0100
0001
0000
1000
0100
1000
0000
,
0001
0100
0010
0100
0001
0100
0010
0000
,
2000
0000
0002
0000
3003
1000
0001
1000
,
0001
0100
1000
0100
,
0002
0000
2000
0000
3003
0001
1000
0001
,
1000
0100
0001
0100
,
0010
0000
0011
0000
0010
0100
1000
0000
,
0010
0000
1010
0000
0010
0100
0001
1000
,
0100
0100
0010
0010
,
0001
0000
0010
0000
0100
1000
0001
1000
,
0010
0000
0220
0000
0330
0100
0010
0100
,
0010
1010
1000
1100
,
0100
0000
0220
0000
0330
0100
0010
0100
,
0010
0011
0001
0101
,
0200
0000
0310
0000
0100
0001
1000
0000
,
0200
0000
0310
0000
0100
0010
0001
1000
,
0010
0010
0100
0100
,
0001
0100
0010
1000
,
0001
0000
0000
1000
0001
0000
0000
1000
,
0001
0000
0000
1000
0001
0000
0010
0000
,
0100
0000
0000
0010
0100
0000
0000
0010
,
0100
1000
0100
0001
0100
0010
0100
0010
,
0100
0000
1100
0000
0001
0100
0010
1000
,
0002
1000
1000
1003
,
0100
0000
0101
0000
1000
0100
0010
0001
,
2000
0001
0001
3001
,
0002
0013
0020
0130
,
0200
0320
0032
2003
,
3010
0000
0000
0100
0010
0000
0000
0100
,
0010
0010
1000
1000
,
1001
0000
0000
0000
;

//---------------dance-single - ----------------
#NOTES:
     dance-single:
     :
     Easy:
     4:
     0.188028,0.291243,0.149355,0.000000,0.000000,141.000000,125.000000,16.000000,0.000000,0.000000,0.000000,0.188028,0.291243,0.149355,0.000000,0.000000,141.000000,125.000000,16.000000,0.000000,0.000000,0.000000:
0000
0000
0000
0000
,
0000
0000
0000
0000
,
0000
0000
0000
0000
,
0000
0000
0000
0000
,
0001
0000
0001
0000
,
0001
1000
0001
0000
,
0100
0000
0100
0000
,
0100
0100
0010
0010
,
1000
0000
1000
0000
,
1000
0001
1000
0000
,
0100
0010
0100
0000
,
0110
0110
0110
0000
,
0010
0000
0001
0000
,
0010
0000
0001
1000
,
0010
0000
1000
0000
,
0010
1000
0001
0000
,
1000
0100
0010
0001
,
1000
0100
0110
0000
,
0001
0100
0010
1000
,
1010
0110
0101
1001
,
0001
0000
1000
1000
,
0001
0000
0100
0000
,
0010
0000
1000
1000
,
0100
0000
0010
0000
,
0001
0010
1000
0000
,
0001
0100
1000
0000
,
0001
0000
0001
0000
,
1000
1000
0001
0001
,
1001
0000
1000
0001
,
1000
0000
0010
0000
,
0110
0000
0100
0010
,
0100
0000
0001
0000
,
1000
0010
0001
0000
,
1000
0100
0001
0000
,
1000
0000
1000
0000
,
0001
0001
1000
1000
,
1001
0000
0001
0000
,
0010
0000
0100
1000
,
1001
0000
0001
0000
,
0100
0010
1000
0001
,
1001
0000
1000
1000
,
0100
0000
0100
0000
,
0110
0000
0010
0001
,
0100
0000
0100
0000
,
0110
0000
0100
0001
,
1001
0000
1000
0100
,
0010
0000
0010
0000
,
0100
0100
1000
1000
,
0001
0000
0000
0000
;

//---------------dance-single - ----------------
#NOTES:
     dance-single:
     :
     Beginner:
     2:
     0.122685,0.156823,0.056008,0.000000,0.000000,92.000000,86.000000,6.000000,0.000000,0.000000,0.000000,0.122685,0.156823,0.056008,0.000000,0.000000,92.000000,86.000000,6.000000,0.000000,0.000000,0.000000:
0000
0000
0000
0000
,
0000
0000
0000
0000
,
0000
0000
0000
0000
,
0000
0000
0000
0000
,
0001
0000
0001
0000
,
0001
0000
0000
0000
,
1000
0000
0000
0000
,
1000
0000
0000
0000
,
0010
0000
0010
0000
,
0010
0000
0000
0000
,
0100
0100
0100
0000
,
0100
0100
0100
0000
,
0001
0000
0001
0000
,
0001
0000
0000
0000
,
1000
0000
1000
0000
,
1000
0000
0000
0000
,
0100
0000
0010
0000
,
0100
0000
0100
0000
,
1000
0000
0001
0000
,
1000
1000
1000
0000
,
0010
0000
0000
0000
,
0100
0000
0100
0000
,
0001
0000
0000
0000
,
1000
0000
1000
0000
,
1000
0000
1001
0000
,
0001
0000
1001
0000
,
1000
0000
1000
0000
,
0100
0000
0010
0000
,
0001
0000
0001
0001
,
0001
0000
1000
0000
,
0010
0000
0100
0100
,
0100
0000
0010
0000
,
1000
0000
1001
0000
,
0001
0000
1001
0000
,
1000
0000
0100
0000
,
0010
0010
0010
0010
,
0010
0000
0001
0000
,
0001
0000
0001
0001
,
0001
0000
1000
0000
,
1000
1000
1000
1000
,
1000
0000
0000
0000
,
0010
0000
0000
0000
,
0100
0000
0000
0000
,
0001
0000
0001
0000
,
1001
0000
0000
0000
,
0110
0000
0000
0000
,
1000
0000
1000
0000
,
0001
0000
0001
0000
,
1000
0000
0000
0000
;
