#TITLE:JIVE INTO THE NIGHT;
#SUBTITLE:;
#ARTIST:CYDNEY;
#TITLETRANSLIT:;
#SUBTITLETRANSLIT:;
#ARTISTTRANSLIT:;
#GENRE:DANCE EXPRESS Hi-speed;
#CREDIT:;
#MUSIC:JIVE INTO THE NIGHT.ogg;
#BANNER:JIVE INTO THE NIGHT.png;
#BACKGROUND:JIVE INTO THE NIGHT-bg.png;
#CDTITLE:;
#SAMPLESTART:67.041;
#SAMPLELENGTH:15.000;
#SELECTABLE:YES;
#OFFSET:1.406;
#BPMS:0.000=170.041;
#STOPS:;
#DISPLAYBPM:170.000;
#BGCHANGES:;
#FGCHANGES:;

//--------------- dance-single - forcednature ----------------
#NOTES:
     dance-single:
     forcednature:
     Beginner:
     4:
     0,0,0,0,0:
0000
0000
0000
0000
,
0000
0000
0000
0000
,
0000
0000
0000
0000
,
0000
0000
0000
0000
,
0000
0000
0000
0000
,
0001
1000
0000
0001
,
0000
0010
0000
0100
,
0100
0000
0010
0000
,
0100
0100
0100
0100
,
0010
0000
0001
0000
,
1000
0000
0010
0000
,
0100
0000
0001
0000
,
1000
0000
0100
0000
,
1001
0000
0000
0000
,
0001
0000
0000
0000
,
0100
0000
0000
0000
,
0010
0010
0010
0010
,
0010
0000
0100
0000
,
0001
0000
1000
0000
,
0100
0000
1000
0000
,
0001
0000
0010
0000
,
0001
0000
1000
0000
,
0010
0000
0100
0000
,
1001
0000
1001
0000
,
0100
0100
0100
0000
,
0010
0010
0010
0000
,
0001
0000
1000
0000
,
0100
0100
0100
0000
,
1000
0000
0001
0000
,
1000
1000
1000
0000
,
0010
0000
0100
0000
,
1001
0000
0000
0000
,
0010
0000
0100
0000
,
1001
0000
0000
0000
,
0001
0000
1000
0000
,
0010
0000
0000
0000
,
0100
0000
0001
0000
,
0010
0000
0000
0000
,
0100
0000
0000
0000
,
1000
1000
1000
1000
,
1000
0000
0000
0000
,
1001
0000
0000
0000
,
1000
0000
0000
0000
,
0100
0000
0000
0000
,
0010
0000
0000
0000
,
0001
0000
0000
0000
,
0100
0000
0000
0000
,
0010
0010
0010
0010
,
0010
0000
0000
0000
,
0100
0100
0100
0000
,
0001
0000
1000
0000
,
0001
0001
0001
0000
,
0010
0000
0100
0000
,
1000
1000
1000
0000
,
0010
0000
1000
0000
,
0001
0000
0100
0000
,
0110
0000
0000
0000
,
0001
0001
0001
0000
,
1000
0000
0010
0000
,
1000
1000
1000
0000
,
0001
0000
0010
0000
,
0100
0100
0100
0000
,
1000
0000
0001
0000
,
1001
0000
0000
0000
,
0100
0000
0010
0000
,
1001
0000
0000
0000
,
0001
0000
0100
0000
,
0001
0000
0000
0000
,
1000
0000
0100
0000
,
1000
0000
0000
0000
,
0010
0000
0000
0000
,
0100
0100
0100
0100
,
0100
0000
0000
0000
,
0110
0000
0000
0000
,
0001
0000
0010
0000
,
0001
0000
0000
0000
,
0100
0000
0000
0000
,
1001
0000
0001
0000
,
0100
0000
0010
0000
,
1000
1000
1000
1000
,
1000
0000
0000
0000
,
0100
0100
0100
0000
,
0010
0000
0001
0000
,
0010
0010
0010
0000
,
0001
0000
0100
0000
,
0001
0001
0001
0000
,
0010
0000
0100
0000
,
1000
0000
0010
0000
,
0100
0100
0100
0000
,
0010
0010
0010
0000
,
1000
0000
0001
0000
,
1000
1000
1000
0000
,
0100
0000
0010
0000
,
0001
0001
0001
0000
,
0100
0000
0010
0000
,
1001
0000
0000
0000
,
0100
0000
0010
0000
,
1001
0000
0000
0000
;

//--------------- dance-single - forcednature ----------------
#NOTES:
     dance-single:
     forcednature:
     Easy:
     7:
     0,0,0,0,0:
0000
0000
0000
0000
,
0000
0000
0000
0000
,
0000
0000
0000
0000
,
0000
0000
0000
0000
,
0000
0000
0000
0000
,
1001
0000
0001
0100
,
0010
1000
0010
0100
,
0110
0000
0110
0000
,
0110
1001
0110
1001
,
1000
0000
0001
0000
,
0100
0001
0100
0010
,
1000
0000
0100
0000
,
0010
0100
1000
0001
,
0100
0000
0001
0000
,
1000
0010
1000
0001
,
0010
0000
0100
0000
,
0010
0001
0010
0100
,
0001
0100
1000
0010
,
0001
0100
1000
0010
,
0001
0100
0010
1000
,
0001
0100
0010
1000
,
0001
0010
1000
0100
,
0001
0010
1000
0100
,
1001
0000
1001
0000
,
0110
1001
0110
0000
,
0100
0010
0110
0000
,
0001
1000
0010
1000
,
0001
1000
1001
0000
,
1000
0100
0010
0001
,
0100
0001
0101
0000
,
0001
1000
0010
0100
,
1001
0001
1000
0100
,
0000
0000
1000
0000
0000
0001
0000
0000
1000
0000
0000
0000
0000
0000
0000
0000
,
0010
0100
0001
0010
,
0100
0000
1000
0000
,
0010
0100
0001
1000
,
0100
0000
0010
0000
,
0001
0100
2000
3000
,
1000
0100
0002
0003
,
1000
0100
0001
0010
,
2000
0000
0001
3001
,
1001
0000
1000
0000
,
0010
0100
0001
0100
,
0010
0000
1000
0000
,
0100
0010
0001
0100
,
0001
1000
0200
0300
,
0010
0001
0200
0300
,
0010
0001
1000
0100
,
0001
0010
0100
0000
,
0011
0011
0011
0000
,
0001
0100
0010
0000
,
1100
1100
1100
0000
,
1000
0001
0100
0000
,
1010
1010
1010
0000
,
0010
1000
0100
0000
,
0020
0001
0031
0000
,
0110
0100
0100
0000
,
1010
1010
1010
0000
,
1000
0100
0010
0000
,
0110
0110
0110
0000
,
0010
0001
0100
0000
,
0011
0011
0011
0000
,
0001
1000
0010
0000
,
1000
0100
0010
0001
,
0000
0000
0100
0000
0000
0010
0000
0000
0100
0000
0000
0000
0000
0000
0000
0000
,
0002
0100
0200
0303
,
0001
1000
0100
0010
,
0200
1000
2000
3300
,
0001
1000
0010
1000
,
0001
0100
0220
0330
,
1000
0100
0220
0330
,
1001
0110
1001
0110
,
1000
0001
1000
0000
,
1001
0000
0001
0000
,
0100
1000
0100
0001
,
0100
0000
0010
0000
,
1000
0200
0020
0330
,
2002
3003
1000
0010
,
0100
0001
0010
0000
,
1001
0110
0110
1001
,
0100
0100
0010
0000
,
0110
0110
0110
0000
,
0001
1000
0010
0000
,
1001
1001
1001
0000
,
1000
0100
0010
0000
,
1100
1100
1100
0000
,
1000
0010
0100
0000
,
0002
0100
0103
0000
,
0110
0010
0010
0000
,
1001
1001
1001
0000
,
1000
0001
0100
0000
,
1010
1010
1010
0000
,
0010
1000
0100
0000
,
0011
0011
0011
0000
,
0001
0100
0010
0000
,
1001
0001
1000
0100
,
0000
0000
1000
0000
0000
0001
0000
0000
1000
0000
0000
0000
0000
0000
0000
0000
,
0110
0000
0000
0000
;

//--------------- dance-single - forcednature ----------------
#NOTES:
     dance-single:
     forcednature:
     Medium:
     9:
     0,0,0,0,0:
0000
0000
0000
0000
,
0000
0000
0000
0000
,
0000
0000
0000
0000
,
0000
0000
0000
0000
,
0000
0000
0000
0000
,
1001
0001
0100
0010
,
1000
0100
0010
0001
,
1001
0000
1001
0000
,
1100
0110
0011
1001
,
0001
0100
0001
0000
0010
0000
0100
0000
,
1000
0010
1000
0000
0001
0010
0001
0000
,
0100
0010
0100
0000
0001
0000
1000
0000
,
0100
0010
0100
0000
1000
0010
1000
0000
,
0001
0010
0001
0000
1000
0000
0010
0000
,
1000
0001
1000
0000
0100
0010
0100
0000
,
1000
0010
1000
0000
0001
0000
0100
0000
,
0001
0010
0001
0010
0100
0000
1000
0000
,
0110
1000
0001
0100
,
0010
1000
0001
0000
0100
0001
1000
0000
,
0100
1000
0001
0010
,
0001
1000
0010
0000
1000
0100
0010
0000
,
0100
1000
0010
0100
,
0001
0010
0100
0000
0010
0100
1000
0000
,
0110
0000
1001
0000
,
1001
0110
1001
0100
,
1001
1001
1001
0000
,
0100
0010
1000
0100
,
1001
1001
1001
0000
,
0001
0100
0010
1000
,
0110
0110
0110
0000
,
1000
0100
0010
0001
,
1000
0010
1000
0010
0100
0001
0100
0001
,
0000
0000
0001
0000
0000
1000
0000
0000
0100
0000
0000
0000
0000
0000
0000
0000
,
1000
0000
0010
0000
1000
0001
0100
0000
,
0010
1000
0001
0010
,
0100
0000
1000
0000
0010
0100
0001
0000
,
0010
0001
0100
0010
,
1000
0000
0000
0001
0000
0000
1001
0000
0000
0000
0000
0000
0100
0000
0000
0000
,
0001
0000
0000
1000
0000
0000
1001
0000
0000
0000
0000
0000
0010
0000
0000
0000
,
1100
0010
0101
0010
,
1000
0001
1000
0001
0100
0010
0100
0010
,
1000
0001
0010
0001
,
1000
0010
1000
0010
0000
0000
0100
0000
,
0001
0010
0100
1000
,
0001
0010
0001
0010
0000
0000
0001
0000
,
1000
0000
0000
0010
0000
0000
0110
0000
0000
0000
0000
0000
1000
0000
0000
0000
,
0001
0000
0000
0010
0000
0000
0110
0000
0000
0000
0000
0000
0001
0000
0100
0000
,
0001
1010
1000
0011
,
1000
0001
1000
0001
1000
0000
0000
0000
,
1001
1001
1001
0000
,
0001
0100
0001
0000
0010
0000
0100
0000
,
0110
0110
0110
0000
,
0010
0001
0010
0000
0100
1000
0100
0000
,
1010
1010
1010
0000
,
1000
0001
1000
0000
0100
0000
0010
0000
,
0001
0001
1000
1000
,
0010
0100
0010
1000
0001
0100
0001
0000
,
1001
0110
1001
1000
,
0100
0010
0001
0010
,
0110
1001
0110
0001
,
1000
0010
1000
0000
0001
0100
0001
0000
,
0011
1100
0011
1000
,
0001
0100
0010
1000
,
1001
0001
1000
0100
,
0000
0000
1000
0000
0000
0010
0000
0000
1000
0000
0000
0000
0100
0000
0000
0000
,
1001
1000
0002
0100
,
0010
0003
0001
0000
0010
0000
0100
0000
,
1000
0010
2000
0100
,
0001
3000
1000
0000
0010
0000
0100
0000
,
0001
0000
0000
0100
0000
0000
0110
0000
0000
0000
0000
0000
0001
0000
0000
0000
,
1000
0000
0000
0100
0000
0000
0110
0000
0000
0000
0000
0000
1000
0000
0000
0000
,
1001
0100
1001
0010
,
1000
0001
1000
0001
0010
0100
1000
0001
,
0100
0000
0001
0000
0020
0000
0100
0030
,
0010
0001
0010
0001
0100
0000
0010
0000
,
1000
0000
0001
0000
2000
0000
0010
3000
,
1000
0100
1000
0200
0000
0000
0300
0000
,
1001
0000
1000
0010
1000
0000
0001
0010
,
0001
0000
0100
0010
0100
0000
0001
0000
,
1100
1000
0101
0001
,
1000
0100
0010
0001
0100
0000
0000
0000
,
1100
0101
1100
0000
,
0010
0100
0001
0000
0010
0000
0100
0000
,
0101
1100
0101
0000
,
1000
0010
1000
0000
0001
0010
0001
0000
,
0110
1010
0011
0000
,
0001
1000
0001
0000
0100
0000
0010
0000
,
1000
0001
0100
0010
,
1000
0100
0010
0001
0100
0010
1000
0000
,
1010
0110
0101
0001
,
0010
0100
1000
0000
0001
0000
1000
0000
,
1100
1001
0011
0001
,
1000
0010
0100
0000
0001
0100
0010
0000
,
0110
1001
0110
0001
,
1000
0100
0010
0000
0001
0000
1000
0000
,
0001
0100
0010
0100
0010
1000
0001
0010
,
0000
0000
0100
0000
0000
0010
0000
0000
0001
0000
0000
0000
0110
0000
0000
0000
,
1001
0000
0000
0000
;

//--------------- dance-single - forcednature ----------------
#NOTES:
     dance-single:
     forcednature:
     Hard:
     12:
     0,0,0,0,0:
0000
0000
0000
0000
,
0000
0000
0000
0000
,
0000
0000
0000
0000
,
0000
0000
0000
0000
,
0000
0000
0000
0000
,
1000
0001
0100
0001
1000
0010
0100
0000
,
0001
0100
0001
1000
0001
0010
0100
0000
,
0010
0101
0010
1100
,
1000
0001
1000
0001
0100
0010
0100
0010
,
1000
0000
0010
0000
0100
0000
0000
0000
0001
0100
0000
0000
0001
0000
0000
0000
,
1000
0100
0010
0001
0010
0100
1000
0001
,
0100
0000
0010
0000
1000
0000
0000
0000
0001
0010
0000
0000
0001
0000
0000
0000
,
0100
0010
1000
0001
0010
0100
0010
0001
,
0100
0000
0001
0000
1000
0000
0000
0000
0010
1000
0000
0000
0001
0000
0000
0000
,
0100
1000
0100
0010
0100
0001
1000
0100
,
0010
0001
0010
0001
1000
0100
1000
0100
,
1000
0010
1000
0010
0100
0001
0100
0001
,
0100
0000
0000
0100
0001
0000
0000
0000
0010
0000
0000
0010
1000
0000
0000
0000
,
0010
1000
0001
0010
0100
1000
0100
0010
,
0001
0000
0000
0001
0010
0000
0000
0000
1000
0000
0000
1000
0100
0000
0000
0000
,
1000
0100
1000
0001
0100
0010
1000
0001
,
0010
0000
0000
0010
0001
0000
0000
0000
0100
0000
0000
0100
1000
0000
0000
0000
,
0001
0010
1000
0010
0001
0100
0010
0000
,
2002
3003
0220
0330
,
1000
0100
0001
0100
1000
0000
1001
0000
,
0001
0100
0000
0000
0001
0100
0000
0000
0001
0100
0000
0000
0001
0000
0000
0000
,
0000
1000
0000
0010
0100
0001
0010
0100
,
1000
0100
0000
0000
1000
0100
0000
0000
1000
0100
0000
0000
1000
0000
0000
0000
,
0001
0100
0001
1000
0001
0010
0100
1000
,
0001
1000
0000
0000
0001
1000
0000
0000
0001
1000
0000
0000
0001
0000
0000
0000
,
0000
0010
0000
0100
1000
0001
1000
0010
,
0100
0001
0100
1000
0100
0001
0100
1000
,
0000
0000
0100
0000
0000
0010
0000
0000
1001
0000
0000
0000
0000
0000
0000
0000
,
1000
0000
0100
1000
0100
0010
0001
0000
,
1000
0010
0100
0000
0001
0100
0010
0000
,
1000
0000
0001
0100
0001
1000
0100
0000
,
0010
0001
0010
0000
0100
1000
0100
0000
,
0010
0000
0000
0100
0000
0000
1100
0000
0000
0000
1000
0000
0010
0000
0000
0000
,
0100
0000
0000
0001
0000
0000
0011
0000
0000
0000
0001
0000
1000
0000
0000
0000
,
0101
1010
1100
0011
,
0001
1000
0100
0010
0001
0010
0100
1000
,
0010
0000
0100
0001
0010
0001
0100
0000
,
0010
1000
0100
1000
0100
0000
0010
0000
,
0001
0000
0100
0001
1000
0100
0010
0000
,
0001
0100
0001
0100
0001
0010
0001
1000
,
0010
0000
0000
1000
0000
0000
1001
0000
0000
0000
0001
0000
0010
0000
0000
0000
,
0001
0000
0000
0100
0000
0000
0110
0000
0000
0000
0100
0000
0001
0000
0000
0000
,
0110
1001
0101
1010
,
0001
0100
1000
0100
0001
0000
0000
0000
,
1000
0100
0000
0000
1000
0100
0000
0000
1000
0100
0000
0000
1000
0000
0001
0000
,
0100
0010
1000
0001
0010
0100
1000
0000
,
0001
0100
0000
0000
0001
0100
0000
0000
0001
0100
0000
0000
0001
0000
1000
0000
,
0001
0100
0010
0000
0100
0001
0010
0000
,
0100
0010
0000
0000
0100
0010
0000
0000
0100
0010
0000
0000
0001
0000
0010
0000
,
0001
0100
0010
1000
0100
0001
0100
1000
,
0010
0100
0001
0000
0010
0100
1000
0000
,
0010
1000
0001
0100
0010
1000
0100
0000
,
1000
0100
0000
0000
0010
0001
0000
0000
1000
0100
0000
0000
1000
0000
0001
0000
,
1000
0010
0100
1000
0100
0001
0010
0000
,
0100
1000
0000
0000
0001
0010
0000
0000
0100
1000
0000
0000
0001
0000
1000
0000
,
0010
1000
0100
0001
0100
0010
0001
0000
,
1000
0010
0000
0000
0100
0001
0000
0000
1000
0010
0000
0000
0100
0000
0001
0000
,
1000
0001
0010
0100
1000
0001
0100
0010
,
1000
0100
0001
0100
1000
0100
0001
0100
,
0000
0000
1000
0000
0000
0010
0000
0000
1001
0000
0000
0000
1000
0000
0100
0000
,
1000
1000
0001
0001
,
0100
0001
1000
0000
0100
1000
0001
0000
,
0010
0010
0100
0100
,
1000
0010
0100
0000
0001
0100
1000
0100
,
0001
0000
0000
0010
0000
0000
0011
0000
0000
0000
0001
0000
1000
0000
0010
0000
,
1000
0000
0000
0100
0000
0000
1100
0000
0000
0000
1000
0000
0001
0000
0000
0000
,
0110
1001
1010
0101
,
0001
1000
0100
0010
0001
1000
0001
1000
,
0010
0000
0100
0001
0010
0100
1000
0000
,
0010
1000
0010
1000
0100
0010
0001
0100
,
0010
0000
1000
0100
0010
0001
1000
0000
,
0001
0010
0001
0010
0100
1000
0100
0010
,
0100
0000
1000
0010
1000
0100
0001
0100
,
1000
0010
1000
0100
0001
0100
1000
0000
,
1001
1100
0011
0110
,
0100
1000
0100
0001
0100
0000
0000
0000
,
1000
0100
0000
0000
0001
0100
0000
0000
1000
0100
0000
0000
0010
0000
0001
0000
,
0010
0100
1000
0001
1000
0010
0100
0000
,
0001
0100
0000
0000
1000
0100
0000
0000
0001
0100
0000
0000
0010
0000
1000
0000
,
0001
0010
0100
0000
1000
0001
0100
0000
,
0010
1000
0000
0000
0010
0001
0000
0000
0010
1000
0000
0000
0010
0000
0100
0000
,
0001
1000
0100
0010
0100
1000
0010
0001
,
0010
1000
0100
0000
0010
0001
0100
0000
,
0010
0100
1000
0100
0001
0010
0100
0000
,
1000
0001
0000
0000
0100
0010
0000
0000
1000
0001
0000
0000
1000
0000
0010
0000
,
0100
0010
0001
0010
0100
0001
1000
0000
,
0001
1000
0000
0000
0100
0010
0000
0000
0001
1000
0000
0000
0010
0000
0100
0000
,
1000
0100
0001
0010
0100
1000
0001
0000
,
0100
0001
0000
0000
1000
0010
0000
0000
0100
0001
0000
0000
0100
0000
0010
0000
,
1000
0100
0010
0001
0100
0010
1000
0100
,
0001
0100
1000
0100
0010
0001
1000
0001
,
0000
0000
0100
0000
0000
0010
0000
0000
1001
0000
0000
0000
0110
0000
0000
0000
,
1001
0000
0000
0000
;

//--------------- dance-double - forcednature ----------------
#NOTES:
     dance-double:
     forcednature:
     Easy:
     6:
     0,0,0,0,0:
00000000
00000000
00000000
00000000
,
00000000
00000000
00000000
00000000
,
00000000
00000000
00000000
00000000
,
00000000
00000000
00000000
00000000
,
00000000
00000000
00000000
00000000
,
00011000
00010000
00000100
00001000
,
00000001
00000100
00000010
00010000
,
00011000
00000000
00011000
00000000
,
00001000
00100000
00010000
10000000
,
00100000
00100000
01000000
01000000
,
00010000
00100000
00001000
00010000
,
00000100
00000100
00000010
00000010
,
00000001
00000100
00000010
00001000
,
00000001
00000001
00001000
00001000
,
00000100
00010000
00001000
00100000
,
00010000
00010000
10000000
10000000
,
00010000
01000000
00001000
00010000
,
00011000
00010000
00000100
00001000
,
00000001
00000100
00000010
00001000
,
00000100
00010000
00001000
00100000
,
00010000
10000000
00010000
01000000
,
00011000
00000100
00010000
00001000
,
00100000
00001000
00010000
00000010
,
00001001
00000000
00001001
00000000
,
00000100
00000100
00000100
00000010
,
00000100
00000100
00000110
00000000
,
00000001
00000100
00000010
00010000
,
00001000
00001000
00011000
00000000
,
00100000
00010000
10000000
00100000
,
01000000
01000000
01100000
00000000
,
00010000
01000000
00001000
00010000
,
00000100
00010000
00001000
00100000
,
00000000
00000000
00001000
00000000
00000000
00010000
00000000
00000000
00001000
00000000
00000000
00000000
00000000
00000000
00000000
00000000
,
00010000
00000100
00010000
00001000
,
00100000
00001000
00010000
00000000
,
00000010
00010000
00001000
01000000
,
00001000
00010000
00000010
00000000
,
00001000
00000001
00001000
00000000
,
00000001
00000100
00000001
00000000
,
00000010
00000100
00010000
00001000
,
00100000
01000000
10000000
00010000
,
10000000
00100000
10000000
00010000
,
01000000
01000000
00001000
00010000
,
00000100
00001000
00000001
00001000
,
00000100
00000100
00010000
00001000
,
00100000
00001000
00010000
00000100
,
01000000
00001000
00010000
00000010
,
00001000
00000001
00000010
00000100
,
00010000
00010000
00001000
00000000
,
00100000
00100000
01100000
00000000
,
10000000
00010000
01000000
00001000
,
00010000
00010000
00011000
00000000
,
00000100
00001000
00000001
00000100
,
00000010
00000010
00001010
00000000
,
00010000
00001000
00100000
00010000
,
10000000
01000000
00100000
00001000
,
00010000
00000010
00001000
00000001
,
00000100
00000100
00000110
00000000
,
00000001
00001000
00000100
00010000
,
00001000
00001000
00101000
00000000
,
10000000
00100000
10000000
00010000
,
01000000
01000000
01010000
00000000
,
00010000
00100000
00001000
00010000
,
00000100
00001000
00000001
00000100
,
00000000
00000000
00000001
00000000
00000000
00001000
00000000
00000000
00000001
00000000
00000000
00000000
00000000
00000000
00000000
00000000
,
00000010
00000010
00000100
00000100
,
00010000
00001000
00100000
00000000
,
00100000
00100000
01000000
01000000
,
00010000
00001000
00000010
00000000
,
00000001
00000001
00000001
00000000
,
00001000
00001000
00001000
00000000
,
00000100
00010000
00001000
00100000
,
00010000
10000000
00010000
01000000
,
00100000
10000000
00010000
10000000
,
00100000
00100000
01000000
00010000
,
00100000
00001000
00010000
00000100
,
00000010
00000010
00000100
00001000
,
00000002
00000003
00000200
00000300
,
00002000
00003000
00020000
00030000
,
00100000
10000000
01000000
00100000
,
00010000
00010000
00010000
00000000
,
01000000
01000000
01100000
00000000
,
00010000
00100000
00001000
00010000
,
00001000
00001000
00011000
00000000
,
00010000
00000100
00001000
00000001
,
00000100
00000100
00000110
00000000
,
00000001
00000010
00000100
00001000
,
00010000
00100000
01000000
10000000
,
00010000
01000000
00010000
00100000
,
00001000
00001000
00011000
00000000
,
00010000
00000100
00001000
00000001
,
00000100
00000100
00000110
00000000
,
00000001
00000010
00000100
00010000
,
00001000
00001000
00011000
00000000
,
00100000
00010000
01000000
10000000
,
01000000
00010000
00100000
01000000
,
00000000
00000000
10000000
00000000
00000000
00010000
00000000
00000000
10000000
00000000
00000000
00000000
00100000
00000000
00000000
00000000
,
10010000
00000000
00000000
00000000
;

//--------------- dance-double - forcednature ----------------
#NOTES:
     dance-double:
     forcednature:
     Medium:
     10:
     0,0,0,0,0:
00000000
00000000
00000000
00000000
,
00000000
00000000
00000000
00000000
,
00000000
00000000
00000000
00000000
,
00000000
00000000
00000000
00000000
,
00000000
00000000
00000000
00000000
,
00011000
00001000
01000000
00100000
,
10000000
01000000
00100000
00001000
,
00012000
00013000
00021000
00031000
,
00011000
00011000
00011000
00011000
,
00000100
00000000
00001000
00000000
00000010
00000000
00000000
00000000
00000100
00000000
00000000
00000001
00000000
00000000
00000000
00000000
,
00000010
00000100
00001000
00000000
00000001
00000100
00000010
00000000
,
00010000
00000000
00001000
00000000
00100000
00000000
00000000
00000000
00010000
00000000
00000000
10000000
00000000
00000000
00000000
00000000
,
00100000
10000000
00010000
00000000
01000000
00001000
00100000
00000000
,
00010000
00000000
00100000
00000000
00001000
00000000
00000000
00000000
00000100
00000000
00000000
00000010
00000000
00000000
00000000
00000000
,
00001000
00000001
00000100
00000000
00000010
00010000
00001000
00000000
,
00100000
00000000
00010000
00000000
01000000
00000000
00000000
00000000
00010000
00000000
00000000
10000000
00000000
00000000
00000000
00000000
,
01000000
00100000
01000000
10000000
01000000
00100000
01000000
10000000
,
01000000
01100000
00010000
00100000
,
00000000
00001000
00000000
00010000
00000100
00001000
00000010
00001000
,
00000010
00000110
00000100
00000101
,
00000000
00000001
00000000
00001000
00000100
00001000
00000100
00001000
,
00000100
00011000
00100000
00010000
,
00000000
10000000
00000000
00100000
01000000
00100000
01000000
00010000
,
01000000
00011000
00000100
00011000
,
00100000
00001000
00010000
00000010
00001000
00000000
00001001
00000000
,
00000110
00000110
00000110
00000001
,
00000000
00000100
00000000
00001000
00000000
00010000
00000000
00100000
,
10100000
10100000
10100000
10000000
,
00010000
01000000
00001000
00000000
00010000
00000010
00001000
00000000
,
00001001
00001001
00001001
00000001
,
00000000
00000100
00000000
00000010
00000000
00001000
00000000
00000100
,
00001100
00000100
00010000
00001000
,
00000000
00000000
00100000
00000000
00000000
00010000
00000000
00000000
00110000
00000000
00000000
00000000
00000000
00000000
00000000
00000000
,
10000000
00000000
01000000
00000000
10000000
00100000
10000000
00000000
,
00010000
00100000
00001000
00010000
,
00000100
00000000
00000010
00000000
00000001
00000100
00000001
00000000
,
00000010
00000100
00010000
00001000
,
01000000
00000000
00000000
00010000
00000000
00000000
01000000
00000000
00000000
00000000
00100000
00000000
00000000
00000000
10000000
00000000
,
00010000
00000000
00000000
10000000
00000000
00000000
01000000
00000000
00000000
00000000
00100000
00000000
00000000
00000000
00010000
00000000
,
01010000
00011000
00001100
00011000
,
00001000
00010000
00001000
00000000
00100000
00010000
00100000
00000000
,
00011000
00010000
00000100
00001000
,
00000001
00000100
00000001
00000100
00000000
00000000
00000010
00000000
,
00001000
00000100
00000010
00000100
,
00010000
00001000
00010000
00001000
00000000
00000000
00100000
00000000
,
00110000
00000000
00000000
00010000
00000000
00000000
00100000
00000000
00000000
00000000
00001000
00000000
00000000
00000000
00010000
00000000
,
00000010
00000000
00000000
00001000
00000000
00000000
00000001
00000000
00000000
00000000
00000010
00000000
00000000
00000000
00000100
00000000
,
00001100
00011000
01010000
00011000
,
00010000
00001000
00100000
00010000
01000000
00000000
00000000
00000000
,
01100000
01100000
01100000
00010000
,
00100000
00001000
00010000
00000000
00000100
00010000
00001000
00000000
,
01001000
01001000
01001000
00001000
,
00010000
00000010
00010000
00000000
00000100
00001000
00000100
00000000
,
00000110
00000110
00000110
00000001
,
00001000
00000010
00001000
00000000
00000001
00000100
00000001
00000000
,
00000010
00000100
00010000
00001000
,
00011000
00001000
00100000
00010000
,
10010000
10010000
10010000
00010000
,
10000000
00100000
10000000
00000000
00010000
01000000
00010000
00000000
,
00110000
00110000
00110000
00100000
,
00001000
00010000
00001000
00000000
00000100
00000010
00000100
00000000
,
00000101
00000101
00000101
00000001
,
00000010
00000001
00000010
00000000
00000100
00001000
00000100
00000000
,
00001001
00000001
00000100
00000010
,
00000000
00000000
00010000
00000000
00000000
00001000
00000000
00000000
00011000
00000000
00000000
00000000
00100000
00000000
00000000
00000000
,
10010000
20000000
30200000
02300000
,
03020000
00230000
00302000
00013000
,
00011000
00020000
00030200
00002300
,
00003002
00000203
00000320
00001030
,
00000001
00000000
00000000
00001000
00000000
00000000
00000001
00000000
00000000
00000000
00000010
00000000
00000000
00000000
00000100
00000000
,
00001000
00000000
00000000
00000100
00000000
00000000
00001000
00000000
00000000
00000000
00000010
00000000
00000000
00000000
00010000
00000000
,
00001000
00011000
00100000
00110000
,
00010000
10000000
00010000
01000000
00010000
10000000
00100000
00000000
,
20000000
32000000
03200000
00302000
,
00013000
00001000
00010000
00001000
00000000
00000000
00000100
00000000
,
00000020
00002030
00003002
00000023
,
00000130
00001000
00000100
00020000
00000100
00000000
00000100
00030000
,
00010100
00000000
00100000
00001000
00100000
00000000
00000100
00010000
,
00000100
00000000
01000000
00001000
01000000
00000000
00000010
00000000
,
00001001
00000001
00000100
00000010
,
00010000
00001000
00010000
00001000
00010000
00000000
00000000
00000000
,
01100000
01100000
01100000
00010000
,
10000000
01000000
10000000
00000000
00010000
01000000
00010000
00000000
,
00011000
00011000
00011000
00000100
,
00001000
00000010
00001000
00000000
00000001
00000010
00000001
00000000
,
00000110
00000110
00000110
00000001
,
00001000
00000100
00001000
00000000
00010000
00100000
00010000
00000000
,
01000000
00001000
00010000
00000010
,
00010000
00001000
00010000
00000010
00010000
00001000
01000000
00000000
,
10100000
10100000
10100000
00010000
,
00100000
00001000
00010000
00000000
00000100
00001000
00000001
00000000
,
00000110
00000110
00000110
00000001
,
00001000
00000100
00010000
00000000
00001000
01000000
00010000
00000000
,
10100000
10100000
10100000
00010000
,
00100000
00001000
00010000
00000000
00000010
00001000
00000100
00000000
,
00000110
00000001
00001000
00000010
,
00000000
00000000
00010000
00000000
00000000
00001000
00000000
00000000
00011000
00000000
00000000
00000000
00000100
00000000
00000000
00000000
,
00001001
00000000
00000000
00000000
;

//--------------- dance-double - forcednature ----------------
#NOTES:
     dance-double:
     forcednature:
     Hard:
     13:
     0,0,0,0,0:
00000000
00000000
00000000
00000000
,
00000000
00000000
00000000
00000000
,
00000000
00000000
00000000
00000000
,
00000000
00000000
00000000
00000000
,
00000000
00000000
00000000
00000000
,
00010000
00001000
00000010
00000100
00001000
00000001
00000100
00001000
,
00010000
00000100
00010000
01000000
00100000
00010000
01000000
00100000
,
00010000
00011000
00001000
00011000
,
01000000
00100000
10000000
01000000
00010000
00001000
00100000
00010000
,
00000100
00000000
00000010
00000000
00001000
00000000
00000000
00000000
00000001
00000010
00000000
00000001
00000000
00000000
00000000
00000000
,
00000100
00001000
00010000
00000010
00010000
01000000
00100000
00010000
,
01000000
00000000
00001000
00000000
00010000
00000000
00000000
00000000
00000100
00001000
00000000
00000001
00000000
00000000
00000000
00000000
,
00000100
00001000
00010000
00100000
00010000
00001000
00010000
01000000
,
10000000
00000000
00010000
00000000
01000000
00000000
00000000
00000000
00001000
00000010
00000000
00000100
00000000
00000000
00000000
00000000
,
00001000
00000001
00000100
00001000
00010000
00000100
00001000
00000010
,
00010000
01000000
00100000
00010000
00100000
00001000
00000100
00000010
,
00001000
00000100
00000010
00000001
00000100
00001000
00010000
01000000
,
10000000
01000000
00010000
01000000
10000000
01000000
00010000
00001000
,
00000100
00000010
00001000
00000001
00000100
00001000
00010000
00000100
,
00000010
00000001
00000010
00001000
00000010
00000001
00000010
00000100
,
00010000
00001000
00010000
00100000
10000000
00010000
01000000
00100000
,
00010000
00001000
00000100
00001000
00010000
00001000
00000010
00001000
,
00010000
00000100
00001000
00000001
00000010
00000001
00000100
00001000
,
00011000
00000000
00011000
00000000
,
00001000
01000000
00100000
00010000
00001000
00000000
00011000
00000000
,
00000110
00000101
00001001
00000001
,
00000000
00000010
00000000
00000001
00000100
00001000
00010000
00100000
,
10000000
10010000
01100000
10000000
,
01000000
00010000
00001000
00000100
00001000
00010000
00100000
00010000
,
00001000
00010010
00000110
00001000
,
00000000
00000001
00000000
00000010
00000100
00010000
00001000
00000100
,
00000010
00001000
00010000
01000000
00100000
00010000
00001000
00100000
,
00000000
00000000
01000000
00000000
00000000
00010000
00000000
00000000
00000100
00000000
00000010
00000000
00000001
00000000
00000100
00000000
,
00000010
00000000
00000000
00001000
00000000
00000000
00001001
00000000
00000000
00000000
00000001
00000000
00000100
00000000
00000000
00000000
,
00001000
00010000
01000000
00000000
00100000
00010000
10000000
00100000
,
00010000
00000000
00000000
00001000
00000000
00000000
00100000
00000000
00000000
00000000
11000000
00000000
00000000
00000000
00010000
00000000
,
01000000
00000000
00001000
00000010
00000000
00000100
00001000
00000001
,
00001000
00000000
00000000
00000101
00000000
00000000
00001100
00000000
00000000
00000000
00000001
00000000
00000000
00000000
00001000
00000000
,
00000100
00000000
00000000
00011000
00000000
00000000
00110000
00000000
00000000
00000000
00010000
00000000
10000000
00000000
00010000
00000000
,
01000000
00001000
00000100
00000010
,
00010000
00001000
00000010
00000200
00001000
00001000
00001000
00001000
,
00001300
00000000
00000000
00000100
00000000
00000000
00000110
00000000
00000000
00000000
00000001
00000000
00000000
00000000
00001000
00000000
,
00000100
00010000
00100000
01000000
00000000
00010000
10000000
00100000
,
00010000
00000000
00000000
00001000
00000000
00000000
00011000
00000000
00000000
00000000
00001100
00000000
00000000
00000000
00001000
00000000
,
00000001
00000100
00001000
00010000
00000000
01000000
10000000
00100000
,
10000000
00000000
00000000
01010000
00000000
00000000
01100000
00000000
00000000
00000000
00001000
00000000
00000000
00000000
00010000
00000000
,
00000100
00000000
00000000
00001100
00000000
00000000
00001001
00000000
00000000
00000000
00000001
00000000
00000100
00000000
00000001
00000000
,
00000011
00000101
00001010
00001100
,
00000001
00000100
00001000
00010000
00100000
10000000
00010000
10000000
,
11000000
00000000
00110000
00000000
11000000
00000000
00010000
00100000
,
00001000
00010000
00000000
00001100
00000000
00001000
00000001
00000100
,
00000110
00000000
00001001
00000000
00000101
00000000
00000100
00001000
,
00000000
00000000
00010000
00000000
00000000
01000000
00000000
00000000
10000000
00000000
00100000
00000000
10000000
00000000
00010000
00000000
,
01010000
00000000
01001000
00000000
00011000
00000000
00000100
00001000
,
00000001
00000100
00000000
00000110
00000000
00000001
00001000
00000010
,
00000000
00000000
00010000
00000000
00000000
01000000
00000000
00000000
00100000
00000000
00000000
00000000
00010000
00000000
10000000
00000000
,
00100000
01000000
00010000
10000000
01000000
00010000
00001000
00000010
,
00000110
00000000
00001001
00000000
00000101
00000000
00000001
00001000
,
00000100
00010000
00000000
00011000
00000000
00001000
00100000
00010000
,
10010000
00000000
01010000
00000000
10100000
00000000
10000000
00010000
,
10000000
00000000
01000000
00000000
00000000
00010000
00000000
00001000
00000000
00000100
00000000
00000000
00000010
00000000
00001000
00000000
,
00001001
00000000
00001010
00000000
00011000
00000000
00100000
00010000
,
01000000
00001000
00000000
00011000
00000000
00000100
00001000
00000010
,
00000001
00000010
00001000
00000100
00010000
01000000
10000000
00100000
,
00000000
00000000
10000000
00000000
00000000
00010000
00000000
00000000
10010000
00000000
00000000
00000000
00100000
00000000
00000000
00000000
,
00011000
00000000
00000100
00001000
00000010
00001000
00000100
00001000
,
00000010
00001000
00000001
00000100
00001000
00010000
00000100
00000000
,
00010000
00000000
00001000
00100000
00001000
01000000
00001000
00100000
,
00001000
01000000
00001000
00100000
00010000
10000000
00010000
00100000
,
01000000
00000000
00000000
01010000
00000000
00000000
00011000
00000000
00000000
00000000
00000100
00000000
00000000
00000000
00001000
00000000
,
00000001
00000000
00000000
00000101
00000000
00000000
00001010
00000000
00000000
00000000
00001000
00000000
00000001
00000000
00000100
00000000
,
00000110
00001010
00010100
00101000
,
01000000
00010000
00100000
00002000
00010000
00010000
00010000
00010000
,
00013000
00000000
00001000
00000100
00000001
00000100
00001000
00010000
,
01000000
10000000
00010000
01000000
00000000
00100000
00010000
00001000
,
00000010
00000000
00000100
00001000
00000001
00000100
00000010
00001000
,
00000100
00000010
00001000
00020000
00100000
00100000
00100000
00100000
,
00100000
00030000
00010000
00002000
00000000
00003100
00001000
00020000
,
00000000
01030000
00010000
00002000
00000000
00003010
00001000
00000000
,
00011000
00101000
00010100
00011000
,
10000000
01000000
00010000
00001000
00000010
00000001
00000100
00000001
,
00000101
00000000
00001100
00000000
00001001
00000000
00000001
00000100
,
00000010
00001000
00000000
00010010
00000000
00001000
00100000
01000000
,
11000000
00000000
00110000
00000000
10010000
00000000
10000000
01000000
,
00000000
00000000
00010000
00000000
00000000
00001000
00000000
00000000
00000100
00000000
00000001
00000000
00000010
00000000
00000100
00000000
,
00001100
00000000
00000011
00000000
00001100
00000000
00000001
00000100
,
00000001
00000010
00000000
00011000
00000000
00100000
00010000
10000000
,
00000000
00000000
00100000
00000000
00000000
00010000
00000000
00000000
00001000
00000000
00000000
00000000
00000010
00000000
00000100
00000000
,
00001000
00000001
00001000
00000100
00010000
01000000
00100000
00010000
,
10010000
00000000
01010000
00000000
10100000
00000000
10000000
01000000
,
00010000
00001000
00000000
00000110
00000000
00000001
00000100
00000010
,
00001010
00000000
00011000
00000000
00110000
00000000
00010000
10000000
,
01000000
00000000
00010000
00000000
00000000
00001000
00000000
00000100
00000000
00001000
00000000
00000000
00010000
00000000
00000100
00000000
,
00001100
00000000
00000110
00000000
00000011
00000000
00000001
00000100
,
00000001
00000010
00000000
00001100
00000000
00010000
00001000
00100000
,
01000000
10000000
00100000
00010000
00001000
00000100
00000001
00000010
,
00000000
00000000
00000001
00000000
00000000
00000100
00000000
00000000
00000101
00000000
00000000
00000000
00001010
00000000
00000000
00000000
,
00011000
00000000
00000000
00000000
;
