#TITLE:Ice-Pop;
#SUBTITLE:;
#ARTIST:megawolf77;
#TITLETRANSLIT:;
#SUBTITLETRANSLIT:;
#ARTISTTRANSLIT:;
#GENRE:DANCE POP;
#CREDIT:;
#BANNER:;
#BACKGROUND:;
#LYRICSPATH:;
#CDTITLE:;
#MUSIC:icepop.ogg;
#OFFSET:-0.035375;
#SAMPLESTART:22.712999;
#SAMPLELENGTH:13.228000;
#SELECTABLE:YES;
#BPMS:0.000000=126.999992
;
#STOPS:
;
#BGCHANGES:;
#KEYSOUNDS:;
#ATTACKS:;

//---------------dance-single - ----------------
#NOTES:
     dance-single:
     :
     Hard:
     9:
     0.386332,0.418870,0.252404,0.336538,0.234375,225.000000,204.000000,21.000000,28.000000,0.000000,0.000000,0.386332,0.418870,0.252404,0.336538,0.234375,225.000000,204.000000,21.000000,28.000000,0.000000,0.000000:
0000
0000
0000
0000
,
0000
0000
0000
0000
,
0000
0000
0000
0000
,
0110
0000
1001
0000
,
1000
0010
1000
0000
0001
0010
0001
0000
,
0010
0100
1000
0000
0010
0100
0001
0000
,
1000
0100
1000
0000
0001
0100
0001
0000
,
1001
1000
0001
0000
1001
0001
1000
0000
,
1000
0000
0010
0000
1000
0000
0010
0000
0100
0000
0001
1000
0000
0000
0000
0000
,
0002
0000
0000
0013
0000
0000
0000
0000
2000
0000
0000
3010
0000
0000
0000
0000
,
0001
0000
0010
0000
0001
0000
0010
0000
0100
0000
1000
0001
0000
0000
0000
0000
,
2000
0000
0000
3100
0000
0000
0000
0000
0002
0000
0000
0103
0000
0000
0000
0000
,
1000
0000
0001
0000
1000
0000
0100
0000
0010
0000
0001
1000
0000
0000
0000
0000
,
0002
0000
0000
0103
0000
0000
0000
0000
2000
0000
0000
3100
0000
0000
0000
0000
,
0001
0000
1000
0000
0001
0000
0100
0000
0010
0000
1000
0001
0000
0000
0000
0000
,
2000
0000
0000
3010
0000
0000
0000
0000
0002
0000
0000
0013
0000
0000
0000
0000
,
1000
0000
0010
0000
0100
0000
0010
1000
0000
0000
0001
0010
0000
0000
0000
0000
,
0100
0010
0100
1000
0001
0100
0010
0000
,
2000
3200
0302
0023
,
1030
0000
0001
0000
1000
0100
0010
0000
,
0001
0000
0010
0000
0100
0000
0010
0001
0000
0000
1000
0010
0000
0000
0000
0000
,
0100
0010
0100
0001
1000
0100
0010
0000
,
0002
0203
2300
3020
,
0031
0000
1000
0000
0001
0100
0010
0000
,
1010
0000
0000
1001
0000
0000
0000
0000
0011
0000
0000
1001
0000
0000
0000
0000
,
1000
0000
0001
0000
1000
0000
0100
0020
0000
0000
0000
0000
0031
0000
0000
0000
,
0011
0000
0000
1001
0000
0000
0000
0000
1010
0000
0000
1001
0000
0000
0000
0000
,
0001
0000
1000
0000
0001
0000
0010
0200
0000
0000
0000
0000
1300
0000
0000
0000
,
1100
0000
0000
1001
0000
0000
0000
0000
0101
0000
0000
1001
0000
0000
0000
0000
,
1000
0000
0100
0000
1000
0000
0001
0200
0000
0000
0000
0000
0310
0000
0000
0000
,
0101
0000
0000
1001
0000
0000
0000
0000
1100
0000
0000
1001
0000
0000
0000
0000
,
0001
0100
0001
0100
0010
1000
0001
1000
,
0002
0000
0000
0003
,
1000
0000
0010
0000
1000
0000
0010
0000
0100
0000
0001
1000
0000
0000
0000
0000
,
0002
0000
0000
0013
0000
0000
0000
0000
2000
0000
0000
3010
0000
0000
0000
0000
,
0001
0000
0010
0000
0001
0000
0010
0000
0100
0000
1000
0001
0000
0000
0000
0000
,
2000
0000
0000
3100
0000
0000
0000
0000
0002
0000
0000
0103
0000
0000
0000
0000
,
1000
0000
0001
0000
1000
0000
0100
0000
0010
0000
0001
1000
0000
0000
0000
0000
,
0002
0000
0000
0103
0000
0000
0000
0000
2000
0000
0000
3100
0000
0000
0000
0000
,
0001
0000
1000
0000
0001
0000
0100
0000
0010
0000
1000
0001
0000
0000
0000
0000
,
2000
0000
0000
3010
0000
0000
0000
0000
0002
0000
0000
0013
0000
0000
0000
0000
,
1001
0000
0000
0000
;

//---------------dance-single - ----------------
#NOTES:
     dance-single:
     :
     Medium:
     6:
     0.254121,0.271034,0.180288,0.108173,0.000000,148.000000,133.000000,15.000000,9.000000,0.000000,0.000000,0.254121,0.271034,0.180288,0.108173,0.000000,148.000000,133.000000,15.000000,9.000000,0.000000,0.000000:
0000
0000
0000
0000
,
0000
0000
0000
0000
,
0000
0000
0000
0000
,
0110
0000
1001
0000
,
1000
1000
0001
0001
,
0010
0010
0100
0100
,
1000
0001
1000
0010
,
0110
0000
1001
0000
,
0001
0000
1000
0000
0010
1000
0010
0000
,
0100
0100
0001
0001
,
1000
0000
0001
0000
0010
0001
0010
0000
,
0100
0100
1000
1000
,
0001
0000
0100
0000
1000
0100
0001
0000
,
0100
0100
0010
0010
,
1000
0000
0100
0000
0001
0100
1000
0000
,
1001
0000
0110
0000
,
0001
0100
0010
1000
,
0010
0010
0001
1000
,
0002
0003
0020
0030
,
0200
0300
2000
3000
,
1000
0100
0010
0001
,
0010
0010
1000
0001
,
2000
3000
0020
0030
,
0200
0300
0002
0003
,
0101
0000
1001
0000
,
1000
0100
1000
0000
,
1010
0000
1001
0000
,
0001
0010
0001
0000
,
0110
0000
1001
0000
,
1000
0001
1000
0000
,
0110
0000
1001
0000
,
0001
1000
0001
0010
,
0200
0000
0000
0300
,
1000
0000
0001
0000
0010
0001
0010
0000
,
0100
0100
1000
1000
,
0001
0000
1000
0000
0010
1000
0010
0000
,
0100
0100
0001
0001
,
1000
0000
0100
0000
0001
0100
1000
0000
,
0100
0100
0010
0010
,
0001
0000
0100
0000
1000
0100
0001
0000
,
0100
0100
0010
0010
,
1001
0000
0000
0000
;

//---------------dance-single - ----------------
#NOTES:
     dance-single:
     :
     Easy:
     3:
     0.178571,0.221755,0.156250,0.060096,0.000000,104.000000,91.000000,13.000000,5.000000,0.000000,0.000000,0.178571,0.221755,0.156250,0.060096,0.000000,104.000000,91.000000,13.000000,5.000000,0.000000,0.000000:
0000
0000
0000
0000
,
0000
0000
0000
0000
,
0000
0000
0000
0000
,
0110
0000
1001
0000
,
1000
0000
1000
0000
,
0001
0000
0001
0000
,
0100
0000
0010
0000
,
0110
0000
1001
0000
,
1000
0010
1000
0000
,
0001
0000
1000
0000
,
0001
0010
0001
0000
,
1000
0000
0001
0000
,
0100
0100
0010
0000
,
1000
0000
0001
0000
,
0010
0010
0100
0000
,
1000
1000
1000
1000
,
0001
0000
0001
0000
,
0100
0010
0100
0010
,
2000
0000
0000
3000
,
0002
0000
0000
0003
,
1000
0000
1000
0000
,
0100
0010
0100
0010
,
0002
0000
0000
0003
,
2000
0000
0000
3000
,
0110
0000
1001
0000
,
0001
0001
0010
0000
,
0110
0000
1001
0000
,
1000
1000
0010
0000
,
0011
0000
1001
0000
,
1000
1000
0010
0000
,
1010
0000
1001
0000
,
0001
0001
1000
1000
,
0020
0000
0000
0030
,
1000
0010
1000
0000
,
0001
0000
1000
0000
,
0001
0010
0001
0000
,
1000
0000
0001
0000
,
0100
0100
0010
0000
,
1000
0000
0001
0000
,
0010
0010
0100
0000
,
1000
0000
0001
0000
,
1001
0000
0000
0000
;

//---------------dance-single - ----------------
#NOTES:
     dance-single:
     :
     Beginner:
     3:
     0.149382,0.197115,0.084135,0.036058,0.000000,87.000000,80.000000,7.000000,3.000000,0.000000,0.000000,0.149382,0.197115,0.084135,0.036058,0.000000,87.000000,80.000000,7.000000,3.000000,0.000000,0.000000:
// measure 0
0000
0000
0000
0000
,  // measure 1
0000
0000
0000
0000
,  // measure 2
0000
0000
0000
0000
,  // measure 3
0110
0000
1001
0000
,  // measure 4
1000
0000
1000
0000
,  // measure 5
0001
0000
0001
0000
,  // measure 6
0010
0000
0100
0000
,  // measure 7
0110
0000
1001
0000
,  // measure 8
1000
1000
1000
0000
,  // measure 9
0010
0000
0010
0000
,  // measure 10
0001
0001
0001
0000
,  // measure 11
0010
0000
0010
0000
,  // measure 12
1000
1000
1000
0000
,  // measure 13
0100
0000
0100
0000
,  // measure 14
0001
0001
0001
0000
,  // measure 15
0100
0000
0100
0000
,  // measure 16
1001
0000
0000
0000
,  // measure 17
1000
0000
0001
0000
,  // measure 18
0020
0000
0000
0000
,  // measure 19
0030
0000
0000
0000
,  // measure 20
1001
0000
0000
0000
,  // measure 21
0001
0000
1000
0000
,  // measure 22
0020
0000
0000
0000
,  // measure 23
0030
0000
0000
0000
,  // measure 24
1000
0000
1000
0000
,  // measure 25
0100
0100
0100
0000
,  // measure 26
0001
0000
0001
0000
,  // measure 27
0100
0100
0100
0000
,  // measure 28
1000
0000
0001
0000
,  // measure 29
0010
0010
0010
0000
,  // measure 30
0001
0000
1000
0000
,  // measure 31
0010
0010
0010
0000
,  // measure 32
0200
0000
0300
0000
,  // measure 33
0001
0001
0001
0000
,  // measure 34
0100
0000
0100
0000
,  // measure 35
1000
1000
1000
0000
,  // measure 36
0100
0000
0100
0000
,  // measure 37
0001
0001
0001
0000
,  // measure 38
0010
0000
0010
0000
,  // measure 39
1000
1000
1000
0000
,  // measure 40
0010
0000
0010
0000
,  // measure 41
1001
0000
0000
0000
;
