#VERSION:0.83;
#TITLE:I Don't Wanna Be A Star;
#SUBTITLE:;
#ARTIST:Corona;
#TITLETRANSLIT:;
#SUBTITLETRANSLIT:;
#ARTISTTRANSLIT:;
#GENRE:;
#ORIGIN:;
#CREDIT:;
#BANNER:banner.png;
#BACKGROUND:I Don't Wanna Be A Star-bg.png;
#PREVIEWVID:;
#JACKET:jacket.png;
#CDIMAGE:;
#DISCIMAGE:;
#LYRICSPATH:;
#CDTITLE:;
#MUSIC:I Don't Wanna Be A Star.ogg;
#OFFSET:0.273076;
#SAMPLESTART:43.785713;
#SAMPLELENGTH:12.000000;
#SELECTABLE:YES;
#BPMS:0.000=132.000;
#STOPS:;
#DELAYS:;
#WARPS:;
#TIMESIGNATURES:0.000=4=4;
#TICKCOUNTS:0.000=4;
#COMBOS:0.000=1;
#SPEEDS:0.000=1.000=0.000=0;
#SCROLLS:0.000=1.000;
#FAKES:;
#LABELS:0.000=Song Start;
#BGCHANGES:;
#KEYSOUNDS:;
#ATTACKS:
;

//---------------dance-single - ----------------
#NOTEDATA:;
#CHARTNAME:;
#STEPSTYPE:dance-single;
#DESCRIPTION:;
#CHARTSTYLE:;
#DIFFICULTY:Beginner;
#METER:3;
#RADARVALUES:0.105052,0.155429,0.016713,0.008356,0.000000,88.000000,86.000000,2.000000,1.000000,0.000000,0.000000,0.000000,0.000000,0.000000,0.105052,0.155429,0.016713,0.008356,0.000000,88.000000,86.000000,2.000000,1.000000,0.000000,0.000000,0.000000,0.000000,0.000000;
#CREDIT:;
#NOTES:
0000
0000
0000
0000
,
0000
0000
0000
0000
,
0000
0000
0000
0000
,
0000
0000
0000
0000
,
0000
0000
0000
0000
,
1000
0000
1000
0000
,
0001
0000
0001
0000
,
0100
0000
0100
0000
,
0010
0000
0010
0000
,
1000
0000
1000
0000
,
0100
0000
0000
0000
,
0010
0000
0010
0000
,
0001
0000
0000
0000
,
1000
0000
1000
0000
,
0010
0000
0000
0000
,
0100
0000
0100
0000
,
0001
0000
0000
0000
,
1000
0000
0001
0000
,
0100
0000
0000
0000
,
0001
0000
1000
0000
,
0010
0000
0000
0000
,
1000
0000
1000
0000
,
0001
0000
0000
0000
,
0010
0000
0010
0000
,
0200
0000
0000
0300
,
0100
0000
0010
0000
,
0010
0000
0000
0000
,
0001
0000
1000
0000
,
1000
0000
0000
0000
,
0010
0000
0100
0000
,
0100
0000
0000
0000
,
0001
0000
1000
0000
,
1000
0000
0000
0000
,
0100
0000
0000
0000
,
1000
0000
0000
0000
,
0010
0000
0000
0000
,
0100
0000
0000
0000
,
0100
0000
0000
0000
,
0001
0000
0000
0000
,
0010
0000
0000
0000
,
0100
0000
0000
0000
,
0100
0000
0100
0000
,
0100
0000
0000
0000
,
0010
0000
0010
0000
,
0010
0000
0000
0000
,
0001
0000
0001
0000
,
0001
0000
0000
0000
,
1000
0000
1000
0000
,
1000
0000
0000
0000
,
0010
0000
0010
0000
,
0100
0000
0100
0000
,
0001
0000
0001
0000
,
1000
0000
1000
0000
,
1001
0000
0000
0000
,
1000
0000
1000
0000
,
0010
0000
0000
0000
,
0100
0000
0100
0000
,
0001
0000
0000
0000
,
0010
0000
0010
0000
,
0100
0000
0000
0000
,
1000
0000
1000
0000
,
0001
0000
0000
0000
,
1001
0000
0000
0000
;

//---------------dance-single - ----------------
#NOTEDATA:;
#CHARTNAME:;
#STEPSTYPE:dance-single;
#DESCRIPTION:;
#CHARTSTYLE:;
#DIFFICULTY:Easy;
#METER:5;
#RADARVALUES:0.231591,0.259048,0.033426,0.050138,0.000000,194.000000,190.000000,4.000000,6.000000,0.000000,0.000000,0.000000,0.000000,0.000000,0.231591,0.259048,0.033426,0.050138,0.000000,194.000000,190.000000,4.000000,6.000000,0.000000,0.000000,0.000000,0.000000,0.000000;
#CREDIT:;
#NOTES:
0000
0000
0000
0000
,
0000
0000
0000
0000
,
0000
0000
0000
0000
,
0000
0000
0000
0000
,
0000
0000
0000
0000
,
1000
1000
0001
0000
,
0001
0001
1000
0000
,
0010
0010
0100
0000
,
0100
0100
0010
0000
,
1000
0100
0010
0001
,
1000
1000
0001
0000
,
0001
0100
0010
1000
,
0001
0001
1000
0000
,
1000
0001
0100
0010
,
1000
1000
0001
0000
,
0001
1000
0010
0100
,
0002
1000
1003
0000
,
1001
0010
0100
1000
,
0100
0010
0001
0000
,
1000
0010
0100
0001
,
0100
0010
1000
0000
,
0001
0010
0100
1000
,
0010
0100
0001
1000
,
0002
0100
0010
1003
,
2002
0000
0000
3003
,
1000
1000
0100
0100
,
0010
0000
0010
0000
,
0001
0001
0100
0100
,
0010
0000
0010
0000
,
1000
1000
0001
0001
,
0100
0000
0100
0000
,
0001
0001
1000
1000
,
0100
0100
0100
0100
,
0010
0010
0001
0001
,
1000
1000
0100
0100
,
1000
1000
0010
0010
,
0100
0100
0001
0001
,
1000
1000
0001
0001
,
0010
0010
0100
0100
,
1000
1000
0001
0001
,
0100
0100
0010
0010
,
1000
0000
0100
0000
,
0100
0000
0010
0010
,
0001
0000
0001
0000
,
0100
0000
0010
0010
,
1000
0000
0100
0100
,
0000
1000
1000
0010
,
0010
0000
0100
0100
,
0001
0001
0010
0010
,
0100
1000
0100
1000
,
0010
0100
0010
0100
,
0001
1000
0001
1000
,
0100
0010
0100
0010
,
2002
0000
0000
3003
,
1000
1000
0001
0001
,
0010
0000
0010
0000
,
0001
0001
1000
1000
,
0010
0000
0010
0000
,
1000
1000
0001
0001
,
0100
0000
0100
0000
,
0001
0001
1000
1000
,
0100
0000
0100
0000
,
1001
0000
0000
0000
;

//---------------dance-single - ----------------
#NOTEDATA:;
#CHARTNAME:;
#STEPSTYPE:dance-single;
#DESCRIPTION:;
#CHARTSTYLE:;
#DIFFICULTY:Medium;
#METER:8;
#RADARVALUES:0.313961,0.336762,0.041782,0.016713,0.004178,263.000000,258.000000,5.000000,2.000000,0.000000,0.000000,0.000000,0.000000,0.000000,0.313961,0.336762,0.041782,0.016713,0.004178,263.000000,258.000000,5.000000,2.000000,0.000000,0.000000,0.000000,0.000000,0.000000;
#CREDIT:;
#NOTES:
0000
0000
0000
0000
,
0000
0000
0000
0000
,
0000
0000
0000
0000
,
0000
0000
0000
0000
,
0000
0000
0000
0000
,
1000
0000
1000
0000
1000
0000
0100
0010
,
0001
0000
0001
0000
0001
0000
0001
0100
,
0010
0000
0010
0000
0010
0000
0010
1000
,
0001
0000
0001
0000
0010
0010
0100
0100
,
0010
0000
0010
0000
0001
1000
0001
0000
,
0100
0100
0010
0000
,
1000
0000
1000
0000
0100
0000
0010
0100
,
1000
0000
1000
0001
,
0001
0100
0010
0010
,
0100
0001
1000
0000
0000
0000
0001
0000
,
0001
0000
0010
0000
0100
0000
0100
0010
,
0002
0100
0010
0013
,
1001
1000
0010
0010
,
0100
0001
1000
0000
0000
0000
1000
0000
,
0100
0000
0100
0000
0010
0000
0010
0100
,
1000
1000
0001
0001
,
0100
0001
1000
0100
,
0010
0010
0001
0001
,
2000
0010
0001
3100
,
1001
0000
0000
0000
0001
1000
0001
1000
,
0010
0000
0010
0000
0100
0000
0001
1000
,
0000
1000
0000
0100
1000
0000
0010
0100
,
0001
0000
0010
0000
0100
0000
0010
0001
,
0000
1000
0000
1000
0000
0010
0000
0010
,
0100
0000
0001
0000
1000
0000
0100
0010
,
0000
0100
0000
1000
0001
0000
0100
0100
,
0010
0000
0010
0000
0100
0000
0001
1000
,
0000
0100
0000
0010
0000
0010
0000
0010
,
0100
0000
0100
0000
1000
0000
0010
0100
,
0001
0000
0001
0000
0010
0000
0001
0100
,
0010
0000
0010
0000
1000
0000
0001
1000
,
0100
0100
1000
1000
,
0001
0000
0001
0000
0100
0000
0010
0100
,
0001
0000
0001
0000
0010
0000
0100
0010
,
0001
0000
0001
0000
1000
0000
0010
0100
,
0010
0010
0100
0100
,
1001
0000
0001
0001
,
0100
0000
0000
0000
0010
1000
0010
0000
,
0100
0000
0001
0001
,
1000
0000
0100
0000
0010
0000
0100
1000
,
0010
0000
0000
0000
0100
0000
0000
0000
0001
0000
0000
1000
0000
0000
0100
0000
,
0000
0010
0010
0001
0001
0000
0100
0000
,
0100
0010
1000
0100
,
1000
0010
0100
0001
,
1000
1000
0100
0100
,
0010
0010
0001
0001
,
0100
0100
0010
0010
,
1000
0000
1000
0000
0001
1000
0001
0000
,
1001
0000
0000
0000
0010
1000
0010
0100
,
0010
0000
1000
0000
0100
0000
0010
0100
,
0000
1000
0000
0001
0100
0000
0010
0010
,
0100
0000
0001
0000
1000
0000
0100
0010
,
0000
0100
0000
1000
0000
0010
0000
0100
,
0001
0000
0010
0000
0100
0000
0010
0001
,
0000
1000
0000
0010
0100
0100
0001
0000
,
1000
0000
0100
0000
1000
0000
0010
0100
,
0000
0001
0000
0010
0000
0100
0000
1000
,
1001
0000
0000
0000
;

//---------------dance-single - ----------------
#NOTEDATA:;
#CHARTNAME:;
#STEPSTYPE:dance-single;
#DESCRIPTION:;
#CHARTSTYLE:;
#DIFFICULTY:Hard;
#METER:11;
#RADARVALUES:0.428563,0.481328,0.083564,0.200553,0.083564,359.000000,349.000000,10.000000,24.000000,0.000000,0.000000,0.000000,0.000000,0.000000,0.428563,0.481328,0.083564,0.200553,0.083564,359.000000,349.000000,10.000000,24.000000,0.000000,0.000000,0.000000,0.000000,0.000000;
#CREDIT:;
#NOTES:
0000
0000
0000
0000
,
0000
0000
0000
0000
,
0000
0000
0000
0000
,
0000
0000
0000
0000
,
0000
0000
0000
0000
,
1000
1000
0100
0100
0010
0010
0001
1000
,
0001
0001
0100
0100
0010
0010
1000
0001
,
1000
1000
0010
0010
0100
0100
0001
1000
,
0001
0010
0100
1000
0001
1000
0100
0010
,
0001
0000
0100
0010
1000
0100
0010
0001
,
0100
1001
0010
1001
,
0001
0000
1000
0010
0100
0010
1000
1000
,
0001
0010
0100
0010
,
1001
0000
0001
0100
0010
1000
0100
0010
,
0100
1000
0001
0000
0100
0000
0010
0000
,
0101
0000
0001
0010
0100
1000
0010
0100
,
0002
0100
0010
1003
,
1001
0000
1000
0100
0001
0100
0010
0010
,
0001
0001
1000
0000
0010
0000
0100
0000
,
1010
0000
0001
0010
0100
0000
0001
0100
,
1000
1000
0001
0000
0100
0000
0010
0000
,
1010
0000
0010
0100
0001
1000
0100
0010
,
0001
1000
1000
0000
0001
1000
1000
0000
,
0020
0100
0100
0130
,
1001
0000
0000
0000
1000
1000
0100
0100
,
2000
0000
0010
0000
0100
0000
3001
1000
,
0000
0010
0000
0010
0100
0001
1000
0100
,
0020
0000
1000
0000
0001
0000
0130
0010
,
0000
0001
0000
0001
1000
1000
0010
0100
,
0002
0000
0010
0000
0100
0000
1003
0010
,
0000
0010
0000
0100
0001
1000
0100
0010
,
0200
0000
0001
0000
0010
0000
1300
0002
,
0000
2003
0000
3020
0000
0230
0000
0301
,
1000
1000
0100
0100
0010
0010
0001
1000
,
0001
0001
0010
0010
0100
0100
1000
0001
,
1000
1000
0010
0010
0100
0100
0001
1000
,
0001
0010
1000
0010
0001
0100
1000
0100
,
0001
0001
0100
0100
0010
0010
1000
0001
,
1000
1000
0100
0100
0010
0010
0001
1000
,
0001
0001
0100
0100
0010
0010
1000
1000
,
0001
1000
0000
0000
0001
1000
0000
0000
1000
0001
0000
0000
1000
0001
0000
0000
,
1001
0000
0000
0000
0001
0000
0010
0000
0100
0000
0000
0100
0000
0000
1000
0000
,
0010
0000
0000
0000
0100
0000
0000
0000
0001
0000
0000
1000
0001
0000
0001
0000
,
1000
0000
0010
0000
0010
0000
0000
0000
0010
0000
0000
0100
0000
0000
0001
0000
,
0000
0001
0010
0100
1000
0010
0100
0001
,
2000
0000
0000
0000
0000
0000
0000
0000
3200
0000
0000
0320
0000
0000
0032
0000
,
0000
0000
0103
0000
0200
0000
0010
0000
0320
0000
0000
2030
0000
0000
3200
0000
,
0000
0000
0000
0310
0001
0100
1000
0100
,
0001
1000
0001
0010
0100
1000
0100
0010
,
0001
0000
1000
0000
0000
1000
0000
0000
0010
0000
0000
0100
0000
0000
0100
0000
,
0001
0000
0010
0000
0000
0010
0000
0000
0100
0000
0000
0100
0000
0000
1000
0000
,
0001
0000
1000
0000
0000
0010
0000
0000
0100
0000
0000
0001
0000
0000
1000
0000
,
0001
0000
1000
0000
0000
0100
0000
0000
0010
0000
0000
0001
0000
0000
1000
0000
,
0110
0000
0000
0000
0000
0000
0000
0000
0001
1000
0001
0000
0100
0000
0010
0000
,
2000
0000
0100
0000
0010
0000
3001
1000
,
0000
1000
0000
0010
0100
1000
0100
0100
,
0002
0000
0010
0000
0100
0000
1003
0010
,
0000
0000
1000
0000
0000
0000
1000
0000
0000
0000
0100
0000
0000
0000
0010
0100
,
0020
0000
1000
0000
0100
0000
0031
0100
,
0000
0100
0000
0010
0010
1000
0001
0010
,
0200
0000
0001
0000
0010
0000
1300
0001
,
0000
0000
0100
0000
0000
0000
0010
0000
0000
0000
0010
0000
0000
0000
1000
0002
,
2000
0000
0000
0000
,
0000
0000
0000
0000
,
3003
0000
0000
0000
;

//---------------dance-single - ----------------
#NOTEDATA:;
#CHARTNAME:;
#STEPSTYPE:dance-single;
#DESCRIPTION:;
#CHARTSTYLE:;
#DIFFICULTY:Challenge;
#METER:14;
#RADARVALUES:0.559878,0.721991,0.284117,0.108633,0.355146,469.000000,435.000000,34.000000,13.000000,0.000000,0.000000,0.000000,0.000000,0.000000,0.559878,0.721991,0.284117,0.108633,0.355146,469.000000,435.000000,34.000000,13.000000,0.000000,0.000000,0.000000,0.000000,0.000000;
#CREDIT:;
#NOTES:
// measure 0
0000
0000
0000
0000
,  // measure 1
0000
0000
0000
0000
,  // measure 2
0000
0000
0000
0000
,  // measure 3
0000
0000
0000
0000
,  // measure 4
0000
0000
0000
0000
,  // measure 5
1000
0000
1000
0000
0100
0000
0100
0000
0010
0000
0010
0000
0001
1000
0001
1000
,  // measure 6
0001
0000
0001
0000
0100
0000
0100
0000
0010
0000
0010
0000
1000
0001
1000
0001
,  // measure 7
1000
0000
1000
0000
0100
0000
0100
0000
0001
0000
0001
0000
0100
0010
0100
0010
,  // measure 8
0001
0000
0001
0000
0100
0000
0100
0000
1000
0100
1000
0100
0010
0100
0001
0100
,  // measure 9
0001
0000
1000
0100
0010
0001
0100
0010
,  // measure 10
0001
0000
0010
0000
1000
0000
0000
0000
1000
0000
0001
1000
0001
0000
0000
0001
,  // measure 11
1000
0000
0100
0010
0001
0001
0100
0010
,  // measure 12
0100
0001
1000
0000
0010
0000
0100
0000
,  // measure 13
1001
0000
0001
0010
0100
0001
0100
1000
,  // measure 14
0010
0000
0100
0000
0001
0000
0000
0000
1000
0000
0000
1000
0100
0000
0000
0100
,  // measure 15
0010
0000
0001
0100
0001
1000
0100
1000
,  // measure 16
0020
0001
0100
1030
,  // measure 17
1001
0000
1000
0000
0000
0010
0000
0000
0100
0000
0000
0000
0001
0000
0000
0000
,  // measure 18
1001
0000
0001
0000
0000
0010
0000
0000
0100
0000
0000
0000
1000
0000
0000
0000
,  // measure 19
1010
0000
0010
0000
0000
1000
0000
0000
0001
0000
0000
0000
0100
0000
0000
0000
,  // measure 20
0011
0000
0010
0000
0000
0001
0000
0000
1000
0000
0000
0000
0100
0000
0000
0000
,  // measure 21
1001
0000
0001
0000
0000
1000
0000
0000
0001
0000
0000
0000
0001
0000
0000
0000
,  // measure 22
1001
0000
1000
0000
0000
0001
0000
0000
1000
0000
0000
0000
1000
0000
0000
0000
,  // measure 23
0002
0100
0010
1003
,  // measure 24
2002
0000
0000
0000
3003
0000
0000
0000
1000
0100
1000
0000
0010
0000
0100
0000
,  // measure 25
0001
0010
0100
1000
0010
0100
1000
0100
,  // measure 26
0000
0101
0000
0001
1000
0100
0010
0001
,  // measure 27
1000
0010
0001
0010
0100
0001
1000
0100
,  // measure 28
0000
0000
0011
0000
0000
0000
1010
0000
0000
0000
0101
0000
0000
0000
1000
0001
,  // measure 29
1000
0100
0001
0100
0010
0001
0100
0010
,  // measure 30
0000
1010
0000
0010
0100
0001
1000
0010
,  // measure 31
1000
0100
0001
0100
0010
0001
1000
0010
,  // measure 32
0000
0000
0101
0000
0000
0000
1010
0000
0000
0000
1001
0000
0000
0000
1000
0001
,  // measure 33
1000
0000
1000
0000
0010
0000
0010
0000
0100
0000
0100
0000
0001
1000
0001
1000
,  // measure 34
0001
0000
0001
0000
0010
0000
0010
0000
0100
0000
0100
0000
1000
0001
1000
0001
,  // measure 35
1000
0000
1000
0000
0010
0000
0010
0000
0001
0000
0001
0000
0010
0100
0010
0100
,  // measure 36
0010
0000
0010
0000
1000
0000
1000
0000
0001
0010
0100
0000
0010
0100
1000
0000
,  // measure 37
0001
0000
0001
0000
0100
0000
0100
0000
0010
0000
0010
0000
1000
0010
1000
0010
,  // measure 38
1000
0000
1000
0000
0100
0000
0100
0000
0010
0000
0010
0000
0001
0010
0001
0010
,  // measure 39
0001
0000
0001
0000
0100
0000
0100
0000
1000
0000
1000
0000
0100
0010
0100
0010
,  // measure 40
0100
0001
0000
0000
0001
0100
0000
0000
0100
0010
0000
0000
0010
1000
0000
0000
,  // measure 41
1100
0000
0100
0000
0010
0000
0001
0000
1001
0000
0000
1010
0000
0000
1100
0000
,  // measure 42
0100
0000
0001
0000
0100
0000
1000
0000
1010
0000
0000
0100
0001
0000
1001
0000
,  // measure 43
0000
0000
0001
0000
0010
0000
0100
0000
1100
0000
0000
0011
0000
0000
0101
0000
,  // measure 44
0000
0000
0001
0000
0100
0000
1000
0000
0100
0000
0001
0000
0010
0100
0010
0100
,  // measure 45
2000
0000
0000
0000
0010
0000
0000
0000
3001
0100
0000
0010
0000
0100
0002
0000
,  // measure 46
0000
0000
1003
0000
2000
0000
0100
0000
3200
0000
0000
0010
0000
0000
0320
0000
,  // measure 47
0000
0000
0000
0000
0000
0000
0000
0000
0000
0000
0000
0000
0000
0000
0000
0030
0001
0000
0000
0000
0100
0000
0000
0000
0001
0000
0000
0000
0000
0000
0010
0000
0000
0100
0000
0000
0000
0000
0000
1000
0000
0000
0000
0000
0000
1000
0000
0000
,  // measure 48
0000
0010
0100
0001
1000
0001
1000
0100
0010
0001
1000
0001
1000
0010
0100
0001
,  // measure 49
1000
0000
0100
0000
0010
0001
0000
0010
0001
0000
0001
0010
0000
0001
0010
0100
,  // measure 50
1000
0000
0001
0000
1000
0001
0000
1000
0001
0000
0001
1000
0000
1000
0001
0100
,  // measure 51
0010
0000
1000
0000
0100
0010
0000
0001
1000
0000
0010
0100
0000
0001
0010
0100
,  // measure 52
1000
0000
0100
0000
0010
0001
0000
1000
0010
0000
0100
0010
0000
1000
0100
0000
,  // measure 53
2002
0000
0000
0000
3003
0000
0000
0000
1000
0001
1000
0000
0001
0000
0100
0000
,  // measure 54
0010
1000
0100
0010
0001
1000
0010
0100
,  // measure 55
0000
0101
0000
0010
1000
0001
1000
0001
,  // measure 56
0010
0100
1000
0001
0100
1000
0100
0001
,  // measure 57
0000
0000
1010
0000
0000
0000
1100
0000
0000
0000
0011
0000
0000
0000
0010
0001
,  // measure 58
1000
0010
0100
0001
1000
0100
0010
0001
,  // measure 59
0000
1010
0000
0010
0100
0001
1000
0100
,  // measure 60
1000
0010
0100
0001
0010
0100
1000
0001
,  // measure 61
0000
0000
1010
0000
0000
0000
1100
0000
0000
0000
0011
0000
0000
0000
0100
0002
,  // measure 62
2000
0000
0000
0000
,  // measure 63
0000
0000
0000
0000
,  // measure 64
3003
0000
0000
0000
;
