#TITLE:I CAN'T STOP ME;
#SUBTITLE:;
#ARTIST:TWICE;
#TITLETRANSLIT:;
#SUBTITLETRANSLIT:;
#ARTISTTRANSLIT:;
#GENRE:;
#CREDIT:;
#MUSIC:I CAN'T STOP ME.ogg;
#BANNER:I CAN'T STOP ME.png;
#BACKGROUND:I CAN'T STOP ME-bg.png;
#CDTITLE:./CDTITLES/NONE.PNG;
#SAMPLESTART:40.000;
#SAMPLELENGTH:15.000;
#SELECTABLE:YES;
#OFFSET:0.000;
#BPMS:0.000=150.000;
#STOPS:;
#BGCHANGES:0.000=I CAN'T STOP ME.avi=1.000=0=0=0=StretchNoLoop====,
99999.000=-nosongbg-=1.000=0=0=0=StretchNoLoop====
;
#FGCHANGES:;

//--------------- dance-single - t7r ----------------
#NOTES:
     dance-single:
     t7r:
     Beginner:
     2:
     0,0,0,0,0:
0000
0000
0000
0000
,
0000
0000
0000
0000
,
0000
0000
0000
0000
,
0000
0000
0000
0000
,
0000
0000
0000
0000
,
0000
0000
0000
0000
,
0000
0000
0000
0000
,
0000
0000
0000
0000
,
0000
0000
0000
0000
,
1000
0000
0000
0000
,
0001
0000
0000
0000
,
0100
0000
0000
0000
,
0010
0000
0000
0000
,
0100
0000
0000
0000
,
0001
0000
0000
0000
,
1000
0000
0000
0000
,
0001
0000
0000
0000
,
1000
0000
0000
0000
,
1000
0000
0000
0000
,
0001
0000
0000
0000
,
0001
0000
0000
0000
,
0100
0000
0000
0000
,
0100
0000
0000
0000
,
0010
0000
0000
0000
,
0000
0000
0000
0000
,
0000
1000
0000
0000
,
1000
1000
1000
0000
,
0000
0001
0000
0000
,
0001
0001
0001
0000
,
0000
0100
0000
0000
,
0100
0100
0100
0000
,
0000
0010
0000
0000
,
0000
0000
0100
0100
,
0000
0001
0000
0000
,
0001
0001
0001
0000
,
0000
1000
0000
0000
,
1000
1000
1000
0000
,
0000
0010
0000
0000
,
0010
0010
0010
0000
,
0100
0000
0000
0000
,
0100
0000
0000
0000
,
0010
0000
0000
0000
,
0010
0000
0010
0000
,
0100
0000
0000
0000
,
0100
0000
0100
0000
,
0001
0000
0000
0000
,
0001
0000
0001
0000
,
1000
0000
0000
0000
,
1000
0000
1000
0000
,
0001
0000
0000
0000
,
0010
0000
0000
0000
,
0100
0000
0000
0000
,
1000
0000
0000
0000
,
0010
0000
0000
0000
,
0100
0000
0000
0000
,
0001
0000
0000
0000
,
1000
0000
0000
0000
,
0000
0001
0000
0000
,
0001
0001
0001
0000
,
0000
1000
0000
0000
,
1000
1000
1000
0000
,
0000
0010
0000
0000
,
0010
0010
0010
0000
,
0000
0100
0000
0000
,
0000
0100
0100
0000
,
0000
0010
0000
0000
,
0010
0010
0010
0000
,
0000
1000
0000
0000
,
1000
1000
1000
0000
,
0000
0001
0000
0000
,
0001
0001
0001
0000
,
0000
0100
0000
0000
,
0000
0100
0100
0000
,
0010
0000
0000
0000
,
0010
0000
0000
0000
,
1000
0000
0000
0000
,
1000
0000
0000
0000
,
0001
0000
0000
0000
,
0001
0000
0000
0000
,
1000
0000
0000
0000
,
0001
0000
0000
0000
;

//--------------- dance-single - t7r ----------------
#NOTES:
     dance-single:
     t7r:
     Easy:
     6:
     0,0,0,0,0:
0000
0000
0000
0000
,
0000
0000
0000
0000
,
0000
0000
0000
0000
,
0000
0000
0000
0000
,
0000
0000
0000
0000
,
0000
0000
0000
0000
,
0000
0000
0000
0000
,
0000
0000
0000
0000
,
0000
0000
0000
0000
,
0001
0100
0000
0001
,
1000
0010
0000
1000
,
0100
0010
0000
0001
,
0100
0010
0000
1000
,
0001
0010
0000
0001
,
1000
0010
0000
1000
,
0100
0000
0010
0001
,
0100
0000
0001
0000
,
2001
0000
3010
0000
,
2000
0000
3100
0000
,
0020
0000
0031
0000
,
0100
0010
1000
0000
,
1002
0000
0103
0000
,
0002
0000
0013
0000
,
2002
0000
0000
3003
,
0100
0000
0110
0000
,
0010
1000
0100
0000
,
1000
1000
1000
1000
,
0001
0010
0100
0000
,
0010
0010
0010
0001
,
0100
0001
0010
0000
,
0001
0001
0001
0001
,
1000
0100
0001
0000
,
1000
0100
0001
1001
,
0001
0100
0010
0000
,
1000
1000
1000
1000
,
0001
0010
0100
0000
,
0010
0010
0010
0010
,
0100
0010
0001
0000
,
0100
0100
0100
0100
,
0001
0010
1000
0000
,
0001
0010
1000
1001
,
0001
0200
0000
0301
,
0010
0100
1100
0000
,
1000
0020
0000
1030
,
0100
0010
0011
0000
,
0001
2000
0000
3010
,
0100
0001
0101
0000
,
0001
1000
0100
0000
,
1000
0001
0010
0000
,
2002
0000
0000
0000
,
3003
0000
0000
0000
,
0020
0000
0000
0000
,
0030
0000
0000
0000
,
0200
0000
0000
0000
,
0300
0000
0000
0000
,
0001
0000
0000
0000
,
1000
0000
0001
0000
,
1000
0100
0010
0001
,
1000
1000
1000
1001
,
0001
0100
0010
1000
,
0001
0001
0001
1001
,
0001
0010
0100
0010
,
0100
0100
0100
0110
,
0001
0100
0010
0000
,
0001
0100
0010
0110
,
0100
1000
0010
0100
,
0010
0010
0010
0110
,
0010
0100
0001
1000
,
0001
0001
0001
1001
,
0001
0100
0010
1000
,
0010
0010
0010
0110
,
1000
0100
0010
0000
,
1000
0100
0010
0110
,
1000
0002
0000
0000
,
0100
0100
0103
0000
,
0001
2000
0000
0000
,
0010
0010
3010
0000
,
1000
0200
0000
0000
,
0010
0010
0310
0000
,
0002
0000
0000
0000
,
2000
0000
0000
0000
,
3003
0000
0000
0000
;

//--------------- dance-single - t7r ----------------
#NOTES:
     dance-single:
     t7r:
     Medium:
     8:
     0,0,0,0,0:
0000
0000
0000
0000
,
0000
0000
0000
0000
,
0000
0000
0000
0000
,
0000
0000
0000
0000
,
0000
0000
0000
0000
,
0000
0000
0000
0000
,
0000
0000
0000
0000
,
0000
0000
0000
0000
,
0000
0000
0000
0000
,
0100
0000
0010
0000
0000
1000
0001
0000
,
0010
0000
0100
0000
0000
1000
0001
0000
,
1000
0000
0100
0000
0000
1000
0010
0000
,
1000
0000
0001
0100
0000
0100
0001
0000
,
0010
0000
0100
0000
0000
1000
0001
0000
,
0100
0000
0010
0000
0000
1000
0001
0000
,
1000
0000
0010
0000
0000
1000
0100
0000
,
1000
0000
0001
0010
0000
0010
0001
0000
,
2000
0000
3010
0100
,
0002
0000
0013
0100
,
1000
0000
0010
0000
0100
0000
0001
1000
,
0000
0001
0100
0001
,
2000
0000
3100
0010
,
0002
0000
0103
0010
,
0200
0000
0000
0000
0000
0310
0100
0010
,
0000
1000
0001
0000
1001
0000
0000
0000
,
1000
0000
0100
0000
1000
0001
1000
0000
,
0001
1001
1000
1001
,
0001
0000
0100
0000
0001
0010
0001
0000
,
0100
0110
0010
0110
,
0010
0000
1000
0000
0100
1000
0100
0000
,
1000
1001
0001
1001
,
0001
0000
0100
2000
0000
3001
0100
1000
,
0000
0100
0010
0110
,
1000
0000
0010
0000
1000
0100
1000
0000
,
0010
0110
0100
0110
,
0001
0000
0100
0000
0001
0010
0001
0000
,
1000
1001
0001
1001
,
0001
0000
0100
0000
0001
0010
0001
0000
,
0100
0110
0010
0110
,
1000
0000
0100
0002
0000
1003
0100
0001
,
0000
0100
0010
0110
,
1000
2100
0000
3001
,
0010
0011
1001
0000
,
0001
0102
0000
1003
,
0010
1010
1001
0000
,
1000
1200
0000
0310
,
0001
0101
0110
0000
,
0001
0000
0010
2000
0000
3001
0010
1000
,
0000
0010
0100
0110
,
2010
0000
3001
0000
,
1000
0000
0100
0000
0000
0010
0010
0000
,
0000
0001
0010
0000
,
0001
0000
0100
0000
0000
0010
0010
0000
,
0000
1000
0100
0000
,
0010
0000
0001
0000
0000
1000
0001
1000
,
0020
0000
0000
0000
0000
0130
0010
0100
,
0000
0001
1000
0000
0001
1000
0001
0000
,
1000
0000
0100
0000
1000
0001
0010
0000
,
0001
0101
0100
0101
,
0001
0000
0010
0000
0001
0100
0010
0000
,
1000
1100
0100
1100
,
1000
0000
0010
0000
0100
0001
1000
0000
,
0010
1010
1000
1010
,
1000
0000
0100
0020
0000
1030
0100
0010
,
0000
0100
0010
1010
,
0001
0000
0010
0000
0001
1000
0100
0000
,
1000
1010
0010
1010
,
1000
0000
0100
0000
1000
0010
0100
0000
,
0001
0011
0010
0011
,
0001
0000
0100
0000
0010
1000
0001
0000
,
0100
0101
0001
0101
,
0001
0000
0010
0200
0000
0301
0010
0100
,
0000
0010
0100
0101
,
0001
2000
0000
0000
,
3010
1000
0100
0000
,
1000
0002
0000
0000
,
0013
0001
0100
0000
,
0001
0020
0000
0000
,
0130
0010
0001
0000
,
2000
0000
0000
0000
,
0002
0000
0000
0000
,
3003
0000
0000
0000
;

//--------------- dance-single - t7r ----------------
#NOTES:
     dance-single:
     t7r:
     Hard:
     10:
     0,0,0,0,0:
0000
0000
0000
0000
,
0000
0000
0000
0000
,
0000
0000
0000
0000
,
0000
0000
0000
0000
,
0000
0000
0000
0000
,
0000
0000
0000
0000
,
0000
0000
0000
0000
,
0000
0000
0000
0000
,
0000
0000
0000
0000
,
1000
0000
0010
0000
1000
0001
0100
0000
,
0001
0000
0010
0000
0001
1000
0100
0000
,
1000
0000
0001
0000
0100
0001
0010
0000
,
0001
0000
1000
0000
0100
1000
0010
1000
,
0001
0000
0100
0000
0010
1000
0100
0000
,
1000
0000
0010
0000
0100
0001
0010
0000
,
0001
0000
1000
0000
0100
1000
0001
0100
,
0001
0010
0100
0000
1000
0010
0100
0001
,
2000
0000
3100
1000
,
0002
0000
0013
0001
,
0100
0000
0010
1000
0100
0000
1000
0000
,
0001
0100
0010
0000
1000
0100
0010
0000
,
0002
0000
0103
0001
,
2000
0000
3010
1000
,
0002
0000
0000
0000
0000
0103
0010
0100
,
0000
0001
1000
0001
0200
0000
0300
0000
,
0010
0000
0110
0000
0010
1000
0100
0000
,
1100
0101
1100
0101
,
0100
0000
0110
0000
0100
0001
0010
0000
,
0011
1010
0011
1010
,
0010
0000
0110
0000
0010
1000
0001
0000
,
0101
1100
0101
1100
,
1000
0001
0100
2000
0000
3001
0100
2000
,
0000
3001
0100
0010
1000
0000
1001
0000
,
1000
0000
1100
0000
1000
0010
0100
0000
,
0110
1010
0110
1010
,
0001
0000
0011
0000
0001
0010
0100
0000
,
0120
0000
0031
0200
0000
1300
0100
0001
,
1000
0000
1001
0000
1000
0001
0100
0000
,
0101
0011
0101
0011
,
0001
1000
0100
0002
0000
1003
0100
0002
,
0000
1003
0100
0010
0001
0000
1001
0000
,
0001
0010
0200
0000
0000
1300
0010
0100
,
0001
0101
1100
0000
,
1000
0010
0200
0000
0000
0301
0010
0100
,
1000
1100
0101
0000
,
0001
0100
0020
0000
0000
1030
0010
0100
,
0001
0011
1010
0000
,
0001
1000
0010
0002
0000
1003
0010
0002
,
0000
1003
0100
0000
0110
0000
1100
0000
,
1002
0000
0100
0000
,
0010
0000
0010
0000
0000
1000
1003
0000
,
0200
0000
1000
0000
,
0001
0000
0001
0000
0000
0010
0310
0000
,
0001
0100
0020
0000
,
1030
0100
0020
0000
,
0032
0000
0000
0000
0000
1003
0001
1000
,
0000
0010
0100
0010
0100
0100
0001
0001
,
1000
0100
0010
0000
0001
0100
0010
0000
,
1010
0011
1010
0011
,
0001
0100
0010
0000
1000
0100
0010
0000
,
0011
0000
1010
0000
0001
0100
0010
1000
,
0001
0010
0100
0000
1000
0010
0100
0000
,
0101
1100
0101
1100
,
0001
1000
0100
0020
0000
1030
0100
0020
,
0000
1030
0010
0100
0001
0000
1001
0000
,
0001
0010
0100
0010
0001
0100
0010
0000
,
0110
1010
0110
1010
,
1000
0100
0010
0100
1000
0010
0100
0000
,
0120
0000
1030
0200
0000
0301
0100
1000
,
0001
1000
0100
1000
0010
1000
0100
0000
,
1100
0110
1100
0110
,
0001
1000
0010
0200
0000
1300
0010
0200
,
0000
1300
0100
0001
0100
0100
1000
1000
,
0001
0200
0000
0310
,
1000
0100
0001
0000
,
0100
0020
0000
0031
,
0100
1000
0100
0000
,
0001
2000
0000
3100
,
0001
0100
0010
0000
,
0002
0000
0000
0000
,
2000
0000
0000
0000
,
3003
0000
0000
0000
;

//--------------- dance-single - t7r ----------------
#NOTES:
     dance-single:
     t7r:
     Challenge:
     11:
     0,0,0,0,0:
0000
0000
0000
0000
,
0000
0000
0000
0000
,
0000
0000
0000
0000
,
0000
0000
0000
0000
,
0000
0000
0000
0000
,
0000
0000
0000
0000
,
0000
0000
0000
0000
,
0000
0000
0000
0000
,
0000
0000
0000
0000
,
1000
0000
0010
1000
0001
0100
0001
0010
,
0100
0000
0010
0001
1000
0010
0100
0010
,
1000
0000
0100
1000
0010
0100
0001
0010
,
0100
0000
0010
0001
1000
0001
0100
0001
,
0010
0000
0001
0100
0010
1000
0100
0010
,
0100
0000
1000
0010
0100
0001
0010
0001
,
1000
0000
0001
0100
0001
0010
0100
1000
,
0001
0000
1000
0010
0100
0001
1000
0001
,
1002
0000
0000
0103
0100
0010
1000
0100
,
2000
0000
0000
3010
0010
0100
0001
1000
,
0001
0010
0100
1000
0100
0001
0100
0010
,
0001
0100
1000
0100
0010
0100
0001
0000
,
2001
0000
0000
3010
0010
0100
0001
0010
,
0002
0000
0000
0103
0100
0001
1000
0100
,
2000
0000
0000
0000
0000
3001
0001
1000
,
0000
0010
0010
0100
MMMM
0000
0000
0000
,
1000
0100
0001
0100
1000
0100
0010
0100
,
1000
MMMM
0001
MMMM
,
0001
0100
1000
0100
0001
0010
0100
0010
,
0001
0000
MMMM
0000
1000
0010
0100
0001
,
1000
0010
0001
0010
1000
0100
0010
0100
,
1000
MMMM
0001
MMMM
,
1000
0010
0001
2000
0000
3001
0010
2000
,
0000
3001
0010
0100
1000
0000
MMMM
0000
,
0001
0100
1000
0100
0001
0100
0010
0100
,
0001
MMMM
1001
MMMM
,
1000
0100
0001
0100
1000
0010
0100
0010
,
1000
0000
MMMM
0000
0001
0010
0100
1000
,
0001
0010
1000
0010
0001
0100
0010
0100
,
0001
MMMM
0110
MMMM
,
1000
0100
0001
2000
0000
3001
0100
2000
,
0000
3001
0100
0010
1000
0000
MMMM
0000
,
1000
0010
0200
0000
0000
0301
0010
0100
,
MMMM
0101
MMMM
0000
,
0001
0100
0020
0000
0000
0130
0001
1000
,
MMMM
1100
MMMM
0000
,
1000
0010
0200
0000
0000
0301
0010
0100
,
MMMM
0011
MMMM
0000
,
0001
0010
1000
0002
0000
1003
0010
0002
,
0000
1003
0100
0010
0001
0000
MMMM
0000
,
0210
0000
0000
0000
0000
0301
0010
0200
,
0000
0000
0000
0000
1300
0001
MMMM
0000
,
2000
0000
0000
0000
0000
0000
0000
3010
,
0200
0000
0000
0000
0301
1000
MMMM
0000
,
0002
0000
0000
0023
0000
0000
0000
0000
,
0031
0100
0010
2000
0000
3001
0100
2000
,
0000
3001
0100
2000
0000
3001
0010
1000
,
0000
0010
0100
0010
MMMM
0000
0110
0000
,
1100
0000
1000
0010
0001
0010
1000
0100
,
1100
MMMM
0101
MMMM
,
0011
0000
0001
0010
1000
0010
0001
0100
,
0101
0000
MMMM
0000
0001
0100
0010
1000
,
1001
0000
1000
0100
0001
0100
1000
0010
,
0110
MMMM
1010
MMMM
,
1000
0100
0010
2000
0000
3010
0100
2000
,
0000
3100
0001
0100
0010
0000
MMMM
0000
,
0011
0000
0001
0100
1000
0100
0001
0010
,
0011
MMMM
1010
MMMM
,
1100
0000
1000
0100
0001
0100
1000
0010
,
1010
0000
MMMM
0000
1000
0010
0100
0001
,
1001
0000
0001
0010
1000
0010
0001
0100
,
0110
MMMM
0101
MMMM
,
0001
0010
0100
0002
0000
0103
0010
0002
,
0000
0013
1000
0010
0100
0010
0001
1000
,
0001
0200
0000
1300
,
0100
0001
MMMM
0000
,
1000
0200
0000
0301
,
0100
1000
MMMM
0000
,
0001
0020
0000
1030
,
0010
0001
MMMM
0000
,
0200
0000
0000
0000
,
0020
0000
0000
0000
,
0330
0000
0000
0000
;
