#TITLE:I Begin to Wonder;
#SUBTITLE:;
#ARTIST:Danii Minogue;
#TITLETRANSLIT:;
#SUBTITLETRANSLIT:;
#ARTISTTRANSLIT:;
#GENRE:DANCE-POP;
#CREDIT:;
#BANNER:I Begin to Wonder.png;
#BACKGROUND:I Begin to Wonder-bg.png;
#LYRICSPATH:;
#CDTITLE:cdtitle.png;
#MUSIC:I Begin to Wonder.ogg;
#OFFSET:-1.978000;
#SAMPLESTART:32.217999;
#SAMPLELENGTH:15.000000;
#SELECTABLE:YES;
#BPMS:0.000000=124.999992
;
#STOPS:
;
#BGCHANGES:-4.000=I Begin to Wonder.avi=1.000=0=0=0=StretchNoLoop==CrossFade_Fastest==,
99999=-nosongbg-=1.000=0=0=0 // don't automatically add -songbackground-
;
#KEYSOUNDS:;
#ATTACKS:;

//---------------dance-single - Daff_4K----------------
#NOTES:
     dance-single:
     :
     Beginner:
     1:
     0.070824,0.096194,0.007400,0.059196,0.000000,67.000000,66.000000,1.000000,8.000000,0.000000,0.000000,0.070824,0.096194,0.007400,0.059196,0.000000,67.000000,66.000000,1.000000,8.000000,0.000000,0.000000:
0000
0000
0000
0000
,
0000
0000
0000
0000
,
0000
0000
0000
0000
,
0000
0000
0000
0000
,
1000
0000
0000
0000
,
1000
0000
0000
0000
,
0001
0000
0000
0000
,
0001
0000
0000
0000
,
1000
0000
0000
0000
,
0010
0000
0010
0000
,
0100
0000
0000
0000
,
0001
0000
0000
0000
,
0001
0000
0000
0000
,
0010
0000
0010
0000
,
0100
0000
0000
0000
,
1000
0000
0000
0000
,
0002
0000
0000
0000
,
0003
0000
0000
0000
,
0100
0000
0000
0000
,
0010
0000
0000
0000
,
2000
0000
0000
0000
,
3000
0000
0000
0000
,
0100
0000
0000
0000
,
0010
0000
0000
0000
,
0001
0000
0000
0000
,
1000
0000
1000
0000
,
1000
0000
0000
0000
,
0010
0000
0000
0000
,
1000
0000
0000
0000
,
0001
0000
0001
0000
,
0001
0000
0000
0000
,
0010
0000
0000
0000
,
0001
0000
0000
0000
,
0100
0000
0100
0000
,
0200
0000
0000
0000
,
0300
0000
0000
0000
,
0010
0000
0000
0000
,
1000
0000
1000
0000
,
2000
0000
0000
0000
,
3000
0000
0000
0000
,
1000
0000
0000
0000
,
0100
0000
0100
0000
,
0200
0000
0000
0000
,
0300
0000
0000
0000
,
0010
0000
0000
0000
,
0001
0000
0001
0000
,
0002
0000
0000
0000
,
0003
0000
0000
0000
,
0000
0000
0000
0000
,
2000
0000
0000
0000
,
3000
0000
0000
0000
,
0010
0000
0010
0000
,
0100
0000
0000
0000
,
0002
0000
0000
0000
,
0003
0000
0000
0000
,
0010
0000
0010
0000
,
0100
0000
0000
0000
,
1000
0000
0000
0000
,
0010
0000
0010
0000
,
0010
0000
0000
0000
,
0100
0000
0100
0000
,
0001
0000
0000
0000
,
0010
0000
0010
0000
,
0010
0000
0000
0000
,
0100
0000
0000
0000
,
1001
0000
0000
0000
;

//---------------dance-single - Daff_4K----------------
#NOTES:
     dance-single:
     :
     Easy:
     3:
     0.150104,0.198307,0.007400,0.103593,0.000000,142.000000,141.000000,1.000000,14.000000,0.000000,0.000000,0.150104,0.198307,0.007400,0.103593,0.000000,142.000000,141.000000,1.000000,14.000000,0.000000,0.000000:
0000
0000
0000
0000
,
0000
0000
0000
0000
,
0000
0000
0000
0000
,
0000
0000
0000
0000
,
1000
0000
0100
1000
,
0001
0000
0100
0001
,
1000
0000
0010
0100
,
0010
0100
0000
0000
,
0001
0010
1000
0000
,
1000
0010
0001
0000
,
0001
0100
0010
0000
,
1000
0002
0003
0000
,
1000
0010
0001
0000
,
0001
0010
1000
0000
,
1000
0100
0010
0000
,
0001
2000
3000
0000
,
0002
0000
0000
0000
,
0003
0000
0100
0010
,
1000
0000
0001
0000
,
0010
0000
0100
0000
,
2000
0000
0000
0000
,
3000
0000
0100
0010
,
0001
0000
1000
0000
,
0010
0000
0100
0000
,
0001
1000
0100
0000
,
0001
0100
1000
0000
,
0001
0100
0010
0000
,
1000
0002
0003
0000
,
1000
0001
0100
0000
,
1000
0100
0001
0000
,
1000
0100
0010
0000
,
0001
2000
3000
0000
,
0001
0100
0000
0001
,
1000
0001
0000
0010
,
0200
0000
0000
0300
,
0000
0000
0000
0000
,
1000
0100
0000
1000
,
0001
1000
0000
0010
,
0200
0000
0000
0300
,
0000
0000
0000
0000
,
0001
1000
0000
0001
,
0010
0001
0000
0100
,
0020
0000
0000
0030
,
0000
0000
0000
0000
,
1000
0001
0000
1000
,
0010
1000
0000
0100
,
0020
0000
0000
0030
,
0000
0000
0000
0000
,
0000
0000
0000
0000
,
0002
0000
0000
0000
,
0003
0000
0100
0010
,
1000
0000
0100
0000
,
0001
0000
0100
0100
,
2000
0000
0000
0000
,
3000
0000
0100
0010
,
0001
0000
0100
0000
,
1000
0000
0100
0100
,
0001
0010
1000
0000
,
1000
0010
0001
0000
,
0001
0100
0010
0100
,
0001
2000
3000
0000
,
1000
0010
0001
0000
,
0001
0010
1000
0000
,
1000
0100
0010
0100
,
1000
0002
0003
0000
,
1001
0000
0000
0000
,
0000
0000
0100
0100
,
0100
0000
0000
0000
;

//---------------dance-single - Daff_4K----------------
#NOTES:
     dance-single:
     :
     Medium:
     6:
     0.257926,0.276742,0.007400,0.236784,0.000000,244.000000,243.000000,1.000000,32.000000,0.000000,0.000000,0.257926,0.276742,0.007400,0.236784,0.000000,244.000000,243.000000,1.000000,32.000000,0.000000,0.000000:
0000
0000
0000
0000
,
0000
0000
0000
0000
,
0000
0000
0000
0000
,
0000
0000
0000
0000
,
1000
0000
0100
0000
0010
0000
0100
0010
,
0001
0000
0100
0000
0001
0000
0100
0010
,
1000
0100
0001
0100
,
2000
0002
3003
0000
,
0001
0000
0100
0000
0010
1000
1000
0000
,
0001
0000
0010
0000
0100
1000
1000
0000
,
0001
0100
1000
0010
,
0002
2000
3003
0000
,
1000
0000
0100
0000
0010
0001
0001
0000
,
1000
0000
0010
0000
0100
0001
0001
0000
,
1000
0100
0001
0010
,
2000
0002
3003
0000
,
0002
0100
0000
1000
,
1003
0000
0000
0000
0001
0000
0010
0100
,
0010
0001
0100
0010
,
2000
0200
3300
0000
,
2000
0100
0000
0001
,
3001
0000
0000
0000
1000
0000
0010
0100
,
0010
1000
0100
0010
,
0002
0200
0303
0000
,
0001
0000
0100
0000
0010
1000
0010
0000
,
1000
0000
0100
0000
0010
0001
0010
0000
,
0001
0000
1000
0000
0010
0100
0010
0000
,
2000
0002
3003
0000
,
1000
0000
0100
0000
0010
0001
0010
0000
,
0001
0000
0100
0000
0010
1000
0010
0000
,
1000
0000
0001
0000
0010
0100
0010
0000
,
0002
2000
3003
0000
,
0001
0000
0100
0010
0100
0000
0010
0000
,
1000
0100
0001
0010
,
2000
0100
0000
3100
,
0010
0000
0001
0100
0000
0100
0010
0000
,
1000
0000
0100
0010
0100
0000
0010
0000
,
0001
0100
1000
0010
,
0002
0100
0000
0103
,
0010
0000
1000
0100
0000
0100
0010
0000
,
0001
0000
1000
0010
1000
0000
0010
0000
,
0001
0100
1000
0010
,
0200
0001
0000
0301
,
0100
0000
0010
1000
0000
1000
0001
0000
,
1000
0000
0001
0010
0001
0000
0010
0000
,
1000
0100
0001
0010
,
0200
1000
0000
1300
,
0100
0000
0010
0001
0000
0001
1000
0000
,
1001
0000
0000
0000
,
0002
0010
0000
1000
,
1003
0000
0001
0000
0100
0000
0010
1000
,
0010
1000
0100
0001
,
0200
2000
3300
0000
,
2000
0010
0000
0001
,
3001
0000
1000
0000
0100
0000
0010
0001
,
0010
0001
0100
1000
,
0200
0002
0303
0000
,
1000
0000
0001
0000
0010
0100
0010
0000
,
0001
0000
1000
0000
0010
0100
0010
0000
,
1000
0000
0100
0000
0010
0001
0010
0000
,
0002
2000
3003
0000
,
0001
0000
1000
0000
0010
0100
0010
0000
,
1000
0000
0001
0000
0010
0100
0010
0000
,
0001
0000
0100
0000
0010
1000
0010
0000
,
2000
0002
3003
0000
,
0020
0000
0000
0000
,
0030
0000
0100
0010
,
0200
0000
0000
0000
,
0300
0000
0000
0000
;

//---------------dance-single - Daff_4K----------------
#NOTES:
     dance-single:
     :
     Hard:
     9:
     0.325579,0.377375,0.051797,0.288581,0.000000,308.000000,301.000000,7.000000,39.000000,0.000000,0.000000,0.325579,0.377375,0.051797,0.288581,0.000000,308.000000,301.000000,7.000000,39.000000,0.000000,0.000000:
0000
0000
0000
0000
,
0000
0000
0000
0000
,
0000
0000
0000
0000
,
0000
0000
0000
0000
,
1000
0000
0100
0000
0001
0000
0100
0010
,
0001
0000
0100
0000
1000
0000
0100
0010
,
1000
0000
0001
0000
0010
0000
0100
1000
,
0020
0100
0200
0330
,
0001
0010
1000
0000
0010
0001
0001
0000
,
1000
0010
0100
0001
0010
0100
1000
0000
,
0001
0100
0010
0000
1000
0100
0010
0000
,
0002
0100
2000
3003
,
1000
0010
0001
0000
0010
1000
1000
0000
,
0001
0010
0100
1000
0010
0100
0001
0000
,
1000
0100
0010
0000
0001
0100
0010
0000
,
2000
0100
0002
3003
,
0002
0100
1000
0010
,
0103
0000
0001
1000
0001
0000
0100
0010
,
0100
0000
0001
1000
0100
0010
0001
0100
,
0020
1000
1030
0001
,
2000
0100
0001
0010
,
3100
0000
1000
0001
1000
0000
0100
0010
,
0100
0000
1000
0001
0100
0010
1000
0100
,
0020
0001
0031
1000
,
0001
0100
1000
0000
1000
0100
0001
0000
,
0001
0010
1000
0010
0001
0100
0010
0000
,
1000
0100
0010
0000
0001
0100
0010
0000
,
2000
0001
0200
3300
,
1000
0100
0001
0000
0001
0100
1000
0000
,
1000
0010
0001
0010
1000
0100
0010
0000
,
0001
0100
0010
0000
1000
0100
0010
0000
,
0002
1000
0200
0303
,
0001
0000
0010
1000
0000
0010
0001
0000
,
0100
0000
0010
1000
0001
0000
0010
0000
,
0220
0000
0000
0330
,
0100
0000
1000
0001
0000
0100
0010
0000
,
1000
0000
0010
0001
0000
0010
1000
0000
,
0100
0000
0010
0001
1000
0000
0010
0000
,
0220
0000
0000
0330
,
0100
0000
0001
1000
0000
0100
0010
0000
,
0001
0000
0100
1000
0000
0100
0010
0000
,
1000
0000
0001
0010
0100
0000
1000
0000
,
2020
0000
0000
3030
,
0010
0000
1000
0001
0000
0010
0100
0000
,
1000
0000
0100
0001
0000
0100
0010
0000
,
0001
0000
1000
0010
0100
0000
0001
0000
,
0022
0000
0000
0033
,
0010
0000
0001
1000
0000
0010
0100
0000
,
0020
0000
0000
0030
,
2001
0010
0100
0010
,
3001
0000
1000
0100
0001
0000
0001
0010
,
1000
0000
0001
1000
0100
0010
0001
0100
,
0020
1000
0200
0330
,
1002
0010
0100
0010
,
1003
0000
0001
0100
1000
0000
1000
0010
,
0001
0000
1000
0001
0100
0010
1000
0100
,
0020
0001
0200
0330
,
1000
0100
0001
0000
0010
1000
0001
0000
,
0001
0100
1000
0000
0010
0001
1000
0000
,
0001
0010
0100
0000
1000
0010
0100
0000
,
0020
2030
0002
3003
,
0001
0100
0010
0100
0001
0001
1000
0000
,
1000
0100
0010
0100
1000
1000
0001
0000
,
1000
0010
0100
0000
0001
0010
0100
0000
,
0020
0032
2000
3003
,
0220
0000
0000
0000
,
0330
0000
0010
2000
,
0002
0000
0000
0000
,
3003
0000
0000
0000
;

//---------------dance-single - Daff_4K----------------
#NOTES:
     dance-single:
     :
     Challenge:
     12:
     0.460884,0.478009,0.000000,0.133191,0.347777,436.000000,436.000000,0.000000,18.000000,0.000000,0.000000,0.460884,0.478009,0.000000,0.133191,0.347777,436.000000,436.000000,0.000000,18.000000,0.000000,0.000000:
// measure 0
0000
0000
0000
0000
,  // measure 1
0000
0000
0000
0000
,  // measure 2
0000
0000
0000
0000
,  // measure 3
0000
0000
0000
0000
,  // measure 4
0001
0000
0010
0000
1000
0000
0000
0000
0010
0000
0000
0001
0000
0001
0000
1000
,  // measure 5
0000
0000
0010
0000
0001
0000
0000
0000
0010
0000
0000
1000
0000
1000
0000
0001
,  // measure 6
0000
1000
0100
0000
0010
0001
1000
0010
,  // measure 7
0200
0000
0000
0000
0302
0000
0000
0000
2000
0000
0000
0000
3003
0000
0000
1000
,  // measure 8
0100
0000
1000
0000
0100
0000
0000
0010
0001
0000
0010
0000
0001
0000
0000
1000
,  // measure 9
0010
0000
1000
0000
0010
0000
0001
0000
0010
0000
1000
0000
0100
0000
0000
0010
,  // measure 10
0001
0000
0010
0000
0001
0000
0000
1000
0010
0000
1000
0000
0010
0000
0000
0000
,  // measure 11
0001
0000
0010
0000
1000
0000
0100
0000
0001
0000
0100
0000
1000
0000
0000
0001
,  // measure 12
0100
0000
0001
0000
0100
0000
0000
0010
1000
0000
0010
0000
1000
0000
0000
0001
,  // measure 13
0010
0000
0001
0000
0010
0000
1000
0000
0010
0000
0001
0000
0100
0000
0000
0010
,  // measure 14
1000
0000
0010
0000
1000
0000
0000
0001
0010
0000
0001
0000
0010
0000
0000
0000
,  // measure 15
1000
0010
0001
0100
1000
0100
0001
0000
,  // measure 16
1000
0000
0010
0000
0100
0000
0001
0000
0010
0000
0100
0000
1000
0010
1000
0010
,  // measure 17
0000
0000
0000
0000
0000
0000
0100
0001
0100
0001
0000
0000
0000
0000
0000
0000
,  // measure 18
1000
0100
1000
0100
0000
0000
0000
0000
0010
0001
0010
0001
0000
0000
0000
0000
,  // measure 19
0100
0010
0100
0010
0000
0000
0000
0000
1000
0001
1000
0001
0000
0000
0000
0000
,  // measure 20
0001
0000
0010
0000
0100
0000
1000
0000
0010
0000
0100
0000
0001
0010
0001
0010
,  // measure 21
0000
0000
0000
0000
0000
0000
0100
1000
0100
1000
0000
0000
0000
0000
0000
0000
,  // measure 22
0001
0100
0001
0100
0000
0000
0000
0000
0010
1000
0010
1000
0000
0000
0000
0000
,  // measure 23
0100
0010
0100
0010
0000
0000
0000
0000
0001
1000
0001
1000
0000
0000
0000
1000
,  // measure 24
0001
0000
0100
0000
0010
0000
0000
0010
1000
0000
0100
0000
0010
0000
0000
0010
,  // measure 25
0001
0000
0100
0000
1000
0000
0100
0000
0001
0000
0010
0000
0100
0000
0000
1000
,  // measure 26
0010
0000
0100
0000
0001
0000
0000
0001
0010
0000
0100
0000
1000
0000
0000
1000
,  // measure 27
0010
0000
0001
0000
0010
0000
0100
0000
0010
0000
1000
0000
0001
0000
0000
0001
,  // measure 28
1000
0000
0100
0000
0010
0000
0000
0010
0001
0000
0100
0000
0010
0000
0000
0010
,  // measure 29
1000
0000
0100
0000
0001
0000
0100
0000
1000
0000
0010
0000
0100
0000
0000
0001
,  // measure 30
0010
0000
0100
0000
1000
0000
0000
1000
0010
0000
0100
0000
0001
0000
0000
0001
,  // measure 31
0010
1000
0010
0100
0010
0001
1000
0000
,  // measure 32
0001
0000
0100
1000
0001
0010
1000
0000
,  // measure 33
0100
0000
0001
0100
0020
0000
0032
0000
,  // measure 34
2003
0000
0010
0010
0000
0001
3001
0000
,  // measure 35
1000
0000
0000
0000
0001
0000
0100
0000
1000
0000
0100
0000
0010
1000
0000
0000
,  // measure 36
1000
0000
0100
0001
1000
0010
0001
0000
,  // measure 37
0100
0000
1000
0100
0020
0000
2030
0000
,  // measure 38
3002
0000
0010
0010
0000
1000
1003
0000
,  // measure 39
0001
0000
0000
0000
1000
0000
0100
0000
0001
0000
0100
0000
0010
0001
0000
0000
,  // measure 40
1000
0000
0010
0001
0100
0001
0010
0000
,  // measure 41
1000
0000
0100
0001
0020
0000
2030
0000
,  // measure 42
3200
0000
0001
0001
0000
0010
0310
0000
,  // measure 43
0100
0000
0000
0000
1000
0000
0010
0000
0100
0000
0001
0000
1000
0001
0000
0000
,  // measure 44
0001
0000
0010
1000
0100
1000
0010
0000
,  // measure 45
0001
0000
0100
1000
0020
0000
0032
0000
,  // measure 46
0203
0000
1000
1000
0000
0010
0310
0000
,  // measure 47
0100
0000
0000
0000
0001
0000
0010
0000
0100
0000
1000
0000
0001
1000
0000
0000
,  // measure 48
0200
0010
0010
0310
,  // measure 49
0001
0000
0100
0000
0010
0000
0100
0000
1000
0000
0100
0000
0001
0010
0001
1000
,  // measure 50
0000
0000
0000
0000
0000
0000
1000
0100
1000
0001
0000
0000
0000
0000
0000
0000
,  // measure 51
0001
0100
0010
1000
0000
0000
0000
0000
1000
0100
0010
0001
0000
0000
0000
0000
,  // measure 52
0001
1000
0010
0100
0000
0000
0000
0000
0100
0010
1000
0001
0000
0000
0000
0000
,  // measure 53
1000
0000
0100
0000
0010
0000
0100
0000
0001
0000
0100
0000
1000
0010
1000
0001
,  // measure 54
0000
0000
0000
0000
0000
0000
0001
0100
0001
1000
0000
0000
0000
0000
0000
0000
,  // measure 55
1000
0100
0010
0001
0000
0000
0000
0000
0001
0100
0010
1000
0000
0000
0000
0000
,  // measure 56
1000
0001
0010
0100
0000
0000
0000
0000
0100
0010
0001
1000
0000
0000
0000
1000
,  // measure 57
0010
0000
0001
0000
0010
0000
0000
0010
0100
0000
0001
0000
1000
0000
0000
0001
,  // measure 58
0010
0000
1000
0000
0010
0000
0000
0010
0100
0000
1000
0000
0001
0000
0000
0001
,  // measure 59
0100
0000
0010
0000
1000
0000
0000
1000
0001
0000
0010
0000
0100
0000
0000
0100
,  // measure 60
1000
0000
0010
0000
0001
0000
0010
0000
0100
0000
0001
0000
1000
0000
0000
1000
,  // measure 61
0001
0000
0010
0000
0100
0000
1000
0001
1000
0000
0010
0000
0100
0000
0000
0001
,  // measure 62
1000
0000
0010
0000
0100
0000
0001
1000
0001
0000
0010
0000
0100
0000
0000
1000
,  // measure 63
0100
0000
0010
0000
0001
0000
0000
0001
1000
0000
0010
0000
0100
0000
0000
0100
,  // measure 64
0001
0010
1000
0010
0100
1000
0001
0000
,  // measure 65
0200
0000
0000
0000
,  // measure 66
0300
0000
0000
0001
1000
0000
0100
0010
,  // measure 67
0200
0000
0000
0000
,  // measure 68
0300
0000
0000
0000
;
