#VERSION:0.83;
#TITLE:Herbarium;
#SUBTITLE:;
#ARTIST:aran & Satella;
#TITLETRANSLIT:;
#SUBTITLETRANSLIT:;
#ARTISTTRANSLIT:;
#GENRE:;
#CREDIT:;
#MUSIC:Herbarium.ogg;
#BANNER:Herbarium.png;
#BACKGROUND:Herbarium-bg.png;
#CDTITLE:;
#SAMPLESTART:36.693;
#SAMPLELENGTH:15.000;
#SELECTABLE:YES;
#OFFSET:1.593;
#BPMS:0.000=105.000;
#STOPS:;
#BGCHANGES:;
#FGCHANGES:;

//--------------- dance-single - Talkion ----------------
#NOTEDATA:;
#STEPSTYPE:dance-single;
#DESCRIPTION:Talkion;
#DIFFICULTY:Beginner;
#METER:3;
#RADARVALUES:0,0,0,0,0;
#NOTES:
0000
0000
0000
0000
,
0000
0000
0000
0000
,
0000
0000
0000
0000
,
0000
0000
0000
0000
,
0000
0000
0000
0000
,
1000
0000
0001
0000
,
1000
0000
0001
0000
,
0100
0000
0010
0000
,
0100
0000
0010
0000
,
1000
0000
1000
0000
,
0001
0000
0001
0000
,
1000
0000
1000
0000
,
0001
0000
0001
0000
,
1000
0000
0010
0000
,
0001
0000
0010
0000
,
1000
0000
0010
0000
,
0002
0000
0000
0003
,
0020
0030
2000
3000
,
0020
0030
2000
3000
,
0200
0300
2000
3000
,
0200
0300
2000
3000
,
0002
0003
0200
0300
,
0002
0003
0200
0300
,
0002
0003
0020
0030
,
2000
3000
0020
0030
,
0001
0001
0001
0000
,
1000
1000
1000
0000
,
0010
0010
0010
0000
,
0100
0100
0100
0000
,
0001
0001
0001
0000
,
1000
1000
1000
0000
,
0100
0100
0100
0000
,
0001
0001
0002
0003
,
0100
0000
0100
0000
,
0010
0000
0010
0000
,
0100
0000
0100
0000
,
0010
0000
0010
0000
,
0001
0000
1000
0000
,
0100
0000
0001
0000
,
0100
0000
0010
0000
,
0002
0000
0000
0003
,
2002
3003
0220
0330
,
0001
0001
0100
0000
,
0001
0001
0010
0000
,
1000
1000
0010
0000
,
1000
1000
0100
0000
,
0001
0001
0100
0000
,
0001
0001
0010
0000
,
1000
1000
0020
0030
;

//--------------- dance-single - Talkion ----------------
#NOTEDATA:;
#STEPSTYPE:dance-single;
#DESCRIPTION:Talkion;
#DIFFICULTY:Easy;
#METER:6;
#RADARVALUES:0,0,0,0,0;
#NOTES:
0000
0000
0000
0000
,
0000
0000
0000
0000
,
0000
0000
0000
0000
,
0000
0000
0000
0000
,
0000
0000
0000
0000
,
2000
0000
3020
0000
,
0032
0000
0203
0000
,
2300
0000
3020
0000
,
0230
0000
0302
0000
,
1003
0100
0001
0100
,
1000
0010
0001
0010
,
1000
0100
0001
0100
,
1000
0010
0001
0010
,
1000
0001
0010
1000
,
0100
1000
0010
0001
,
1000
0010
0001
0100
,
2000
0001
3020
0030
,
2010
3100
0012
0103
,
0120
0031
0120
1030
,
2100
3010
0102
0013
,
0210
0301
0210
1300
,
2001
3010
1002
0013
,
0021
0130
1020
0130
,
2001
3100
1002
0103
,
1200
0000
0301
0000
0101
0100
0010
1000
,
0001
0010
0010
0000
1000
0010
0010
0000
,
1000
0001
0010
0000
0001
0010
1000
0000
,
0001
0100
0100
0000
1000
0100
0100
0000
,
1000
0001
0100
0000
0001
0100
1000
0000
,
0001
0010
0010
0000
1000
0010
0010
0000
,
1000
0100
0010
0000
0100
0010
1000
0000
,
0001
0100
0100
0000
1000
0100
0100
0000
,
1000
0010
0100
0000
0010
0100
1000
0000
,
0001
0100
1000
0100
,
0001
0010
1000
0010
,
0001
0100
1000
0100
,
0001
0010
1000
0010
,
0001
1000
0010
0001
,
0100
0001
0010
1000
,
0001
0010
1000
0100
,
0002
1000
0023
0030
,
0022
0033
2020
3030
,
0021
1030
1020
0031
,
0201
1300
2100
3010
,
0012
0103
2010
3100
,
0021
1030
1200
0301
,
0102
0013
2100
3010
,
1002
0103
2001
3100
,
2000
3200
0302
0013
;

//--------------- dance-single - Talkion ----------------
#NOTEDATA:;
#STEPSTYPE:dance-single;
#DESCRIPTION:Talkion;
#DIFFICULTY:Medium;
#METER:11;
#RADARVALUES:0,0,0,0,0;
#NOTES:
0000
0000
0000
0000
,
0000
0000
0000
0000
,
0000
0000
0000
0000
,
0000
0000
0000
0000
,
0000
0000
0000
0000
,
1000
0000
0000
1000
0000
0010
0000
0000
0001
0000
0000
0001
0000
0010
0000
0000
,
1000
0000
0000
0010
0000
0100
0000
0000
0001
0000
0000
0000
0001
0000
1000
0000
,
0001
0000
0000
0001
0000
0010
0000
0000
1000
0000
0000
1000
0000
0010
0000
0000
,
0001
0000
0000
0010
0000
0100
0000
0000
1000
0000
0000
0000
0002
0000
0000
0000
,
0103
1000
0010
1000
,
0100
0001
1000
1000
,
0100
0001
0010
0001
,
0100
1000
0001
0001
,
1000
0010
1000
0000
0010
0001
0010
0000
,
0001
0100
0001
0000
0100
1000
0100
0000
,
1000
0010
1000
0000
0010
0001
0010
0000
,
1000
0010
1000
0000
0002
0000
0013
0000
,
0012
0000
0000
0000
0103
0000
0010
0000
2010
0000
0000
0000
3100
0000
1000
0001
,
0010
0000
0001
1000
0000
0020
0000
0000
0130
0000
0010
0000
1000
0001
0010
0100
,
2000
0000
0000
0000
3010
0000
0100
0001
0200
0000
0000
0000
0310
0000
1000
0001
,
0100
0000
0010
0100
0000
0002
0000
0000
1003
0000
0001
1000
0000
0100
0000
0100
,
2000
0000
0000
0000
3010
0000
0100
0000
0102
0000
0000
0000
0013
0000
0001
1000
,
0100
0000
1000
0001
0000
0200
0000
0000
0310
0000
0100
0000
0001
0100
0010
1000
,
0002
0000
0000
0000
0013
0000
1000
0020
0000
0000
0000
0000
0031
0010
0001
2000
,
0000
0000
0000
0000
3001
0010
0001
2000
0000
0000
0000
0000
3010
1000
0001
0100
,
0020
0000
1000
0000
0130
0000
0001
0000
0020
0000
0001
0000
0130
0000
1000
0100
,
0010
0000
0001
0100
0000
0020
0000
0000
1030
0000
0010
0000
0100
0010
1000
0001
,
0200
0000
0010
0000
0301
0000
1000
0010
2000
0000
0001
0000
3100
0000
1000
0100
,
0010
0000
0001
0100
0000
0020
0000
0000
1030
0000
0010
0100
0000
0001
0000
0001
,
0200
0000
0001
0000
0310
0000
1000
0000
0200
0000
1000
0000
0310
0000
0001
0010
,
0100
0000
1000
0010
0000
0200
0000
0000
0301
0000
0100
0000
0010
0100
0001
1000
,
0020
0000
0100
0000
1030
0000
0001
1000
0002
0000
0010
0000
1003
0000
0001
0100
,
0020
0001
0100
1030
,
0010
0001
0100
0001
,
0010
1000
0001
0001
,
0010
1000
0100
1000
,
0010
0001
1000
1000
,
0001
0100
0001
0000
0100
1000
0100
0000
,
1000
0010
1000
0000
0001
0010
0001
0000
,
1000
0010
1000
0010
0100
0001
0100
0001
,
1000
0010
0100
0001
2000
0000
3000
0000
,
2200
3300
0202
0303
,
1000
0000
0100
0010
0000
2000
0000
0000
3010
0000
0001
0000
1000
0001
0010
0100
,
2000
0000
0010
0000
3001
0000
0100
0010
0200
0000
0001
0000
0310
0000
0100
0010
,
1000
0000
0001
0010
0000
0200
0000
0000
0301
0000
0100
1000
0000
0100
1000
0001
,
2000
0000
0100
0000
3001
0000
1000
0000
0002
0000
0100
0000
1003
0000
0001
0010
,
1000
0000
0010
0100
0000
2000
0000
0000
3001
0000
1000
0000
0010
0100
0010
1000
,
0001
0000
1000
0000
0010
0100
0010
1000
0001
0000
0010
0000
0010
0001
1000
0100
,
0020
1000
0100
0031
;

//--------------- dance-single - Talkion ----------------
#NOTEDATA:;
#STEPSTYPE:dance-single;
#DESCRIPTION:Talkion;
#DIFFICULTY:Hard;
#METER:14;
#RADARVALUES:0,0,0,0,0;
#NOTES:
0000
0000
0000
0000
,
0000
0000
0000
0000
,
0000
0000
0000
0000
,
0000
0000
0000
0000
,
0000
0000
0000
0000
,
0001
0000
0000
0100
0000
0100
0000
0000
1000
0000
0000
0010
0000
0010
0000
0000
,
0001
0000
0000
0100
0000
0100
0000
0000
1000
0000
0000
0000
0010
0000
0001
0000
,
0100
0000
0000
0010
0000
0010
0000
0000
0001
0000
0000
0100
0000
0100
0000
0000
,
0010
0000
0000
0001
0000
0001
0000
0000
0100
0000
0010
0000
2000
0000
0000
0000
,
3001
0000
0000
0100
0001
0010
0000
0000
0011
0000
0000
0010
0001
0100
0000
0000
,
0110
0000
0000
1000
0100
0010
0000
0000
0011
0000
0000
0000
0001
0000
1000
0000
,
1010
0000
0000
0010
1000
0100
0000
0000
1100
0000
0000
0100
1000
0010
0000
0000
,
0110
0000
0000
0001
0010
0100
0000
0000
0110
0000
0000
1000
0010
0100
0000
0000
,
0010
0000
0100
0001
0100
0010
0000
0010
1000
0000
0001
1000
0001
0010
0000
0010
,
0100
0000
0010
1000
0010
0100
0000
0100
1000
0000
0001
0000
0100
0000
0010
0000
,
1000
0000
0010
1000
0010
0100
0000
0100
0001
0000
1000
0001
1000
0100
0000
0100
,
0020
0000
0000
1000
0000
0100
0000
0000
0032
0000
0000
0000
0003
1000
0001
0100
,
2010
0000
0000
0000
3001
0000
0010
0000
0012
0000
0000
0000
1003
0000
0010
0100
,
0101
0000
0001
1000
0100
0010
0000
0001
1001
0000
1000
0000
0010
0100
0010
1000
,
1002
0000
0000
0000
0013
0000
0100
1000
2100
0000
0000
0000
3001
0000
1000
0010
,
1010
0000
1000
0001
0010
0100
0000
1000
1001
0000
0001
0100
0010
0001
0000
0010
,
0102
0000
0000
0000
1003
0000
0100
0000
2100
0000
0000
0000
3001
0000
0100
0010
,
1010
0000
1000
0001
0010
0100
0000
1000
1001
0000
0001
0000
0100
0010
0100
0001
,
2001
0000
0000
0000
3100
1000
0001
0010
2100
0000
0000
0000
3010
1000
0001
0100
,
2010
0000
0000
0000
3100
1000
0001
0010
1000
0000
1000
0000
0110
0000
0000
0000
,
1001
0000
0000
0000
1000
0000
1000
0000
0010
0000
0000
0000
0100
0000
0000
0000
0101
0000
0000
0000
1000
0000
0001
0010
0001
0000
0000
0000
1000
0000
0010
0000
,
1010
0000
0000
0000
1000
0000
0001
0000
0010
0000
0100
0000
1000
0000
0001
0000
0100
0000
0010
1000
0010
0000
0000
0000
0100
0000
0010
0000
0100
0000
0001
0000
,
1001
0000
0000
0000
0000
0000
1000
0000
0000
1000
0000
0000
0100
0000
0000
0000
0000
0000
1000
0000
0000
0000
0000
0000
0001
0000
0100
0000
0001
0000
0100
0000
0001
0000
0100
0000
0010
0000
0000
0000
0000
0000
1000
0000
0000
0100
0000
0000
,
1100
0000
0000
0000
1000
0000
0001
0010
0001
0000
1000
0000
0100
0000
0010
0000
0001
0000
0000
0000
1000
0000
0010
1000
0010
0000
1000
0010
1000
0000
0001
0000
,
0101
0000
0100
0100
0010
0000
1000
0000
1200
0300
1200
0300
1001
0000
0001
0100
,
0101
0000
0000
0000
0001
0000
1000
0000
0100
0000
0010
0000
0001
0000
1000
0000
0010
0000
0100
0001
0100
0000
0000
0000
0010
0000
0100
0000
0010
0000
1000
0000
,
1001
0000
0001
0001
0010
0000
0100
0010
0110
0000
1000
0010
0001
0000
0010
0100
,
0110
0000
1000
0001
0100
0010
0100
0001
1000
0100
0010
0000
1001
0000
0000
0000
,
0011
0000
0000
0001
0010
0100
0000
0000
1010
0000
0000
1000
0010
0100
0000
0000
,
0011
0000
0000
0010
0001
0100
0000
0000
1100
0000
0000
0000
0001
0000
0010
0000
,
1010
0000
0000
1000
0010
0100
0000
0000
0011
0000
0000
0001
0010
0100
0000
0000
,
1010
0000
0000
0010
1000
0100
0000
0000
0101
0000
0000
0100
0001
0010
0000
0000
,
1000
0000
0001
1000
0001
0100
0000
0100
0010
0000
0100
1000
0100
0001
0000
0001
,
1000
0000
0001
1000
0001
0010
0000
0010
1000
0000
0010
0100
0010
0001
0000
0001
,
1000
0010
0100
0001
1000
0010
0100
0010
1000
0001
0010
0100
1000
0001
0010
0100
,
0002
0000
0000
0103
2000
0010
0000
0000
0002
0000
0000
3003
0000
1000
0001
0010
,
2010
0000
0000
0000
3000
0001
1000
0010
0012
0000
0000
0000
0003
1000
0001
0010
,
1010
0000
0000
0000
1000
0000
0001
0000
0100
0000
1000
0000
0001
0000
0010
0000
1000
0000
0001
1000
0001
0000
0000
0000
0100
0000
0010
0000
0100
0000
0001
0000
,
1001
0000
0000
0000
0000
0000
1000
0000
0000
1000
0000
0000
0100
0000
0000
0000
0000
0000
1000
0000
0000
0000
0000
0000
0001
0000
0100
0000
0001
0000
0100
0000
0001
0000
0100
0000
0010
0000
0000
0000
0000
0000
1000
0000
0000
0010
0000
0000
,
1010
0000
0000
0000
1000
0000
0100
0010
0100
0000
0001
0000
0100
0000
1000
0000
0001
0000
0000
0000
1000
0000
0010
1000
0010
0000
1000
0010
1000
0000
0001
0000
,
0101
0000
0100
0100
0010
0000
0001
0000
0021
0030
0021
0030
1010
0000
1000
0001
,
1001
0000
0000
0000
1000
0000
0100
0000
0010
0000
1000
0000
0001
0000
0100
0000
1000
0000
0001
0010
0001
0000
1000
0000
0010
0000
0100
0000
0001
0000
1000
0000
,
1020
0000
0000
0130
0010
0001
1000
0100
0101
0000
1010
0000
0001
0010
0100
1000
,
0001
1000
0100
0001
0000
0001
0010
1000
0000
1000
0100
0010
0011
0000
0000
0000
;

//--------------- dance-single - Talkion ----------------
#NOTEDATA:;
#STEPSTYPE:dance-single;
#DESCRIPTION:Talkion;
#DIFFICULTY:Challenge;
#METER:12;
#RADARVALUES:0,0,0,0,0;
#NOTES:
0000
0000
0000
0000
,
0000
0000
0000
0000
,
0000
0000
0000
0000
,
0000
0000
0000
0000
,
0000
0000
0000
0000
,
1000
0000
0000
0010
0000
0010
0000
0000
0001
0000
0000
0100
0000
0100
0000
0000
,
1000
0000
0000
0010
0000
0010
0000
0000
0001
0000
0000
0000
0100
0000
1000
0000
,
0010
0000
0000
0100
0000
0100
0000
0000
1000
0000
0000
0010
0000
0010
0000
0000
,
0100
0000
0000
1000
0000
1000
0000
0000
0010
0000
0100
0000
0002
0000
0000
0000
,
1003
0000
0000
0100
1000
0010
0000
0000
0110
0000
0000
0010
0001
0100
0000
0000
,
0110
0000
0000
0100
1000
0001
0000
0000
1001
0000
0000
0000
1000
0000
0010
0000
,
1010
0000
0000
0010
1000
0100
0000
0000
0110
0000
0000
0100
0001
0010
0000
0000
,
0110
0000
0000
0010
1000
0001
0000
0000
1001
0000
0000
1000
0001
0010
0000
0000
,
0001
0000
0010
0001
0010
0001
0000
0000
0010
0000
1000
0010
1000
0010
0000
0000
,
1000
0000
0100
1000
0100
1000
0000
0000
0100
0000
0001
0000
0100
0000
0010
0000
,
1000
0000
0001
0100
0010
1000
0000
0000
0001
0000
1000
0100
0010
0001
0000
0000
,
2000
0000
0000
0001
0000
0010
0000
0000
0002
0000
3003
0000
MMMM
0000
0000
0000
,
2020
3030
MMMM
0000
0022
0033
MMMM
0000
,
1010
0000
0000
0201
0000
0010
0000
0000
1300
0000
0100
0000
MMMM
0000
0010
0000
,
0022
0033
MMMM
0000
2020
3030
MMMM
0000
,
0011
0000
0000
1200
0000
0310
0000
0000
0101
0000
0000
1020
0000
0130
0000
0000
,
0202
0303
MMMM
0000
2200
3300
MMMM
0000
,
0101
0000
0000
1020
0000
0100
0000
0000
0031
0000
0010
0000
MMMM
0000
0100
0000
,
2100
0000
0000
0001
0000
3010
0000
0000
0012
0000
0000
1000
0000
0103
0000
0000
,
2100
0000
0000
0001
0000
3010
0000
0000
0100
0000
0100
0000
1001
0000
0000
0000
,
0001
0010
MMMM
0100
0001
0010
MMMM
0100
,
0001
0000
0000
0201
0000
0010
0000
0000
1300
0000
0100
0000
MMMM
0000
0010
0000
,
0001
0100
MMMM
0010
0001
0100
MMMM
0010
,
0110
0000
0000
1002
0000
0103
0000
0000
0110
0000
0000
2001
0000
3100
0000
0000
,
1000
0010
MMMM
0100
1000
0010
MMMM
0100
,
1000
0000
0000
1200
0000
0010
0000
0000
0301
0000
0100
0000
MMMM
0000
0010
0000
,
2010
0000
0000
0001
0000
3100
0000
0000
0102
0000
0000
1000
0000
0013
0000
0000
,
2010
0000
0000
0001
0000
0100
0000
0000
0002
0000
3003
0000
MMMM
0000
0000
0000
,
1010
0000
0000
0010
1000
0100
0000
0000
0110
0000
0000
0100
0001
0010
0000
0000
,
0110
0000
0000
0010
1000
0001
0000
0000
1001
0000
0000
0000
1000
0000
0100
0000
,
1100
0000
0000
0100
1000
0010
0000
0000
0110
0000
0000
0010
0001
0100
0000
0000
,
0110
0000
0000
0100
1000
0001
0000
0000
1001
0000
0000
1000
0001
0100
0000
0000
,
0001
0000
0100
0001
0100
0001
0000
0000
0100
0000
1000
0100
1000
0100
0000
0000
,
1000
0000
0010
1000
0010
1000
0000
0000
0010
0000
0001
0010
0001
0010
0000
0000
,
0001
0010
1000
0100
0001
0010
1000
0100
,
0002
0000
0000
1000
0000
0010
0000
0000
2000
0000
3003
0000
MMMM
0000
0000
0000
,
0012
0000
0000
0000
0003
1000
0001
0100
0020
0000
0000
0000
0030
1000
0001
0010
,
0100
0000
0000
1200
0000
0010
0000
0000
0301
0000
0100
0000
MMMM
0000
0010
0000
,
1000
0001
MMMM
1000
0100
0001
MMMM
1000
,
0100
0000
0000
0102
0000
1003
0000
0000
1001
0000
0000
2100
0000
3001
0000
0000
,
1000
0001
MMMM
1000
0010
0001
MMMM
1000
,
0010
0000
0000
0021
0000
0100
0000
0000
1030
0000
0010
0000
MMMM
0000
0100
0000
,
0102
0000
0000
1000
0000
0013
0000
0000
0100
0000
0100
0000
1001
0000
0000
0000
,
2000
3020
0032
0103
;
