#VERSION:0.83;
#TITLE:紅蓮華;
#SUBTITLE:;
#ARTIST:LiSA;
#TITLETRANSLIT:Gurenge;
#SUBTITLETRANSLIT:;
#ARTISTTRANSLIT:;
#GENRE:J-ROCK;
#ORIGIN:;
#CREDIT:;
#BANNER:Gurenge.png;
#BACKGROUND:Gurenge-bg.png;
#PREVIEWVID:;
#JACKET:Gurenge-jacket.png;
#CDIMAGE:;
#DISCIMAGE:;
#LYRICSPATH:;
#CDTITLE:cdtitle.png;
#MUSIC:Gurenge.ogg;
#OFFSET:-1.092000;
#SAMPLESTART:61.480999;
#SAMPLELENGTH:15.000000;
#SELECTABLE:YES;
#BPMS:0.000=135.000;
#STOPS:;
#DELAYS:;
#WARPS:;
#TIMESIGNATURES:0.000=4=4;
#TICKCOUNTS:0.000=4;
#COMBOS:0.000=1;
#SPEEDS:0.000=1.000=0.000=0;
#SCROLLS:0.000=1.000;
#FAKES:;
#LABELS:0.000=Song Start;
#BGCHANGES:-2.500=Gurenge.avi=1.000=0=0=0=StretchNoLoop==CrossFade_Fastest==,
99999=-nosongbg-=1.000=0=0=0 // don't automatically add -songbackground-
;
#KEYSOUNDS:;
#ATTACKS:
;

//---------------dance-single - Daff_4K----------------
#NOTEDATA:;
#CHARTNAME:Daff_4K;
#STEPSTYPE:dance-single;
#DESCRIPTION:Daff_4K;
#CHARTSTYLE:;
#DIFFICULTY:Beginner;
#METER:1;
#RADARVALUES:0.104742,0.135391,0.000000,0.066654,0.000000,66.000000,66.000000,0.000000,6.000000,0.000000,0.000000,0.000000,0.000000,0.000000,0.104742,0.135391,0.000000,0.066654,0.000000,66.000000,66.000000,0.000000,6.000000,0.000000,0.000000,0.000000,0.000000,0.000000;
#CREDIT:Daff_4K;
#NOTES:
0000
0000
0000
0000
,
0000
0000
0000
0000
,
0000
0000
0000
0000
,
0000
0000
0000
0000
,
0000
0000
0000
0000
,
0000
0000
0000
0000
,
1000
0000
0001
0000
,
1000
0000
0000
0000
,
0001
0000
1000
0000
,
0001
0000
0000
0000
,
1000
0000
0000
0100
,
0100
0000
0100
0000
,
0010
0000
0000
0000
,
0010
0000
0001
0000
,
0001
0000
0000
0100
,
0100
0000
0100
0000
,
0010
0000
0000
0000
,
0010
0000
1000
0000
,
1000
0000
1000
0000
,
0100
0000
0000
0000
,
0001
0000
0001
0000
,
0100
0000
0000
0000
,
0010
0000
0010
0000
,
0100
0000
0000
0000
,
0100
0000
0100
0000
,
0010
0000
0000
0000
,
0002
0000
0003
0000
,
2000
0000
3000
0000
,
0020
0000
0030
0000
,
0200
0000
0300
0000
,
0010
0000
0010
0000
,
0100
0000
0000
0000
,
0001
0000
1000
0000
,
0001
0000
0000
0000
,
0010
0000
0100
0000
,
0010
0000
0000
0000
,
0001
0000
1000
0000
,
0001
0000
0000
0000
,
0100
0000
0000
0010
,
0010
0000
0000
0100
,
0200
0000
0000
0000
,
0300
0000
0100
0000
,
0010
0000
0100
0000
,
0010
0000
0000
0000
,
1000
0000
0001
0000
,
1000
0000
0000
0000
,
0100
0000
0000
0010
,
0020
0000
0030
0000
,
0100
0000
0100
0100
;

//---------------dance-single - Daff_4K----------------
#NOTEDATA:;
#CHARTNAME:Daff_4K;
#STEPSTYPE:dance-single;
#DESCRIPTION:Daff_4K;
#CHARTSTYLE:;
#DIFFICULTY:Easy;
#METER:4;
#RADARVALUES:0.217419,0.272171,0.044436,0.133308,0.000000,137.000000,133.000000,4.000000,12.000000,0.000000,0.000000,0.000000,0.000000,0.000000,0.217419,0.272171,0.044436,0.133308,0.000000,137.000000,133.000000,4.000000,12.000000,0.000000,0.000000,0.000000,0.000000,0.000000;
#CREDIT:Daff_4K;
#NOTES:
0000
0000
0000
0000
,
0000
0000
0000
0000
,
0000
0000
0000
0000
,
0000
0000
0000
0000
,
0000
0000
0000
0000
,
0000
0000
0000
0000
,
1000
0010
0100
0000
,
0001
0010
0100
0000
,
1000
0100
0010
0000
,
0001
0100
0010
0000
,
1000
0000
0100
0000
,
0001
0100
0100
1000
,
0001
0000
1000
0000
,
0001
0100
0010
1000
,
0001
0000
0100
0000
,
1000
0100
0100
0001
,
1000
0000
0001
0000
,
1000
0100
0010
0001
,
1000
0010
0100
0001
,
2000
0000
3001
0000
,
0001
0010
0100
1000
,
0002
0000
1003
0000
,
1000
0010
0100
0001
,
1000
0000
0001
0010
,
0100
1000
0001
0000
,
1000
1000
0001
0001
,
0200
0000
0310
0000
,
0020
0000
0130
0000
,
0002
0000
1003
0000
,
2000
0000
3001
0000
,
1000
0100
0010
0010
,
0001
0100
0010
0010
,
1000
0100
0010
0001
,
1001
0000
0000
0000
,
1000
0100
0001
0001
,
0001
0100
1000
1000
,
1000
0010
0100
0001
,
0020
0030
0200
0300
,
1000
1000
0001
0001
,
0100
0010
1000
0001
,
2002
0000
0000
3003
,
0000
1000
0001
1000
,
0001
0100
1000
1000
,
1000
0100
0001
0001
,
0001
0010
0100
1000
,
0020
0030
0200
0300
,
0001
0010
0100
1000
,
1001
0000
0000
0000
,
0010
0010
0100
0100
,
1001
0000
0000
0000
;

//---------------dance-single - Daff_4K----------------
#NOTEDATA:;
#CHARTNAME:Daff_4K;
#STEPSTYPE:dance-single;
#DESCRIPTION:Daff_4K;
#CHARTSTYLE:;
#DIFFICULTY:Medium;
#METER:7;
#RADARVALUES:0.350727,0.434362,0.122199,0.222180,0.011109,221.000000,210.000000,11.000000,20.000000,0.000000,0.000000,0.000000,0.000000,0.000000,0.350727,0.434362,0.122199,0.222180,0.011109,221.000000,210.000000,11.000000,20.000000,0.000000,0.000000,0.000000,0.000000,0.000000;
#CREDIT:Daff_4K;
#NOTES:
0000
0000
0000
0000
,
0000
0000
0000
0000
,
0000
0000
0000
0000
,
0000
0000
0000
0000
,
0000
0000
0000
0000
,
0000
0000
0000
0000
,
2000
0010
3100
1000
,
0002
0010
0103
0001
,
2000
0100
3010
1000
,
0002
0100
0013
0001
,
1000
0000
0001
0100
0000
0010
0100
0000
,
0001
1000
0001
1000
0000
0100
0010
0000
,
0001
0000
1000
0010
0000
0100
0010
0000
,
1000
0100
1000
0000
0001
0100
0010
0100
,
0001
0000
1000
0100
0000
0010
0100
0000
,
1000
0001
1000
0001
0000
0100
0010
0000
,
1000
0000
0001
0010
0000
0100
0010
0000
,
0001
0100
0001
0000
1000
0100
0010
0100
,
1000
0000
0001
0100
0000
0010
1000
0000
,
0001
0010
0100
1000
0001
0000
0100
0000
,
0001
0000
1000
0100
0000
0010
0001
0000
,
1000
0010
0100
0001
1000
0000
0100
0000
,
1000
0000
0001
0010
0000
0100
1000
0000
,
0001
0100
0010
0000
1000
0100
0010
0000
,
0001
1000
0010
0100
,
0001
0010
0100
1000
0001
0000
1001
0000
,
2000
0000
0100
0000
,
3200
0000
0010
0000
,
0320
0000
0001
0000
,
0032
0000
1003
0001
,
2000
0010
0100
3001
,
0002
0010
0100
1003
,
0001
0100
0001
0100
0010
1000
0010
1000
,
0002
2000
0000
3003
,
1000
0010
1000
0010
0001
0010
1000
0000
,
0001
0100
0001
0100
1000
0100
0001
0000
,
1000
0100
0010
0000
0001
0100
0010
0000
,
2010
3100
0012
0103
,
1001
0000
1000
0100
0000
0100
0001
0100
,
1000
0000
0001
0100
0010
1000
0001
0000
,
2002
0000
0000
3003
,
0001
1000
0110
1001
,
0001
0010
0001
0010
1000
0010
0001
0000
,
1000
0100
1000
0100
0001
0100
1000
0000
,
0001
0100
0010
0000
1000
0100
0010
0000
,
0012
0103
2010
3100
,
1001
0000
0001
0100
0010
1000
0001
0000
,
2002
0000
0000
3003
,
0010
0000
0000
0010
0000
0000
0100
0000
0000
0100
0000
0000
0001
0000
1000
0000
;

//---------------dance-single - Daff_4K----------------
#NOTEDATA:;
#CHARTNAME:Daff_4K;
#STEPSTYPE:dance-single;
#DESCRIPTION:Daff_4K;
#CHARTSTYLE:;
#DIFFICULTY:Hard;
#METER:11;
#RADARVALUES:0.455470,0.461510,0.133308,0.211071,0.233289,287.000000,275.000000,12.000000,19.000000,0.000000,0.000000,0.000000,0.000000,0.000000,0.455470,0.461510,0.133308,0.211071,0.233289,287.000000,275.000000,12.000000,19.000000,0.000000,0.000000,0.000000,0.000000,0.000000;
#CREDIT:Daff_4K;
#NOTES:
0000
0000
0000
0000
,
0000
0000
0000
0000
,
0000
0000
0000
0000
,
0000
0000
0000
0000
,
0000
0000
0000
0000
,
0000
0000
0000
0000
,
1000
0000
0000
0100
0000
0000
0001
0000
0000
0100
0000
0000
0010
0000
0001
0000
,
1000
0000
0000
0010
0000
0000
0100
0000
0000
0001
0000
0000
1000
0000
1000
0000
,
0001
0000
0000
0100
0000
0000
1000
0000
0000
0100
0000
0000
0010
0000
1000
0000
,
0001
0000
0000
0010
0000
0000
0100
0000
0000
1000
0000
0000
0001
0000
0001
0000
,
1000
0000
0000
0010
0000
0000
0200
0000
0000
0000
0301
0000
1000
0000
0000
0000
,
0001
0010
1000
0020
0000
0130
1000
0000
,
0001
0000
0100
0000
1000
0000
0000
0100
0000
0000
0010
0000
1000
0000
0000
0000
,
0001
0000
1000
0000
0100
0001
0000
0100
0000
0000
1000
0000
0010
0000
0100
0000
,
0001
0000
0000
0010
0000
0000
0200
0000
0000
0000
1300
0000
0001
0000
0000
0000
,
1000
0010
0001
0020
0000
0130
0001
0000
,
1000
0000
0100
0000
0001
0000
0000
0100
0000
0000
0010
0000
0001
0000
0000
0000
,
1000
0000
0000
0001
0000
0100
0010
0000
1000
0000
0001
0000
0010
0000
0100
0000
,
1000
0000
0000
0001
0000
0000
0200
0000
0000
0000
0310
0000
1000
0000
0000
0000
,
0001
0000
0010
0000
0010
0000
1000
0000
0010
0000
0000
0100
0000
0000
1000
0000
,
0001
0000
0000
1000
0000
0000
0200
0000
0000
0000
0310
0000
0001
0000
0000
0000
,
1000
0000
0010
0000
0010
0000
0001
0000
0010
0000
0000
0100
0000
0000
0001
0000
,
1000
0000
0000
0100
0000
0000
0002
0000
0000
0000
0103
0000
0010
0000
0000
0000
,
0001
0100
0010
0020
0000
1030
0100
0010
,
0001
0000
0000
0100
0000
0000
2000
0000
0000
0000
3100
0000
0010
0000
1000
0000
,
0001
0000
0010
0100
0000
0010
0100
0000
1000
0000
0000
0000
1001
0000
0000
0000
,
0001
0000
0000
0100
0000
0000
0010
0000
2000
0000
0000
0000
3001
0000
0000
0000
,
1000
0000
0000
0100
0000
0000
0010
0000
0002
0000
0000
0000
1003
0000
0000
0000
,
0001
0000
0000
1000
0000
0000
0010
0000
0200
0000
0000
0000
0301
0000
1000
0000
,
0100
0000
0000
0010
0000
0000
0001
0000
2000
0000
0000
0000
3001
0000
1000
0000
,
0001
1000
0010
0100
0010
0100
0001
0010
,
0001
0010
0100
1000
0100
1000
0001
0100
,
0010
1000
0100
0010
0001
0001
1000
1000
,
0020
0130
0110
1001
,
1000
0000
0010
0000
0001
0000
0010
0000
1000
0000
0100
0010
0000
0000
0001
0000
,
0100
0000
1000
0000
0100
0000
0001
0000
0010
0000
0100
0010
0000
0000
0100
0000
,
1000
0000
0001
1000
0000
0000
0001
0000
0100
0000
0010
0000
1000
0000
0100
0000
,
0001
0000
0000
0000
0110
0000
0000
0000
1001
0000
0000
1000
0010
0000
0100
0000
,
0002
0000
0013
0100
1000
0010
0100
0001
,
2000
0000
3100
0001
0100
0010
0001
1000
,
0001
0000
0000
0100
0000
0000
1000
0000
0000
0100
0000
0000
0010
0000
1000
0000
,
1100
0011
0110
1001
,
0001
0000
0010
0000
1000
0000
0010
0000
0001
0000
0100
0010
0000
0000
1000
0000
,
0100
0000
0001
0000
0100
0000
1000
0000
0010
0000
0100
0010
0000
0000
0100
0000
,
0001
0000
0000
1000
0001
0000
1000
0000
0100
0000
0010
0000
0001
0000
0100
0000
,
1000
0000
0000
0000
0110
0000
0000
0000
1001
0000
0000
0001
0010
0000
0100
0000
,
2000
0000
3010
0100
0001
0010
0100
1000
,
2002
0000
0000
3003
,
0001
0100
0000
0001
0100
0000
1000
0100
0000
1000
0100
0000
0001
0000
1000
0000
;

//---------------dance-single - 鬼滅のDaff_4K----------------
#NOTEDATA:;
#CHARTNAME:鬼滅のDaff_4K;
#STEPSTYPE:dance-single;
#DESCRIPTION:鬼滅のDaff_4K;
#CHARTSTYLE:;
#DIFFICULTY:Challenge;
#METER:13;
#RADARVALUES:0.655432,0.706742,0.211071,0.199962,0.527678,413.000000,394.000000,19.000000,18.000000,0.000000,0.000000,0.000000,0.000000,0.000000,0.655432,0.706742,0.211071,0.199962,0.527678,413.000000,394.000000,19.000000,18.000000,0.000000,0.000000,0.000000,0.000000,0.000000;
#CREDIT:鬼滅のDaff_4K;
#NOTES:
// measure 0
0000
0000
0000
0000
,  // measure 1
0000
0000
0000
0000
,  // measure 2
0000
0000
0000
0000
,  // measure 3
0000
0000
0000
0000
,  // measure 4
0000
0000
0000
0000
,  // measure 5
0000
0000
0000
0000
,  // measure 6
1000
0000
0010
1000
0010
0000
0100
0000
0001
0100
0001
0000
0010
0100
0010
0000
,  // measure 7
0001
0000
1000
0001
1000
0000
0010
0000
0100
0010
0100
0000
0001
1000
0001
1000
,  // measure 8
0001
0000
0010
0001
0010
0000
0100
0000
1000
0100
1000
0000
0010
0000
0100
0000
,  // measure 9
0101
0000
0000
0011
0000
0000
1100
0000
0000
1010
0000
0000
0010
0100
0010
0100
,  // measure 10
0001
0000
0010
0000
1000
0000
0010
0100
0010
0000
0100
0000
1000
0000
0000
1000
,  // measure 11
0001
0000
0100
0000
0010
0000
0001
0000
0010
1000
0010
1000
0100
0000
0000
0100
,  // measure 12
0010
0000
0001
0000
1000
0000
0010
0100
0000
0010
0001
0000
0010
0000
0000
1000
,  // measure 13
0100
0000
0010
0000
0001
1000
0001
0000
0100
0000
0010
0000
1000
0100
1000
0100
,  // measure 14
1000
0000
0010
0000
0001
0000
0010
0100
0010
0000
0100
0000
0001
0000
0000
0001
,  // measure 15
1000
0000
0100
0000
0010
0000
1000
0000
0010
0001
0010
0001
0100
0000
0000
0100
,  // measure 16
0010
0000
1000
0000
0001
0000
0010
0100
0000
0010
1000
0000
0010
0000
0000
0001
,  // measure 17
0100
0000
0010
0000
1000
0001
1000
0000
0100
0000
0010
0000
0001
0100
0001
0100
,  // measure 18
0010
0000
1000
0000
0100
0000
0010
0100
0010
0000
0001
0000
1000
0000
0000
1000
,  // measure 19
0010
0000
0001
0000
1000
0000
0100
0000
0010
1000
0010
1000
0001
0000
0010
0100
,  // measure 20
0010
0000
0001
0000
0100
0000
0010
0100
0010
0000
1000
0000
0001
0000
0000
0001
,  // measure 21
0010
0000
1000
0000
0001
0000
0100
0000
0010
0001
0010
0001
1000
0000
0010
0100
,  // measure 22
0010
0000
0001
0000
0010
0000
1000
0001
1000
0000
0100
0000
0001
0000
0100
0000
,  // measure 23
0010
0000
1000
0000
0010
0000
0001
1000
0001
0000
0100
0000
1000
0000
0100
0000
,  // measure 24
0010
0000
1000
0000
0001
0000
0010
0100
0010
0000
0100
0000
1000
0000
0001
0000
,  // measure 25
1001
0000
1000
0010
1000
0010
0000
0100
0001
0100
0001
0000
1001
0000
0000
0000
,  // measure 26
1100
0000
0000
0011
0000
0000
0001
0000
0200
0000
0000
0000
0310
0000
0000
0000
,  // measure 27
1001
0000
0000
0011
0000
0000
0100
0000
2000
0000
0000
0000
3010
0000
0100
0000
,  // measure 28
0101
0000
0000
1010
0000
0000
1000
0000
0200
0000
0000
0000
0310
0000
0000
0000
,  // measure 29
1001
0000
0000
1010
0000
0000
0100
0000
0002
0000
0000
0000
0013
0000
0100
0000
,  // measure 30
1000
0000
0010
0000
0001
0000
0010
0000
0100
0000
0010
0000
1000
0000
0001
1000
,  // measure 31
0001
0000
0010
0000
1000
0000
0010
0000
0100
0000
0010
0000
0001
0000
1000
0001
,  // measure 32
1000
1010
0010
0110
0100
0101
0001
1000
,  // measure 33
2002
3003
0200
0300
0020
0030
2002
3003
,  // measure 34
0001
0100
0001
0000
1000
0000
0100
0000
0001
0000
0100
0010
0100
0000
1000
0000
,  // measure 35
0001
0010
0001
0000
1000
0000
0010
0000
0001
0000
0010
0100
0010
0000
1000
0000
,  // measure 36
0001
0000
1000
0100
0001
0000
0100
0000
0010
0000
0001
0000
0100
0000
0010
0000
,  // measure 37
2000
0000
0100
0000
3002
0000
0010
0000
0203
0000
0010
0000
0301
0000
1000
0001
,  // measure 38
1000
0000
0100
0000
0001
0000
0100
0010
0100
0000
1000
0000
0001
0000
0100
0010
,  // measure 39
1000
0000
0100
0000
0001
0000
0100
0010
0100
0000
0001
0000
1000
0000
0001
0000
,  // measure 40
0100
0010
0000
0100
0010
0000
1000
0001
0000
1000
0001
0000
0010
0000
0100
0000
,  // measure 41
1000
0000
0010
0100
0010
0100
0001
1000
0001
1000
0100
0010
0100
0010
0001
0000
,  // measure 42
1000
0100
1000
0000
0001
0000
0100
0000
1000
0000
0100
0010
0100
0000
0001
0000
,  // measure 43
1000
0010
1000
0000
0001
0000
0010
0000
1000
0000
0010
0100
0010
0000
0001
0000
,  // measure 44
1000
0000
0001
0100
1000
0000
0100
0000
0010
0000
1000
0000
0100
0000
0010
0000
,  // measure 45
0002
0000
0100
0000
2003
0000
0010
0000
3200
0000
0010
0000
1300
0000
0001
1000
,  // measure 46
0001
0000
0100
0000
0010
0000
1000
0100
1000
0100
0010
0001
0010
0001
0100
0010
,  // measure 47
0200
0020
0000
0000
0000
0000
0000
0000
0000
0000
0000
0000
0330
0000
0000
0000
,  // measure 48
1000
0100
0000
0001
0100
0000
1000
0010
0000
0001
0010
0000
1000
0001
1000
0001
;
