#TITLE:GETCHA!;
#SUBTITLE:(feat. Hatsune Miku & GUMI);
#ARTIST:Giga & KIRA;
#TITLETRANSLIT:;
#SUBTITLETRANSLIT:;
#ARTISTTRANSLIT:;
#GENRE:VOCALOID;
#CREDIT:;
#BANNER:GETCHA.png;
#BACKGROUND:GETCHA-bg.png;
#LYRICSPATH:;
#CDTITLE:cdtitle.png;
#MUSIC:GETCHA.ogg;
#OFFSET:-1.801884;
#SAMPLESTART:44.960758;
#SAMPLELENGTH:16.363636;
#SELECTABLE:NO;
#DISPLAYBPM:66.000000:132.000000;
#BPMS:0.000000=132.000000
,28.000000=66.000000
,30.000000=132.000000
,62.000000=66.000000
,70.000000=132.000000
,150.000000=198.000000
,150.750000=66.000000
,151.000000=198.000000
,151.750000=66.000000
,152.000000=198.000000
,152.750000=66.000000
,153.000000=132.000000
,185.000000=66.000000
,189.000000=132.000000
;
#STOPS:152.750000=0.455000
;
#BGCHANGES:1.000=GETCHA.avi=1.000=0=0=0=StretchNoLoop==CrossFade_Faster==,
276.750=GETCHA-bg.png=1.000=0=0=0=StretchNoLoop====,
99999=-nosongbg-=1.000=0=0=0 // don't automatically add -songbackground-
;
#KEYSOUNDS:;
#ATTACKS:;

//---------------dance-single - ----------------
#NOTES:
     dance-single:
     :
     Hard:
     13:
     0.517971,0.605522,0.330285,0.337625,0.234869,494.000000,449.000000,45.000000,46.000000,0.000000,0.000000,0.517971,0.605522,0.330285,0.337625,0.234869,494.000000,449.000000,45.000000,46.000000,0.000000,0.000000:
0000
0000
0000
0000
,
0000
0000
0000
0000
,
0000
0000
0000
0000
,
0000
0000
0000
0000
,
1000
0000
0000
0000
0001
0000
0001
0000
0000
1000
0001
0000
0001
0000
0000
0000
,
1000
0000
0100
0000
0001
0000
0100
0010
0000
0001
1000
0000
0010
0000
0000
0000
,
0100
0000
0000
0000
0010
0000
0010
0000
0000
0100
0010
0000
0010
0000
0000
0000
,
2001
0000
0000
0000
0001
0001
0001
3001
1001
0000
0001
0010
0100
0000
0010
0000
,
0001
0000
0001
1000
0000
1000
0010
0000
0001
0000
0010
0000
0100
0000
0010
0000
,
1000
0000
0001
0000
0010
0000
0010
0000
0100
0000
1000
0100
0010
0000
0001
0000
,
1000
0000
1000
0010
0000
0010
0100
0000
0001
0000
0010
0000
0100
0000
0010
0000
,
1000
0000
0010
0000
0001
0000
1000
0000
2100
0000
0000
0001
0000
0000
0010
0000
,
3100
0000
0100
0000
0100
0010
0001
0000
0102
0000
0000
1000
0000
0000
0010
0000
,
0103
0100
0010
1000
0001
0001
0010
0010
,
0100
1000
0100
0010
0001
0100
1000
0001
,
1000
0000
0100
0001
0010
0000
0100
0000
1000
0000
0100
1000
0001
0000
1000
0001
,
0100
0000
0010
0000
1000
0010
0100
0001
1000
0000
0000
0001
1000
0000
0000
0001
,
1000
0000
0100
0000
0010
0000
0001
1000
2020
0000
0000
0000
3030
0000
0000
0000
,
0010
1000
0001
0010
0022
0000
0033
0000
,
0010
0001
1000
0020
0000
0130
0001
1000
,
0200
0000
0310
0001
1000
0000
0001
0000
,
1001
0000
1000
0010
0100
0000
0001
0000
0020
0000
0000
0000
0031
0000
1000
0000
,
0020
0000
1030
0100
0020
0000
1000
0000
,
0100
0000
0031
0000
1000
0100
0001
0100
,
0010
0001
1000
0010
0010
0100
0001
0001
,
1000
0100
0010
0001
0200
0000
0301
1000
,
0200
0000
1300
0001
0200
0000
1000
0000
,
0010
0000
0000
0000
0301
0000
0000
0000
0101
0000
0100
0001
1000
0000
0100
0000
,
1100
1000
0100
0010
0011
0000
1010
0000
,
0011
0000
0001
0010
0100
0000
1000
0000
0010
0000
0000
0000
0010
0000
0000
0000
,
0010
0000
0000
0100
0000
0100
0001
0000
0000
0010
0000
0000
,
0001
0000
0000
1000
0000
0000
0001
0100
0010
1000
0010
0100
,
0001
0000
0001
0010
0000
0010
0100
0000
0000
0010
0000
0000
,
0001
0000
0000
1000
0000
0000
0010
0100
0010
1000
0001
1000
,
0100
0000
0010
0001
0000
1000
0010
0000
0000
0100
0000
0000
,
0001
0000
0000
1000
0000
0000
0001
0010
0100
1000
0100
0010
,
0001
0000
0001
1000
0000
1000
0020
0000
0000
0130
0001
1000
,
0200
0000
0000
0000
0310
0000
0000
0000
0002
0000
0000
0003
0002
0000
0000
0003
,
0002
0000
0000
0003
2002
0000
0000
0000
3003
0000
0001
0000
0010
0000
0100
0000
,
2000
0000
3001
0100
0100
0001
1000
0100
,
0200
0000
0310
0021
0031
0102
1003
2010
,
3100
1200
0310
0110
1001
0001
1000
0001
,
0001
0100
0000
0100
0010
0000
1000
0000
0010
0000
0100
0000
0001
0000
0000
1001
,
0000
0000
0001
0000
0010
0000
0100
0000
1000
0000
0000
1001
0000
0000
0001
0000
,
0001
0000
0000
0000
1001
0000
1000
0000
0100
0000
0010
0000
0001
0000
0000
1001
,
0000
0001
1000
0100
0001
0100
1000
0100
,
0010
0000
0001
0000
0020
0000
0031
1000
0002
0000
1003
0010
2000
0000
3020
0000
,
0130
0110
0001
0100
1000
0100
0001
0100
,
0010
1000
1000
0001
0010
0010
0100
0010
,
0001
0100
0020
0000
1030
0100
0020
0000
,
0031
0100
0020
0000
0001
0000
0100
0000
,
1030
0000
0000
0000
1010
0000
0010
1000
0001
0000
0010
0000
0110
0000
0100
0000
,
1000
0001
0101
0000
1100
0000
0101
0000
,
0100
0001
0020
0000
0130
0100
0010
0001
,
1000
0000
0001
0100
0010
0100
1000
0100
,
0001
1000
0020
0000
0130
0100
0010
1000
,
0001
0000
1000
0100
0010
0100
0001
0100
,
1000
0001
2000
0000
3010
0100
0020
0000
,
0130
0001
2000
0000
3200
0000
0320
0000
,
0031
0000
0000
0000
0101
0000
0100
0001
0010
0000
0100
0000
1100
0000
1000
0000
,
0001
0000
0010
0000
0011
0000
0000
0000
1010
0000
0000
0000
1001
0000
1000
0100
,
0010
0000
0000
0000
0012
0000
0000
1000
0000
0000
0100
0000
0100
0000
0000
1003
,
0000
0000
0000
0000
2010
0000
0000
0100
0000
0000
0001
0000
0001
0000
0000
3010
,
0000
0000
0000
0000
0120
0000
0000
0100
0000
0000
1000
0000
1030
0000
0001
0000
,
0010
0000
0010
0000
0100
0000
1000
0000
0100
0010
0001
0000
1000
0000
0000
0010
,
0000
0100
0110
0000
0010
1000
1001
0000
,
0001
0010
0210
0000
1000
0000
0001
0000
,
0310
0000
0011
0000
0001
1000
1010
0000
,
1000
0001
1001
0000
1001
0000
1001
0000
;

//---------------dance-single - ----------------
#NOTES:
     dance-single:
     :
     Beginner:
     2:
     0.120580,0.227071,0.102755,0.000000,0.000000,115.000000,101.000000,14.000000,0.000000,0.000000,0.000000,0.120580,0.227071,0.102755,0.000000,0.000000,115.000000,101.000000,14.000000,0.000000,0.000000,0.000000:
// measure 0
0000
0000
0000
0000
,  // measure 1
0000
0000
0000
0000
,  // measure 2
0000
0000
0000
0000
,  // measure 3
0000
0000
0000
0000
,  // measure 4
1000
0000
0000
0000
,  // measure 5
0001
0000
0000
0000
,  // measure 6
1000
0000
0000
0000
,  // measure 7
0000
0000
0010
0000
,  // measure 8
0010
0000
0010
0010
,  // measure 9
0010
0000
0100
0000
,  // measure 10
0100
0000
0100
0100
,  // measure 11
0100
0000
0001
0000
,  // measure 12
0000
0000
1000
0000
,  // measure 13
0000
0000
0001
0000
,  // measure 14
1000
0000
0001
0001
,  // measure 15
0001
0000
0001
0000
,  // measure 16
0010
0000
0100
0100
,  // measure 17
0100
1000
0001
0000
,  // measure 18
0000
0000
0100
0000
,  // measure 19
0000
0000
0010
0000
,  // measure 20
0010
0000
0010
0000
,  // measure 21
0000
0000
1000
0000
,  // measure 22
0000
0000
0001
0000
,  // measure 23
0000
0000
1000
0000
,  // measure 24
1000
0000
1000
0000
,  // measure 25
0000
0000
0100
0000
,  // measure 26
0000
0000
0010
0000
,  // measure 27
0000
0000
0100
0000
,  // measure 28
0010
0000
0110
0110
,  // measure 29
0110
0000
0000
0000
,  // measure 30
0000
0000
0001
0000
,  // measure 31
0001
0000
0001
0000
,  // measure 32
0000
0000
1000
0000
,  // measure 33
1000
0000
1000
0000
,  // measure 34
0000
0000
0010
0000
,  // measure 35
0000
0000
0100
0000
,  // measure 36
0000
0000
0010
0000
,  // measure 37
0100
0000
0010
0010
,  // measure 38
0010
0110
0000
0000
,  // measure 39
0000
0000
0000
0000
,  // measure 40
0000
1001
0000
0000
,  // measure 41
0000
0000
0000
0000
,  // measure 42
0000
0110
0000
0000
,  // measure 43
0000
0000
0000
0000
,  // measure 44
0000
1001
0000
0000
,  // measure 45
0000
0000
0000
0000
,  // measure 46
0000
1000
0001
1001
,  // measure 47
0000
1000
0000
1000
,  // measure 48
0000
1000
0000
0000
,  // measure 49
0000
0010
0000
0010
,  // measure 50
0000
0010
0000
0000
,  // measure 51
0000
0100
0000
0100
,  // measure 52
0000
0100
0100
0100
,  // measure 53
0000
0001
0000
0000
,  // measure 54
0000
0001
0000
0000
,  // measure 55
0000
0010
0000
0000
,  // measure 56
0000
0010
0000
0000
,  // measure 57
0000
0100
0000
0100
,  // measure 58
0000
0100
0100
0100
,  // measure 59
0000
1000
0000
0001
,  // measure 60
0000
1001
1001
1001
,  // measure 61
0000
1000
0000
0000
,  // measure 62
0000
1000
0000
0000
,  // measure 63
0000
0001
0000
0000
,  // measure 64
0000
0001
0000
0000
,  // measure 65
0000
1000
0000
1000
,  // measure 66
0000
0001
0000
0001
,  // measure 67
0000
1000
0000
0001
,  // measure 68
0000
1001
1001
1001
;

//---------------dance-single - ----------------
#NOTES:
     dance-single:
     :
     Easy:
     6:
     0.257937,0.353221,0.337625,0.117435,0.000000,246.000000,200.000000,46.000000,16.000000,0.000000,0.000000,0.257937,0.353221,0.337625,0.117435,0.000000,246.000000,200.000000,46.000000,16.000000,0.000000,0.000000:
0000
0000
0000
0000
,
0000
0000
0000
0000
,
0000
0000
0000
0000
,
0000
0000
0000
0000
,
1010
0000
0000
0000
,
0011
0000
0000
0000
,
1001
0000
0000
0000
,
0000
0000
1000
0000
,
0100
0000
0010
0001
,
1000
1000
0001
0000
,
0100
0000
0010
1000
,
0001
0001
0022
0033
,
0001
1000
2020
3030
,
1000
0001
0102
0103
,
2100
3100
1001
1001
,
2002
3003
1000
0000
,
0010
0000
0100
0010
,
0100
0100
0220
0330
,
0010
1000
2002
3003
,
0001
0010
0100
0100
,
0010
0010
0220
0000
,
0330
0010
0010
0000
,
0001
0000
1000
0001
,
1000
1000
0001
0000
,
0100
0000
0010
0100
,
0010
0000
0100
0000
,
0001
0000
1000
0001
,
1000
1000
1100
0000
,
0101
0000
1001
1001
,
1001
0000
0000
0000
,
0000
0000
0001
0001
,
0010
0010
0001
0010
,
0001
0010
0001
0001
,
1000
1000
0001
1000
,
0001
1000
0010
0010
,
1000
1000
0010
1000
,
0010
1000
0100
0100
,
0010
0010
0110
0110
,
0110
1001
0000
0001
,
0000
1000
0100
0010
,
0010
1001
0000
1000
,
0000
0001
0100
0010
,
0010
1010
0010
0001
,
0000
0001
0010
1000
,
0001
0011
0010
1000
,
0000
1000
0010
0001
,
1000
1100
0101
2002
,
0000
3003
1000
0000
0010
0000
1000
0000
,
1000
0010
0100
0001
,
0001
1000
0100
0010
,
0010
0100
0010
0001
,
0001
0101
0000
1100
,
0000
1001
1001
1001
,
0001
0100
0100
0010
,
0010
1000
0010
1000
,
0001
0010
0010
0100
,
0100
0010
0001
1000
,
0010
1010
1000
1001
,
0001
0011
0010
0100
,
1000
1100
0000
0101
,
0000
1001
1001
1001
,
0000
1000
0000
0010
,
0100
0001
0000
0010
,
0100
1000
0000
0100
,
0010
0001
0000
0100
,
0010
1000
0000
0010
,
0000
1000
0000
0001
,
0000
0011
0000
1010
,
0000
1001
1001
1001
;

//---------------dance-single - ----------------
#NOTES:
     dance-single:
     :
     Medium:
     9:
     0.394245,0.504602,0.286247,0.036698,0.066057,376.000000,337.000000,39.000000,5.000000,0.000000,0.000000,0.394245,0.504602,0.286247,0.036698,0.066057,376.000000,337.000000,39.000000,5.000000,0.000000,0.000000:
0000
0000
0000
0000
,
0000
0000
0000
0000
,
0000
0000
0000
0000
,
0000
0000
0000
0000
,
1000
0010
0100
0001
,
1000
0000
0001
0001
0000
1000
1000
0000
,
0001
0010
0100
1000
,
2001
0000
0001
0001
3001
0000
0010
0000
,
0100
0010
0001
0000
0010
0001
1000
0000
,
0001
1000
0010
0000
1000
0000
0010
0000
,
0100
0010
1000
0000
0010
1000
0001
0000
,
1000
0100
0010
0000
0001
0000
0010
0000
,
0001
0010
0001
1000
0010
0000
1000
0000
,
0010
1000
0001
1000
0100
0010
0100
0000
,
1000
0001
1000
0000
1100
0000
0101
0000
,
1100
1001
0001
0100
,
0010
0000
1000
0000
0010
0100
0001
1000
0100
0000
0000
0010
0100
0000
0000
0010
,
0100
0010
0001
1000
2020
0000
3030
0000
,
1000
0010
1000
0000
2002
0000
3003
0000
,
0001
1000
0001
0010
0000
0010
0100
0000
,
0100
1000
1000
0010
,
0100
0000
0001
0100
0001
0000
1000
0010
,
1000
0000
0001
1000
0001
0000
0010
0000
,
1000
0010
0001
0100
,
0010
0010
0010
0000
1000
0000
0100
0000
,
0010
0100
1000
1000
0001
0010
0001
0000
,
1000
0100
1000
0000
0001
0000
0100
0000
,
1000
0000
0100
0000
0001
0100
0010
0000
,
1000
0100
0010
0000
0011
0000
1010
0000
,
0011
1001
1000
1000
,
1000
0000
0000
0001
0000
0001
1000
0000
0000
0010
0000
0000
,
0100
0000
0000
0001
0000
0000
0100
0000
0100
0010
0000
0010
,
1000
0000
1000
0001
0000
0001
1000
0000
0000
0100
0000
0000
,
0010
0000
0000
0001
0000
0000
0010
0000
0010
0100
0000
0100
,
1000
0000
1000
0001
0000
0001
0010
0000
0000
0001
0000
0000
,
1000
0000
0000
0001
0000
0000
1000
0000
1000
0010
0000
0010
,
0100
0000
0100
0001
0000
0000
1000
0000
0000
1000
0000
0000
,
0001
0001
1001
1001
,
1001
0000
1001
0000
0000
0001
0010
0000
,
0100
0010
0001
1000
,
0010
0000
0110
0000
0000
0100
0010
0000
,
1000
0000
0001
1000
0001
0000
0010
0100
,
0010
0000
0001
0010
0100
1000
0001
0000
,
0000
0000
0001
0010
0100
1000
0001
1000
,
0001
0000
1000
0010
0100
0001
1000
0000
,
0000
0000
1000
0010
0100
0001
1000
0001
,
1000
0000
0100
0000
0010
0000
0001
0010
0100
0000
1000
0100
0010
0000
0001
0000
,
1000
1001
1000
0000
0100
0000
0010
0010
,
0010
0000
0001
0000
0100
0000
0010
0100
,
0001
1000
0100
0010
0100
0000
1000
0001
,
1000
0001
0100
0010
,
1000
0000
0001
0010
1000
0000
1000
0010
,
0001
0011
0110
1100
,
1001
0001
0100
0010
,
1000
0000
0001
0100
0010
1000
0001
0000
,
1001
1000
0100
0010
,
0001
0000
1000
0100
0010
0001
1000
0000
,
1001
0000
0001
0100
1000
0000
1000
0100
,
0001
1000
0010
0100
,
0001
0000
0010
0100
1000
0000
0010
0100
,
0001
0101
0110
1010
,
1001
0000
0011
0000
0000
0010
0001
0000
,
1000
0000
1010
0000
0000
1000
0010
0000
,
1000
0000
1001
0000
0000
0001
0010
0000
,
0100
0000
0110
0000
0000
0010
0001
0000
,
1000
1010
0010
0110
,
0100
0101
0001
0100
,
0010
1010
1000
0011
,
0001
1001
1001
1001
;
