#TITLE:Duality;
#SUBTITLE:;
#ARTIST:Paul van Dyk;
#TITLETRANSLIT:;
#SUBTITLETRANSLIT:;
#ARTISTTRANSLIT:;
#GENRE:;
#CREDIT:;
#BANNER:Duality.png;
#BACKGROUND:Duality-bg.png;
#LYRICSPATH:;
#CDTITLE:;
#MUSIC:Duality.ogg;
#OFFSET:0.000000;
#SAMPLESTART:58.226002;
#SAMPLELENGTH:15.284999;
#SELECTABLE:YES;
#BPMS:0.000000=136.000000
;
#STOPS:
;
#BGCHANGES:;
#KEYSOUNDS:;
#ATTACKS:;

//---------------dance-single - ----------------
#NOTES:
     dance-single:
     :
     Hard:
     12:
     0.449185,0.565124,0.037769,0.037769,0.339924,333.000000,329.000000,4.000000,4.000000,0.000000,0.000000,0.449185,0.565124,0.037769,0.037769,0.339924,333.000000,329.000000,4.000000,4.000000,0.000000,0.000000:
// measure 0
0000
0000
0000
0000
,  // measure 1
0000
0000
0000
0000
,  // measure 2
0000
0000
0000
0000
,  // measure 3
0000
0000
0000
0000
,  // measure 4
0000
0000
0000
0000
,  // measure 5
1000
0010
0100
0000
0010
0000
0000
0000
,  // measure 6
0100
0001
0010
0000
0001
0000
0000
0000
,  // measure 7
0010
0100
1000
0000
0010
0000
0000
0000
,  // measure 8
1000
0001
0010
0000
0001
0000
0000
0000
,  // measure 9
1000
0010
1000
0010
1000
1000
0001
0000
,  // measure 10
0010
0100
0010
0100
0010
0010
0001
0000
,  // measure 11
1000
0010
0100
0001
0010
0010
0001
0000
,  // measure 12
0001
1000
0100
0010
0001
0001
1000
0000
,  // measure 13
1000
0010
0100
0010
1000
1000
0100
0000
,  // measure 14
0010
0001
0100
0001
0010
0010
0001
0000
,  // measure 15
1000
0100
1000
0010
1000
1000
0100
0000
,  // measure 16
1000
0000
1000
0000
0001
0000
0000
0000
0001
0000
0000
0000
0010
0001
0010
0000
,  // measure 17
0200
1000
0000
1000
,  // measure 18
0000
0010
0000
0010
,  // measure 19
0000
0001
0000
0001
,  // measure 20
0000
1000
0000
1300
,  // measure 21
0010
0100
0001
0000
0001
0000
0000
0000
,  // measure 22
0010
0100
1000
0000
1000
0000
0000
0000
,  // measure 23
0010
1000
0001
0000
1000
0000
0000
0000
,  // measure 24
0220
0000
0000
0330
,  // measure 25
1002
0000
0000
0000
0000
0000
0000
0000
0100
0000
0000
0100
0000
0000
0100
0000
,  // measure 26
1000
0000
0000
1000
0000
0000
1000
0000
0100
0000
0000
0100
0000
0000
0103
0000
,  // measure 27
0000
0000
0010
0000
0000
0000
1000
0000
0100
0000
0000
0100
0000
0000
0100
0000
,  // measure 28
1000
0000
0000
1000
0000
0000
1000
0000
0001
0000
0000
0001
0000
0000
0001
0000
,  // measure 29
0000
0000
0100
0000
0000
0000
0010
0000
1000
0000
0000
0100
0000
0000
0100
0000
,  // measure 30
0010
0000
0000
0001
0000
0000
0001
0000
0001
0000
0000
1000
0000
0000
1000
0000
,  // measure 31
0000
0000
0001
0000
0000
0000
0001
0000
1000
0000
0000
0100
0000
0000
0100
0000
,  // measure 32
1000
0000
0001
1000
0000
0000
0001
0000
1000
0000
0100
0010
0000
0000
0001
0000
,  // measure 33
0011
0000
0001
0000
0100
0000
0001
0000
0010
0000
0010
0100
0000
0100
0010
0000
,  // measure 34
0001
0000
0001
1000
0000
1000
0100
0000
0010
0000
0010
0001
0000
0001
1000
0000
,  // measure 35
0010
0000
0010
0000
0000
0000
0010
0000
0010
0000
1000
0010
0000
0010
1000
0000
,  // measure 36
0001
0000
1000
0010
0000
0100
0001
0000
0010
0000
0010
0100
0000
0010
0001
0000
,  // measure 37
1000
0000
0001
0000
1000
0000
0010
0000
0010
0000
0100
0010
0000
0010
0100
0000
,  // measure 38
0100
0000
0001
0100
0000
0001
1000
0000
0100
0000
0000
1000
0000
0000
0001
0000
,  // measure 39
0001
0000
0010
0000
0000
0000
0010
0000
0100
0000
1000
0010
0000
0100
0010
0000
,  // measure 40
0100
0000
0100
0001
0000
0010
0001
0000
0010
0000
0010
0100
0000
0100
0010
0000
,  // measure 41
0001
0000
1000
0000
0001
0000
1000
0000
0010
0000
0010
0100
0000
0100
0010
0000
,  // measure 42
0010
0000
0010
1000
0000
1000
0100
0000
1000
0000
1000
0001
0000
0001
1000
0000
,  // measure 43
0001
0000
0100
0000
0000
0000
0010
0000
0010
0000
0010
1000
0000
0010
1000
0000
,  // measure 44
0100
0000
0100
1000
0000
0100
1000
0000
0001
0000
0001
1000
0000
1000
0001
0000
,  // measure 45
0100
0000
0001
0000
0000
0000
0010
0000
0001
0000
0100
0001
0000
0010
0001
0000
,  // measure 46
1000
0000
0100
1000
0000
0100
1000
0000
0010
0000
0100
0001
0000
0010
0001
0000
,  // measure 47
1000
0000
0001
0000
0000
0000
1000
0000
1000
0000
0001
1000
0000
1000
0001
0000
,  // measure 48
0100
0000
0100
0010
0000
0010
0100
0000
0100
0000
0100
0001
0000
0001
0010
0000
,  // measure 49
0000
0000
0100
0000
0000
0000
0100
0000
0100
0000
0000
1000
0000
0000
0001
0000
,  // measure 50
0001
0000
0000
1000
0000
0000
0001
0000
0001
0000
0000
1000
0000
0000
1000
0000
,  // measure 51
0000
0000
0010
0000
0000
0000
0100
0000
0010
0000
0000
0010
0000
0000
0010
0000
,  // measure 52
1000
0000
0000
1000
0000
0000
1000
0000
0001
0000
0000
0001
0000
0000
1000
0000
,  // measure 53
0000
0000
0100
0000
0000
0000
1000
0000
0001
0000
0000
0001
0000
0000
0001
0000
,  // measure 54
0100
0000
0000
0100
0000
0000
0100
0000
0010
0000
0000
0100
0000
0000
0100
0000
,  // measure 55
0000
0000
0001
0000
0000
0000
1000
0000
1000
0000
0000
0100
0000
0000
1000
0000
,  // measure 56
1000
0000
0000
0001
0000
0000
1000
0000
0100
0000
0000
0001
0000
0000
0010
0000
,  // measure 57
0110
0000
0000
0000
;

//---------------dance-single - ----------------
#NOTES:
     dance-single:
     :
     Medium:
     9:
     0.341273,0.403660,0.018885,0.113308,0.056654,253.000000,251.000000,2.000000,12.000000,0.000000,0.000000,0.341273,0.403660,0.018885,0.113308,0.056654,253.000000,251.000000,2.000000,12.000000,0.000000,0.000000:
0000
0000
0000
0000
,
0000
0000
0000
0000
,
0000
0000
0000
0000
,
0000
0000
0000
0000
,
0000
0000
0000
0000
,
1000
0010
0100
0000
0010
0000
0000
0000
,
0010
0100
0001
0000
0010
0000
0000
0000
,
0010
0100
1000
0000
0010
0000
0000
0000
,
0100
0001
0010
0000
0010
0000
0001
0000
,
1000
0100
1000
0000
0010
0000
0010
0000
,
0010
0100
0001
0000
0010
0000
0100
0000
,
1000
0001
0100
0000
0001
0000
0010
0000
,
0010
0100
1000
0000
0001
0000
1000
0000
,
0010
0100
0001
0000
0010
0000
0100
0000
,
1000
0010
0100
0000
0010
0000
1000
0000
,
0001
1000
0010
0010
,
1000
1000
0001
0000
0100
0000
0010
0010
,
2000
0100
0000
0100
,
0000
0010
0000
0010
,
0000
0001
0000
0001
,
0000
0100
0000
3100
,
0020
0000
0130
0000
,
0200
0000
1300
0000
,
0002
0000
1003
0000
,
2000
0000
3010
0000
,
0120
0000
0000
0000
0000
0000
0000
0000
0100
0000
0000
0100
0000
0000
0000
0000
,
0001
0000
0000
0001
0000
0000
0000
0000
1000
0000
0000
1000
0030
0000
0000
0000
,
0000
0000
0200
0000
0000
0000
0000
0000
1000
0000
0000
1000
0000
0000
0000
0000
,
0010
0000
0000
0010
0000
0000
0000
0000
1000
0000
0000
1000
0300
0000
0000
0000
,
0000
0000
0002
0000
0000
0000
0000
0000
1000
0000
0000
1000
0000
0000
0000
0000
,
0100
0000
0000
0100
0000
0000
0000
0000
1000
0000
0000
1000
0003
0000
0000
0000
,
0000
0000
0200
0000
0000
0000
0000
0000
1000
0000
0000
1000
0000
0000
0000
0000
,
0001
0000
0000
0001
0000
0000
0000
0000
0010
0000
0000
0010
0300
0000
0000
0000
,
0010
0001
1000
0000
0001
0001
1000
0000
,
0001
0001
1000
0000
0001
0001
1000
0001
,
0000
1000
0100
1000
0010
0010
0100
0000
,
0100
0100
0010
0000
0010
0010
0100
0010
,
0000
0100
0001
0010
0001
0001
0010
0000
,
0001
0001
0010
0000
0001
0001
0010
0001
,
0000
1000
0010
0100
0010
0010
1000
0000
,
1000
1000
0010
0000
0010
0010
1000
0001
,
1000
0100
1000
0010
0100
0100
0001
0000
,
0100
0100
0001
0000
0100
0100
0001
1000
,
0100
1000
0010
0100
0001
0001
0010
0000
,
0100
0100
1000
0000
0001
0001
0100
0100
,
0001
0010
0001
0100
0010
0010
1000
0000
,
1000
1000
0001
0000
1000
1000
0001
0001
,
0010
0001
0100
0010
1000
1000
0100
0000
,
1000
1000
0001
0000
1000
1000
0010
0010
,
0200
0010
1000
0301
,
0001
1000
0100
0000
0001
1000
0100
1000
,
0000
0010
0000
0000
0100
0000
0100
0000
,
0001
0010
0100
0000
1000
0010
0100
0001
,
0020
0100
0001
1030
,
1000
0001
0010
0000
1000
0001
0010
0001
,
0100
0010
0000
0100
0100
0000
0010
0000
,
2000
0000
0001
3001
,
1001
0000
0000
0000
;

//---------------dance-single - ----------------
#NOTES:
     dance-single:
     :
     Easy:
     5:
     0.232012,0.242196,0.009442,0.066096,0.000000,172.000000,171.000000,1.000000,7.000000,0.000000,0.000000,0.232012,0.242196,0.009442,0.066096,0.000000,172.000000,171.000000,1.000000,7.000000,0.000000,0.000000:
0000
0000
0000
0000
,
0000
0000
0000
0000
,
0000
0000
0000
0000
,
0000
0000
0000
0000
,
0000
0000
0000
0000
,
1000
0100
1000
0000
,
0010
0100
0001
0000
,
0010
0001
0100
0000
,
0001
0010
0100
0000
,
1000
0001
1000
1000
,
0010
0100
0001
0001
,
0010
0100
1000
1000
,
0001
0100
0001
0001
,
0010
0100
0010
0010
,
0001
1000
0001
0001
,
0100
0010
1000
1000
,
0100
0010
0001
1000
,
0002
0100
0000
0010
,
0000
1000
0000
0100
,
0000
0100
0000
1000
,
0000
0010
0000
0103
,
0100
0010
0100
0000
,
0010
1000
0100
0000
,
1000
0001
0100
0000
,
0001
0010
0100
0000
,
0020
0000
0001
0000
,
1000
0000
0031
0000
,
0200
0000
0001
0000
,
1000
0000
0301
0000
,
0100
0100
0010
0000
,
0010
0010
1000
0000
,
0100
1000
0001
0000
,
0001
1000
0001
0001
,
0010
0100
0010
0010
,
0001
1000
0100
1000
,
0010
0010
0100
0100
,
0001
0001
1000
1000
,
0100
1000
0001
0001
,
1000
1000
0001
1000
,
0010
0100
0001
0001
,
0010
0100
1000
0001
,
1000
0100
0010
0010
,
0001
1000
0010
0100
,
0100
0001
0010
0010
,
0001
0001
1000
0001
,
1000
0010
0100
0001
,
0010
0010
0100
0010
,
0001
1000
0010
0010
,
1000
1000
0010
0010
,
2000
0000
3010
0000
,
0200
0000
0301
0000
,
0002
0000
0013
0000
,
0200
0000
1300
0000
,
0001
0001
1000
0000
,
1000
1000
0100
0000
,
0010
0001
1000
0000
,
0010
0100
0001
0000
,
1001
0000
0000
0000
;

//---------------dance-single - ----------------
#NOTES:
     dance-single:
     :
     Beginner:
     3:
     0.134891,0.188375,0.028327,0.000000,0.000000,100.000000,97.000000,3.000000,0.000000,0.000000,0.000000,0.134891,0.188375,0.028327,0.000000,0.000000,100.000000,97.000000,3.000000,0.000000,0.000000,0.000000:
0000
0000
0000
0000
,
0000
0000
0000
0000
,
0000
0000
0000
0000
,
0000
0000
0000
0000
,
0000
0000
0000
0000
,
1000
0000
0000
0000
,
0100
0000
0000
0000
,
0010
0000
0000
0000
,
0001
0000
0000
0000
,
1000
1000
1000
0000
,
0001
0001
0001
0000
,
1000
0000
0100
0000
,
0010
0010
0010
0000
,
0001
0001
0001
0000
,
1000
1000
1000
0000
,
0001
0000
0100
0000
,
0010
0010
0010
0000
,
1001
0000
0000
0000
,
0000
0000
0000
0000
,
0000
0000
0000
0000
,
0000
0000
0000
0000
,
1000
0000
0000
0000
,
0001
0000
0000
0000
,
0010
0000
0000
0000
,
0100
0000
0000
0000
,
1001
0000
0000
0000
,
0000
0000
0000
0000
,
0100
0000
0000
0000
,
0010
0000
0000
0000
,
0100
0000
0000
0000
,
0001
0000
0000
0000
,
1000
0000
0000
0000
,
0100
0000
0000
0000
,
1000
1000
1000
0000
,
0010
0000
0010
0000
,
0100
0000
0100
0000
,
0001
0001
0001
0000
,
1000
0000
0100
0000
,
1000
1000
1000
0000
,
0010
0000
0100
0000
,
0001
0001
0001
0000
,
0010
0010
0010
0000
,
0100
0000
1000
0000
,
0001
0001
0001
0000
,
1000
1000
1000
0000
,
0100
0000
0010
0000
,
0100
0100
0010
0000
,
0001
0000
1000
0000
,
0001
0000
1000
0000
,
0010
0000
0100
0000
,
0010
0000
0010
0000
,
1000
0000
0001
0000
,
1000
0000
1000
0000
,
0010
0010
0010
0000
,
0100
0100
0100
0000
,
0001
0000
0010
0000
,
0100
0000
1000
0000
,
0110
0000
0000
0000
;
