#TITLE:Cold Pulse;
#SUBTITLE:;
#ARTIST:Quadra with DJ FX;
#TITLETRANSLIT:;
#SUBTITLETRANSLIT:;
#ARTISTTRANSLIT:;
#GENRE:;
#CREDIT:;
#MUSIC:Cold Pulse.ogg;
#BANNER:Cold Pulse.png;
#BACKGROUND:Cold Pulse-bg.png;
#CDTITLE:;
#SAMPLESTART:27.159;
#SAMPLELENGTH:15.000;
#SELECTABLE:YES;
#OFFSET:1.364;
#BPMS:0.000=143.000;
#STOPS:;
#BGCHANGES:;
#FGCHANGES:;

//--------------- dance-single - forcednature ----------------
#NOTES:
     dance-single:
     forcednature:
     Beginner:
     3:
     0,0,0,0,0:
0000
0000
0000
0000
,
0000
0000
0000
0000
,
0000
0000
0000
0000
,
0000
0000
0000
0000
,
0000
0000
0000
0000
,
0000
0000
0000
0000
,
0000
0000
0000
0000
,
2002
0000
0000
0000
,
0000
0000
3003
0000
,
1000
0000
0000
0000
,
0001
0000
0000
0000
,
0100
0000
0000
0000
,
0010
0000
0000
0000
,
1000
0000
0001
0000
,
1000
0000
0000
0000
,
0001
0000
0100
0000
,
0001
0000
0000
0000
,
0010
0000
0000
0000
,
0100
0000
0000
0000
,
1000
0000
0000
0000
,
0001
0000
0000
0000
,
0100
0000
0000
0000
,
0010
0000
0000
0000
,
0100
0000
0000
0000
,
0010
0000
0010
0000
,
2000
0000
0000
3000
,
0002
0000
0000
0003
,
0200
0000
0000
0300
,
0020
0000
0000
0030
,
2000
0000
0000
3000
,
0200
0000
0000
0300
,
0020
0000
0000
0030
,
0002
0000
0000
0003
,
0000
0100
0000
0100
,
0000
0010
0000
0010
,
0000
1000
0000
1000
,
0000
0001
0000
0001
,
0000
0100
0000
0001
,
0000
1000
0000
0010
,
0000
1000
0000
0100
,
0000
0010
0010
0010
,
0000
0002
0000
1000
,
0000
1000
0000
0003
,
0000
2000
0000
0001
,
0000
0001
0000
3000
,
2002
0000
0000
0000
,
0000
0000
3003
0000
,
2002
0000
3003
0000
,
2002
0000
3003
0000
,
1000
0000
0001
0000
,
0100
0000
0001
0000
,
1000
0000
0010
0000
,
1000
0000
0001
0000
,
0010
0000
0100
0000
,
1000
0000
0001
0000
,
0010
0000
0001
0000
,
1000
0000
0010
0000
;

//--------------- dance-single - forcednature ----------------
#NOTES:
     dance-single:
     forcednature:
     Easy:
     6:
     0,0,0,0,0:
0000
0000
0000
0000
,
0000
0000
0000
0000
,
0000
0000
0000
0000
,
0000
0000
0000
0000
,
0000
0000
0000
0000
,
0000
0002
0000
0000
0000
0000
0003
0000
,
0000
2000
0000
0000
0000
3000
0000
0000
,
1001
1000
0001
1000
,
0001
1000
0001
1000
,
1002
0100
0103
0000
,
0020
0001
0031
0000
,
2000
0010
3010
0000
,
0002
1000
1003
0000
,
2000
0100
3001
1000
,
0002
0010
1003
0001
,
0200
0010
0301
0100
,
0220
0000
0000
0000
0000
0330
0000
0000
,
2001
0000
3002
1000
,
0203
0000
0320
0100
,
2030
0000
3200
1000
,
0320
0000
0032
0013
,
1000
0001
1000
0001
,
1000
0001
1000
0001
,
0010
0100
0010
0100
,
0010
0100
2002
3003
,
1002
0000
0023
0001
,
0230
0010
2300
0100
,
3020
0000
0230
0010
,
0302
0100
2003
0001
,
3200
0000
0010
0010
,
0320
0000
0001
0001
,
0032
0000
1000
1000
,
2003
0100
0001
3010
,
1000
0000
0000
0000
0001
0000
0001
0100
,
0001
0000
0000
0000
0010
0000
1000
0100
,
1000
0000
0000
0000
0010
0000
0010
0001
,
0010
0000
0000
0000
1000
0000
1000
0100
,
1000
0000
0000
0000
0010
0000
1000
0100
,
1000
0000
0000
0000
1000
0000
0001
0010
,
0001
0000
0000
0000
0100
0000
0010
1000
,
0010
0010
0010
0010
,
1001
0000
0001
0001
,
0001
0000
1000
1000
,
1000
0000
0100
0100
,
0100
0000
0010
0010
,
1001
0001
1000
0001
,
1000
0110
0001
1001
,
0010
0100
0010
0100
,
1001
0110
2002
3003
,
2000
0010
0001
3010
,
0002
0100
1000
0013
,
0200
0010
0010
0310
,
0020
0100
0100
0130
,
2000
0100
0001
3010
,
0002
0010
1000
0103
,
2000
0001
0100
3001
,
1000
0001
1000
0000
0010
0000
0100
0000
;

//--------------- dance-single - forcednature ----------------
#NOTES:
     dance-single:
     forcednature:
     Medium:
     8:
     0,0,0,0,0:
0000
0000
0000
0000
,
0000
0000
0000
0000
,
0000
0000
0000
0000
,
0000
0000
0000
0000
,
0000
0000
0000
0000
0000
0000
0000
0001
,
0001
1000
0000
0001
0000
0100
0000
0010
,
0010
1000
0000
0100
0000
0010
0000
0001
,
2000
0001
0001
0001
,
0001
0000
0001
0000
0001
0000
0002
3003
,
1001
0000
0001
0000
0100
0000
0010
1000
,
0010
0000
1000
0000
0001
0000
0010
0100
,
1000
0000
0001
0000
0100
0000
0001
0010
,
0001
0000
1000
0000
0010
0000
1000
0001
,
0100
0000
0000
0000
0001
0000
2000
0000
0000
3000
0000
0000
0100
0000
0010
0000
,
0001
0000
0000
0000
0100
0000
0020
0000
0000
0030
0000
0000
1000
0000
0001
0000
,
1000
0000
0000
0000
0001
0000
0200
0000
0000
0300
0000
0000
0010
0000
1000
0000
,
0010
0000
0100
0000
0001
0000
0020
0000
0100
0030
0010
0000
0001
0000
0000
0000
,
0101
1000
0010
0001
,
0010
0100
0001
0010
,
0100
1000
0010
0100
,
0010
1000
0100
0010
,
1002
1000
1000
1000
,
1000
0000
1000
0000
1000
0000
2000
0003
,
0001
0001
0001
0001
,
0001
0000
0001
0000
0002
0000
0000
3003
,
1001
0001
0100
0010
,
1100
0010
0100
0001
,
0110
1000
0001
1000
,
2002
3003
0000
0220
0330
0000
2002
3003
,
1001
0001
0100
0001
,
0010
0100
1000
0001
,
1000
0000
0010
0000
0100
0000
0001
0010
,
0001
0000
1000
0001
1000
0100
1000
0001
,
0010
0000
0100
0000
1000
0000
0001
0100
,
0001
0000
0000
0000
1000
0000
0010
0000
1000
0000
0000
0000
0001
0000
0000
1000
,
0001
0000
0100
0000
0010
0000
1000
0100
,
1000
0000
0000
0000
0001
0000
0010
0000
0001
0000
0000
0000
1000
0000
0000
0001
,
0100
0000
0010
0000
1000
0000
0001
0010
,
0001
0000
0000
0000
0100
0000
0000
0000
0010
0000
0000
0000
1000
0000
0000
0001
,
1000
0000
0100
0000
0010
0000
0001
0100
,
0001
1000
0010
1000
0001
0100
0001
0000
,
1001
0000
0002
0000
2003
0000
3200
0300
,
0000
0000
0020
0000
0032
0000
0203
0300
,
0000
0000
0020
0000
2030
0000
3002
0003
,
0000
0000
0200
0000
0302
0000
2003
3000
,
2002
0003
0001
0000
0001
0000
0001
0000
,
0001
3000
2002
3000
1000
0003
2002
0003
,
0001
0000
0002
0003
0001
0000
3001
0000
,
1001
0000
1001
0000
2002
0000
0000
3003
,
1001
0000
1100
0000
0100
0100
0010
0000
,
0001
0000
1010
0000
0100
0000
0001
0100
,
0010
0000
1100
0000
1000
1000
0010
0000
,
1000
0000
0011
0000
0001
1000
1000
0000
,
0001
0000
0101
0000
1000
0000
0010
0010
,
0010
0000
1001
0000
1000
0001
0001
0000
,
0010
0011
0100
1100
,
0001
0000
1000
0000
1000
0000
0000
0000
0001
0000
0000
0100
0000
0000
0010
0000
;

//--------------- dance-single - forcednature ----------------
#NOTES:
     dance-single:
     forcednature:
     Hard:
     11:
     0,0,0,0,0:
0000
0000
0000
0000
,
0000
0000
0000
0000
,
0000
0000
0000
0000
,
0000
0000
0000
0000
,
0000
0000
0000
0000
0000
0000
0000
1000
,
1000
0001
0000
0010
0000
0100
0000
0010
,
0010
0001
0000
0100
0000
0010
0000
1000
,
0001
1000
0001
1000
0001
1000
0001
1000
0001
1000
0001
1000
,
0001
1000
0001
1000
0001
1000
0001
1000
0001
2000
0000
0000
,
3010
0000
1000
0000
0001
0000
0100
0001
,
0010
0000
0100
0000
1000
0000
0010
1000
,
0001
0000
0100
0000
0001
0000
1000
0100
,
0010
0000
0001
0000
1000
0000
0001
0100
,
0001
0000
1000
0200
0010
0300
0100
1000
,
0010
0000
0100
0002
0010
0003
0001
1000
,
0010
0000
1000
0020
0100
0030
0010
1000
,
0100
0000
0010
0000
0001
0000
0000
1000
0100
0000
1000
0000
0001
0000
0100
0000
,
0002
0010
0203
0301
,
2000
0000
0100
0000
3002
0000
1003
1000
,
0002
1000
0023
0031
,
2000
0000
0010
0000
3200
0000
1300
1000
,
0001
1000
0001
1000
0001
1000
0001
1000
0001
1000
0001
1000
,
0001
1000
0001
1000
0001
1000
0001
1000
0001
2000
0000
0000
,
3100
0010
0100
0010
0100
0010
0100
0010
0100
0010
0100
0010
,
0100
0000
0010
0000
0100
0000
0010
0000
0100
0000
0010
0000
0200
0000
0000
0000
0000
0000
0000
0000
0000
0300
0000
0000
,
0110
0000
0001
0000
1000
0000
0100
0010
,
0011
0000
0001
0000
1000
0000
0010
0100
,
0101
0000
0001
0000
1000
0000
0100
0100
,
1001
0000
1000
0001
0000
0000
0011
0000
,
1100
0000
0010
0000
1000
0001
0100
0010
,
1000
0000
0100
0000
0010
0001
0010
0100
,
1000
0000
0001
0000
0100
0001
1000
1000
,
0010
0100
0001
1001
0000
0110
0000
1001
,
1000
0000
0000
0000
0001
0000
0100
0000
0001
0000
1000
0010
0000
0000
1000
0000
,
0000
0000
0000
0000
0001
0000
0010
0000
0100
0000
1000
0100
0000
0000
0010
0001
,
0010
0000
0000
0000
0001
0000
1000
0000
0010
0000
1000
0001
0000
0000
0010
0000
,
0000
0000
0000
0000
0100
0000
1000
0000
0001
0000
1000
0010
0000
0000
1000
0001
,
1000
0000
0000
0000
0100
0000
1000
0000
0010
0000
0100
0001
0000
0000
1000
0000
,
0010
0000
0000
0000
1000
0000
0001
0000
0010
0000
0001
1000
0000
0000
0010
0100
,
0001
0000
0000
0000
1000
0000
0100
0000
1000
0000
0010
0100
0000
0000
0001
0000
,
0010
0000
0001
0000
1000
0000
0010
0000
0100
0000
0001
0100
0000
0000
0001
0000
,
1001
0000
0000
0000
1000
0000
0100
0000
1000
0000
0100
0010
0000
0000
0001
0000
,
0000
0000
0000
0000
0001
0000
0100
0000
0001
0000
0100
0010
0000
0000
1000
0000
,
0000
0000
0000
0000
1000
0000
0010
0000
1000
0000
0010
0100
0000
0000
0001
0000
,
0000
0000
0000
0000
0001
0000
0010
0000
0001
0000
0010
0100
0000
0000
1000
0000
,
0002
0000
0000
0013
0100
1000
0001
1000
0001
1000
0001
1000
,
0001
1000
0001
2000
0000
0000
3010
0100
0001
2000
0000
0000
,
3100
0000
0020
0000
0031
1000
0100
1000
0001
0100
0000
0000
,
0010
0000
0000
0000
0000
0000
0000
0000
0000
0000
0000
0000
0000
0000
0000
0000
0100
0000
0000
0000
0000
0000
0000
0000
0000
0000
0000
0000
0000
0000
0000
0000
0010
0000
0000
0000
0000
0000
0000
0000
0000
0000
0000
0000
0000
0000
0000
0000
0220
0000
0000
0000
0000
0000
0000
0000
0000
0000
0000
0000
0000
0000
0000
0000
0000
0000
0000
0000
0000
0000
0000
0000
0000
0000
0000
0000
0000
0330
0000
0000
0000
0000
0000
0000
0000
0000
0000
0000
0000
0000
0000
0000
0000
0000
0000
0000
,
1001
0000
0000
1000
0001
0000
0100
0000
0001
0000
1000
0000
0010
0000
0100
0000
,
0001
0000
0000
0010
0100
0000
1000
0000
0100
0000
0010
0000
0001
0000
0100
0000
,
0010
0000
0000
1000
0010
0000
1000
0000
0001
0000
1000
0000
0100
0000
0010
0000
,
0001
0000
0000
0100
0010
0000
1000
0000
0001
0000
0100
0000
0101
0000
0000
0000
,
1000
0000
0000
0001
0010
0000
0001
0000
0100
0000
0010
0000
1000
0000
0010
0000
,
0100
0000
0000
0001
0010
0000
0100
0000
1000
0000
0100
0000
0110
0000
0000
0000
,
1000
0000
0000
0001
0010
0000
0001
0000
1000
0000
0010
0000
0100
0000
0001
0000
,
1000
0000
0100
0000
0010
0000
0001
1000
0001
0000
0000
0100
0000
0000
0010
0000
;

//--------------- dance-double - forcednature ----------------
#NOTES:
     dance-double:
     forcednature:
     Easy:
     6:
     0,0,0,0,0:
00000000
00000000
00000000
00000000
,
00000000
00000000
00000000
00000000
,
00000000
00000000
00000000
00000000
,
00000000
00000000
00000000
00000000
,
00000000
00000000
00000000
00000000
00000000
00000000
00000000
00001000
,
00000000
00000000
00000000
00000000
00000000
00000000
00000000
00010000
,
00000000
00000000
00000000
00000000
,
00022000
00000000
00000000
00000000
,
00000000
00000000
00000000
00033000
,
00001000
00000000
00010000
00100000
,
10000000
00000000
01000000
00100000
,
00010000
00000000
01000000
00001000
,
00010000
00000000
00000100
00001000
,
00000001
00000000
00000000
00000200
00000000
00000000
00000300
00000000
,
00000010
00000000
00000000
00000200
00000000
00000000
00000300
00000000
,
00000001
00000000
00000000
00002000
00000000
00000000
00003000
00000000
,
00000100
00010000
00001000
00100000
,
10020000
00000000
02030000
00000000
,
03020000
00000000
00230000
00000000
,
00302000
00000000
00023000
00000000
,
00030200
00000000
00002300
00000000
,
00003002
00000100
00000100
00000100
,
00000100
00000100
00000103
00000002
,
00002003
00000100
00000100
00000100
,
00000100
00000100
00000200
00003300
,
00001001
00001000
00000100
00010000
,
00011000
00001000
01000000
00010000
,
10010000
10000000
01000000
00100000
,
01100000
00000000
00000000
10010000
00000000
00000000
01100000
00000000
,
10000000
00010000
01000000
00001000
,
00010000
00000010
00001000
00000001
,
00000010
00000100
00001000
00000001
,
00000100
00000010
00000100
00000010
,
00001001
00000000
00000001
00000100
,
00000010
00000000
00000000
00000000
00000000
00000000
00000000
00000000
00001000
00000000
00000000
00000000
00000000
00000000
00000000
00000001
,
00001000
00000000
00000001
00000010
,
00000100
00000000
00000000
00000000
00000000
00000000
00000000
00000000
00010000
00000000
00000000
00000000
00000000
00000000
00000000
00001000
,
00010000
00000000
00001000
01000000
,
00010000
00000000
00000000
00000000
00000000
00000000
00000000
00000000
10000000
00000000
00000000
00000000
00000000
00000000
00000000
00010000
,
10000000
00000000
01000000
00100000
,
01000000
00100000
01000000
00000000
01000000
00000000
00000000
00000000
,
10010000
00000000
00000000
00000000
,
11000000
00000000
00000000
00000000
,
00110000
00000000
00000000
00000000
,
00011000
00000000
00000000
00000000
,
00021000
00001000
00001000
00001000
,
00031000
00012000
00013000
00021000
,
00031000
00012000
00010000
00013000
,
00011000
00011000
00011000
00000000
,
00011000
00010000
00000100
00001000
,
00000001
00000100
00000010
00010000
,
00001000
00100000
00010000
10000000
,
00100000
00000000
01000000
00000000
00010000
00100000
00010000
00000000
,
10000000
00100000
01000000
00001000
,
00010000
00000000
00000100
00000000
00001000
00000001
00001000
00000000
,
00000010
00000100
00000001
00000010
,
00000100
00000000
00001000
00000000
00000100
00000000
00000000
00000000
00010000
00000000
00000000
00001000
00000000
00000000
00010000
00000000
;

//--------------- dance-double - forcednature ----------------
#NOTES:
     dance-double:
     forcednature:
     Medium:
     9:
     0,0,0,0,0:
00000000
00000000
00000000
00000000
,
00000000
00000000
00000000
00000000
,
00000000
00000000
00000000
00000000
,
00000000
00000000
00000000
00000000
,
00000000
00000000
00000000
00000000
00000000
00000000
00000000
00001000
,
00010000
00001000
00000000
01000000
00000000
00010000
00000000
10000000
,
00100000
10000000
00000000
01000000
00000000
00100000
00000000
00001000
,
00020000
00001000
00001000
00001000
,
00001000
00000000
00001000
00000000
00001000
00000000
00002000
00033000
,
00011000
00000000
00010000
00000000
00000100
00000000
00001000
00000001
,
00001000
00000000
00000010
00000000
00000100
00000000
00000001
00001000
,
00000001
00000000
00000010
00000000
00001000
00000000
00010000
00001000
,
00010000
00000000
00100000
00000000
10000000
00000000
00010000
00100000
,
00010000
00000000
10000000
01000000
00100000
00000000
00000000
01000000
,
10000000
00000000
00010000
01000000
00001000
00000000
00000000
00010000
,
00000100
00000000
00001000
00000001
00000100
00000000
00000000
00000010
,
00001000
00000001
00001000
00000000
00000010
00000100
00000001
00000000
,
00000110
00000000
00001000
00000000
00000001
00000000
00000010
00000100
,
00001000
00000000
00010000
00000000
01000000
00000000
00100000
10000000
,
00010000
00000000
10000000
00000000
01000000
00000000
00100000
00001000
,
00010000
00000000
00100000
00000000
00010000
00000000
00001000
00000100
,
00000001
00001000
00000100
00000010
,
00000001
00000100
00001000
00020000
,
00130000
10000000
01000000
00010000
,
01000000
00100000
00002000
00013000
,
00011000
00010000
00000100
00001000
,
00001001
00000001
00000100
00000010
,
00000110
00000000
00000010
00000000
00010000
00000000
00001000
00100000
,
00010000
00000000
00100000
00010000
00000000
00000000
00110000
00000000
,
11000000
00000000
10000000
00000000
00010000
00000000
01000000
00001000
,
01000000
00000000
00010000
00000000
00100000
00000000
00001000
00010000
,
00001000
00000000
00000010
00000000
00000001
00000000
00001000
00000010
,
00001000
00000000
00000001
00000100
00000000
00000010
00000000
00001000
,
00000001
00000000
00001100
00000000
00010000
00000000
00001000
00100000
,
00010000
00000000
00000000
00000000
10000000
00000000
00100000
00000000
10000000
00000000
00000000
00000000
00010000
00000000
00000000
01000000
,
00100000
00000000
10000000
00000000
00010000
00000000
00100000
01000000
,
10000000
00000000
00000000
00000000
00010000
00000000
01000000
00000000
00001000
00000000
00000000
00000000
00010000
00000000
00000000
00000100
,
00001000
00000000
00000001
00000000
00000100
00000000
00000010
00001000
,
00000001
00000000
00000000
00000000
00000010
00000000
00000100
00000000
00001000
00000000
00000000
00000000
00000010
00000000
00000000
00010000
,
00001000
00000000
00100000
00000000
00010000
00000000
10000000
00100000
,
01000000
00010000
01000000
00000000
00100000
10000000
00000000
00010000
,
01000000
00000000
00001000
00010000
00000100
00020000
00000000
00031000
,
00000000
00000000
00000010
00000001
00000100
00000002
00000000
00000013
,
00000000
00000000
00000100
00010000
00001000
00200000
00000000
00301000
,
00000000
00000000
00010000
00100000
10000000
02000000
00000000
03100000
,
00020000
01030000
00001000
00010000
,
00000100
00002100
00003010
00000102
,
00000013
00000001
00001000
00001010
,
00000010
00000000
00000000
00000000
00010000
00000000
00000000
00000000
00001000
00000000
00000000
00000000
02000000
00000000
00000000
00000000
00000000
00000000
00000000
00000000
00000000
03000000
00000000
00000000
,
01100000
00000000
10000000
00010000
10000000
00000000
00100000
00010000
,
00001000
00000000
00010000
00001000
00000100
00000001
00001000
00000000
,
00000100
00000000
00000010
00000100
00001000
00000000
00000001
00000100
,
00001000
00000000
00010000
00100000
10000000
01000000
00100000
00000000
,
00001000
00000000
00010000
00000010
00001000
00000000
00000001
00000010
,
00000100
00000000
00010000
01000000
10000000
00010000
01000000
00000000
,
00100000
00000000
10000000
00010000
00100000
00000000
00001000
00010000
,
00000010
00000000
00001000
00000000
00000001
00000000
00000100
00000000
00001000
00000000
00000000
00010000
00000000
00000000
01000000
00000000
;

//--------------- dance-double - forcednature ----------------
#NOTES:
     dance-double:
     forcednature:
     Hard:
     12:
     0,0,0,0,0:
00000000
00000000
00000000
00000000
,
00000000
00000000
00000000
00000000
,
00000000
00000000
00000000
00000000
,
00000000
00000000
00000000
00000000
,
00000000
00000000
00000000
00000000
00000000
00000000
00000000
00010000
,
00010000
00001000
00000000
00000010
00000000
00000001
00000000
00000100
,
00000100
00000010
00000000
00001000
00000000
00000100
00000000
00010000
,
00001000
00010000
00001000
00010000
00001000
00010000
00001000
00010000
00001000
00010000
00001000
00010000
,
00001000
00000000
00000000
00000000
00000000
00000000
00000000
00000000
00000000
00000000
00000000
00000000
00000000
00000000
00000000
00000000
00010000
00000000
00000000
00000000
00000000
00000000
00000000
00000000
00000000
00000000
00000000
00000000
00000000
00000000
00000000
00000000
00001000
00000000
00000000
00000000
00000000
00000000
00000000
00000000
00000000
00000000
00000000
00000000
00000000
00000000
00000000
00000000
00010000
00000000
00000000
00000000
00000000
00000000
00000000
00000000
00000000
00000000
00000000
00000000
00000000
00000000
00000000
00000000
00001000
00000000
00000000
00000000
00000000
00000000
00000000
00000000
00000000
00000000
00000000
00000000
00000000
00000000
00000000
00000000
00010000
00000000
00000000
00000000
00000000
00000000
00000000
00000000
00000000
00000000
00000000
00000000
00000000
00000000
00000000
00000000
00001000
00000000
00000000
00000000
00000000
00000000
00000000
00000000
00000000
00000000
00000000
00000000
00000000
00000000
00000000
00000000
00010000
00000000
00000000
00000000
00000000
00000000
00000000
00000000
00000000
00000000
00000000
00000000
00000000
00000000
00000000
00000000
00001000
00000000
00000000
00000000
00000000
00000000
00000000
00000000
00000000
00000000
00000000
00000000
00000000
00000000
00000000
00000000
00020000
00000000
00000000
00000000
00000000
00000000
00000000
00000000
00000000
00000000
00000000
00000000
00000000
00000000
00000000
00000000
00000000
00000000
00000000
00000000
00000000
00000000
00000000
00000000
00000000
00000000
00000000
00000000
00000000
00030000
00000000
00000000
00000000
00000000
00000000
00000000
00000000
00000000
00000000
00000000
00000000
00000000
00000000
00000000
00000000
00000000
00000000
00000000
,
00011000
00000000
00001000
00000000
01000000
00000000
00010000
10000000
,
00010000
00000000
00100000
00000000
00001000
00000000
00010000
00000010
,
00010000
00000000
00000100
00000000
00000010
00000000
00000001
00000100
,
00000001
00000000
00000010
00000000
00000100
00000000
00010000
00001000
,
00010000
00000000
00100000
20000000
00010000
30000000
10000000
01000000
,
00100000
00000000
00001000
00020000
00000100
00030000
00010000
00001000
,
00000100
00000000
00000001
00000020
00000100
00000030
00000010
00001000
,
00010000
00000000
00100000
00000000
10000000
00000000
00000000
00010000
01000000
00000000
00001000
00000000
00010000
00000000
00000100
00000000
,
00001000
00000010
00000100
00000001
00000010
00001000
00010000
01000000
,
10000000
00010000
10000000
00100000
00010000
00001000
00010000
00000100
,
00000010
00001000
00010000
00000010
00000100
00000001
00001000
00000100
,
00010000
01000000
00100000
01000000
10000000
00100000
00010000
00001000
,
00000010
00000001
00000010
00000001
00000010
00000001
00000010
00000001
00000010
00000001
00000010
00000001
,
00000010
00000001
00000010
00000001
00000010
00000001
00000010
00000001
00000010
00000002
00000000
00000000
,
00001003
00000100
00001000
00000100
00001000
00000100
00001000
00000100
00001000
00000100
00001000
00000100
,
00001000
00000000
00000100
00000000
00001000
00000000
00000100
00000000
00001000
00000000
00000100
00000000
00002000
00000000
00000000
00000000
00000000
00000000
00000000
00000000
00000000
00003000
00000000
00000000
,
00001010
00000000
00000010
00000000
00010000
00000000
00001000
00100000
,
00110000
00000000
00010000
00000000
10000000
00000000
00100000
00010000
,
00011000
00000000
00000100
00000000
00000001
00000000
00001000
00000100
,
00001100
00000000
00001000
00010000
00100000
00000000
10010000
00000000
,
01100000
00000000
10000000
01000000
00010000
00001000
00000100
00000001
,
00000010
00000000
00000001
00000100
00001000
00010000
01000000
10000000
,
00100000
00000000
00010000
00001000
00000010
00000001
00000100
00001000
,
00010000
00100000
10000000
00010000
01000000
00100000
00010000
00001000
,
00100000
00000000
00000000
00000000
01000000
00000000
00010000
00000000
00001000
00000000
00000100
00001000
00000000
00000000
00010000
00000000
,
00000000
00000000
00000000
00000000
00000100
00000000
00000010
00000000
00000001
00000000
00000100
00000010
00000000
00000000
00001000
00000001
,
00001000
00000000
00000000
00000000
00000100
00000000
00010000
00000000
00001000
00000000
00100000
00010000
00000000
00000000
01000000
00000000
,
10000000
00000000
00000000
00000000
01000000
00000000
00010000
00000000
00100000
00000000
00001000
00010000
00000000
00000000
00000010
00001000
,
00000010
00000000
00000000
00000000
00000100
00000000
00000001
00000000
00000010
00000000
00001000
00010000
00000000
00000000
00000100
00000000
,
00001000
00000000
00000000
00000000
00000001
00000000
00000100
00000000
00001000
00000000
00010000
00100000
00000000
00000000
00010000
00001000
,
00010000
00000000
00000000
00000000
01000000
00000000
10000000
00000000
00010000
00000000
01000000
00100000
00000000
00000000
00010000
00000000
,
00001000
00000000
00000100
00000000
00000001
00000000
00000010
00000000
00000100
00000000
00001000
00000001
00000000
00000000
00000100
00000000
,
00000110
00000000
00000000
00000000
00000001
00000000
00000100
00000000
00001000
00000000
00010000
01000000
00000000
00000000
10000000
00000000
,
00000000
00000000
00000000
00000000
10000000
00000000
01000000
00000000
00010000
00000000
00001000
00000100
00000000
00000000
00000001
00000000
,
00000000
00000000
00000000
00000000
00000001
00000000
00000100
00000000
00001000
00000000
00010000
00100000
00000000
00000000
10000000
00000000
,
00000000
00000000
00000000
00000000
10000000
00000000
01000000
00000000
00010000
00000000
00001000
00000010
00000000
00000000
00000001
00000000
,
00000200
00000000
00000000
00001300
00010000
00001000
00010000
00001000
00010000
00001000
00010000
00001000
,
00010000
00001000
00010000
00200000
00000000
00000000
00310000
00001000
00010000
02000000
00000000
00000000
,
03010000
00000000
00002000
00000000
00003100
00000010
00000100
00000010
00000100
00000010
00000000
00000000
,
00001000
00000000
00000000
00000000
00000001
00000000
00000000
00000000
00000100
00000000
00000000
00000000
00002002
00000000
00000000
00000000
00000000
00000000
00000000
00000000
00000000
00003003
00000000
00000000
,
00000001
00000010
00000001
00000100
00001000
00010000
00100000
00010000
,
00000100
00010000
00001000
00100000
01000000
10000000
00010000
01000000
,
00100000
10000000
01000000
00010000
00000100
00001000
00000001
00000100
,
00000010
00001000
00000001
00000010
00001000
00010000
00011000
00000000
,
00100000
00010000
01000000
10000000
01000000
00010000
00100000
00001000
,
00000100
00000010
00001000
00000001
00000010
00000100
00001100
00000000
,
00000001
00000100
00001000
00010000
01000000
10000000
00100000
01000000
,
00010000
00000000
00100000
00000000
00001000
00000000
00010000
00000100
00010000
00000000
00000000
00001000
00000000
00000000
01000000
00000000
;
