#TITLE:Chewingood!!!;
#SUBTITLE:;
#ARTIST:TORIENA;
#TITLETRANSLIT:;
#SUBTITLETRANSLIT:;
#ARTISTTRANSLIT:;
#GENRE:;
#CREDIT:;
#MUSIC:Chewingood!!!.ogg;
#BANNER:Chewingood!!!.png;
#BACKGROUND:Chewingood!!!-bg.png;
#CDTITLE:./CDTITLES/BEATMANIA IIDX.PNG;
#SAMPLESTART:75.789;
#SAMPLELENGTH:15.000;
#SELECTABLE:YES;
#OFFSET:0.000;
#BPMS:0.000=190.000;
#STOPS:;
#BGCHANGES:0.000=Chewingood!!!.avi=1.000=0=0=0=StretchNoLoop====,
99999.000=-nosongbg-=1.000=0=0=0=StretchNoLoop====
;
#FGCHANGES:;

//--------------- dance-single - t7r ----------------
#NOTES:
     dance-single:
     t7r:
     Beginner:
     4:
     0,0,0,0,0:
0000
0000
0000
0000
,
0000
0000
0000
0000
,
0000
0000
0000
0000
,
0000
0000
0000
0000
,
0000
0000
0000
0000
,
0000
0000
0000
0000
,
0000
0000
0000
0000
,
0000
0000
0000
0000
,
0000
0000
0000
0000
,
1000
0000
0000
0000
,
0001
0000
0000
0000
,
0100
0000
0000
0000
,
0010
0000
0000
0000
,
1000
0000
0000
0000
,
1000
0000
0000
0000
,
0100
0000
0000
0000
,
0100
0000
0000
0000
,
0010
0000
0000
0000
,
0001
0000
0000
0000
,
1000
0000
0000
0000
,
1000
0000
0000
0000
,
0001
0000
0000
0000
,
0001
0000
0000
0000
,
0100
0000
0000
0000
,
0100
0000
0000
0000
,
0010
0000
0000
0000
,
0010
0000
0000
0000
,
1000
0000
1000
0000
,
1000
0000
0000
0000
,
0001
0000
0001
0000
,
0001
0000
0000
0000
,
0100
0000
0100
0000
,
0100
0000
0000
0000
,
0010
0000
0010
0000
,
0010
0000
0000
0000
,
1000
0000
0000
0000
,
1000
0000
0000
0000
,
0001
0000
0000
0000
,
0001
0000
0000
0000
,
0010
0000
0000
0000
,
0010
0000
0000
0000
,
0100
0000
0000
0000
,
0100
0000
0000
0000
,
1000
0000
1000
0000
,
1000
0000
0000
0000
,
0001
0000
0001
0000
,
0001
0000
0000
0000
,
0100
0000
0100
0000
,
0100
0000
0100
0000
,
0100
0100
0100
0000
,
0100
0000
0000
0000
,
0000
0000
0000
0000
,
0010
0000
0010
0000
,
0010
0000
0000
0000
,
1000
0000
1000
0000
,
1000
0000
0000
0000
,
0001
0000
0001
0000
,
0001
0000
0000
0000
,
0100
0000
0100
0000
,
0100
0000
0000
0000
,
0010
0000
0010
0000
,
0010
0010
0010
0000
,
1000
0000
1000
0000
,
1000
1000
1000
0000
,
0001
0000
0001
0000
,
0001
0001
0001
0000
,
0100
0000
0100
0000
,
0100
0100
0100
0000
,
0001
0000
0000
0000
,
0001
0000
0000
0000
,
0010
0000
0000
0000
,
0010
0000
0000
0000
,
0100
0000
0000
0000
,
0100
0000
0000
0000
,
1000
0000
0000
0000
,
1000
0000
0000
0000
,
0001
0000
0001
0000
,
0001
0000
0000
0000
,
1000
0000
1000
0000
,
1000
0000
0000
0000
,
0010
0000
0010
0000
,
0010
0000
0000
0000
,
0100
0000
0100
0000
,
0100
0000
0000
0000
,
0001
0000
0001
0000
,
0001
0001
0001
0000
,
1000
0000
1000
0000
,
1000
1000
1000
0000
,
0100
0000
0100
0000
,
0100
0100
0100
0000
,
0010
0000
0010
0000
,
0010
0010
0010
0000
;

//--------------- dance-single - t7r ----------------
#NOTES:
     dance-single:
     t7r:
     Easy:
     7:
     0,0,0,0,0:
0000
0000
0000
0000
,
0000
0000
0000
0000
,
0000
0000
0000
0000
,
0000
0000
0000
0000
,
0000
0000
0000
0000
,
0000
0000
0000
0000
,
0000
0000
0000
0000
,
0000
0000
0000
0000
,
0000
0000
0000
0000
,
1000
0000
0001
0000
,
1001
0000
0000
0000
,
0001
0000
1000
0000
,
1001
0000
0000
0000
,
0010
0000
0100
0000
,
0110
0000
0000
0000
,
0100
0000
0010
0000
,
0110
0000
0000
0000
,
1001
0000
0000
0000
,
2000
0000
0000
3000
,
0001
0010
0001
0000
,
0001
0100
0001
0000
,
0001
0010
0100
1000
,
0100
0010
0001
0000
,
1000
0010
1000
0000
,
1000
0100
1000
0000
,
1000
0010
0100
0001
,
1000
0001
0100
0000
,
0010
1000
0010
0000
,
0010
0100
0010
0000
,
0010
1000
0100
0010
,
0001
0100
0010
0000
,
0100
0001
0100
0000
,
0100
0010
0100
0000
,
0100
0001
1000
0010
,
0100
0001
0010
0000
,
0001
0001
0001
0000
,
0100
0100
0100
0000
,
0010
0010
0010
0000
,
1000
1000
1000
0000
,
0100
0100
0100
0000
,
0010
0010
0010
0000
,
0001
0001
0001
0000
,
1000
0001
0100
0000
,
0101
0000
0101
0000
,
0101
0000
0101
0000
,
1100
0000
1100
0000
,
1100
0000
1100
0000
,
1000
1000
0001
0001
,
0100
0100
0010
0010
,
1000
0001
1000
0001
,
0100
0010
1000
0001
,
2002
0000
0000
3003
,
1000
0100
0010
0100
,
1000
0010
1000
0000
,
0001
0100
0010
0100
,
0001
0010
0001
0000
,
1000
0010
0100
0010
,
1000
0100
1000
0000
,
0001
0010
0100
0010
,
0001
0100
0001
0001
,
1000
0010
0100
0001
,
1000
0100
0010
0000
,
0001
0100
0010
1000
,
0001
0010
0100
0000
,
0010
0001
1000
0010
,
0100
0010
1000
0000
,
0100
1000
0001
0010
,
0001
0100
0010
0010
,
1000
0100
0001
0100
,
1000
0100
0001
0100
,
1000
0010
0100
0001
,
1000
0001
0100
0010
,
1000
0010
0001
0010
,
1000
0010
0001
0010
,
1000
0100
0010
0001
,
0100
0010
1000
0000
,
0001
0000
0010
0000
,
1000
0001
0100
0000
,
1000
0000
0010
0000
,
0001
1000
0100
0001
,
1000
0000
0100
0000
,
0001
1000
0010
0000
,
0001
0000
0100
0000
,
1000
0001
0010
0000
,
1010
0000
1010
0000
,
1000
0100
1100
0000
,
0011
0000
0011
0000
,
0001
0100
0101
0000
,
0110
0100
0110
0100
,
0001
1000
1001
0000
,
0110
0010
0110
0010
,
1000
0100
0001
0110
;

//--------------- dance-single - t7r ----------------
#NOTES:
     dance-single:
     t7r:
     Medium:
     10:
     0,0,0,0,0:
0000
0000
0000
0000
,
0000
0000
0000
0000
,
0000
0000
0000
0000
,
0000
0000
0000
0000
,
0000
0000
0000
0000
,
0000
0000
0000
0000
,
0000
0000
0000
0000
,
0000
0000
0000
0000
,
0000
0000
0000
0000
,
1000
0000
0100
0000
,
1100
0000
1000
0000
,
0001
0000
0100
0000
,
0101
0000
0001
0000
,
1000
1000
0100
1100
,
0001
0001
0100
0101
,
1000
0001
1000
0001
1000
0001
1000
0000
,
0010
0100
0010
0200
0000
0301
1000
0001
,
0100
0000
0000
0000
0000
0001
0001
0000
,
1000
0000
0100
0010
0001
0000
1000
0000
,
0001
0000
0100
0001
0100
0000
0001
0000
,
0010
0000
0001
0010
0001
0000
1000
0000
,
0001
0000
0100
0010
0000
1000
0010
0000
,
1000
0100
0000
1000
0010
0000
1000
0000
,
0001
0000
0010
0001
0010
0000
0001
0000
,
1000
0000
0001
0100
0001
0000
1000
0000
,
0001
0000
1000
0100
0000
0010
0100
0000
,
1000
0010
0000
0100
0010
0000
1000
0000
,
1001
0000
1000
0100
0010
0000
0001
0000
,
1000
0000
0100
0010
0001
0000
1000
0000
,
0001
0000
0100
0001
0000
0010
0001
0000
,
1000
0001
0000
0100
0001
0000
0010
0000
,
0001
0000
0100
0010
1000
0000
0001
0000
,
0100
0000
0010
1000
0001
0000
1000
0000
,
0001
0000
0010
0100
0000
1000
0100
0000
,
0010
0001
1000
0001
,
1001
1000
0100
0100
,
0001
0100
1000
0000
,
0001
0001
0100
0100
,
1000
0100
0001
0000
,
1000
1000
0010
0010
,
0001
0010
1000
0000
,
0001
0001
0010
0010
,
1000
0010
0001
0100
,
0101
0000
0101
0000
,
1000
0100
1100
0000
,
1010
0000
1010
0000
,
0001
0010
0011
0000
,
1001
0001
0001
0001
,
1001
1000
1000
1000
,
0010
0100
0010
0100
0010
0100
0010
0000
,
1000
0001
1000
0001
1000
0001
1000
0001
,
0200
0000
0000
0310
,
1010
0000
1010
0000
1000
0100
1000
0000
,
0001
0010
0001
0010
0001
0000
0000
0000
,
0011
0000
0011
0000
0001
0100
0001
0000
,
1000
0010
1000
0010
1000
0000
0000
0000
,
1100
0000
1100
0000
1000
0100
1000
0000
,
0010
1000
0010
1000
0010
0000
0000
0000
,
0101
0000
0101
0000
0001
0010
0001
0000
,
0100
0001
0100
0001
0100
0000
0110
0000
,
1010
1010
1001
1001
,
1000
0001
0100
0001
1000
0000
0000
0000
,
0011
0011
1001
1001
,
0001
1000
0100
1000
0001
0000
0000
0000
,
0101
0101
0110
0110
,
0010
0100
0001
0100
0010
0000
0000
0000
,
1010
1010
0110
0110
,
0100
0001
1000
0001
0010
0000
0011
0000
,
0001
0000
1000
0100
0001
0000
0100
0000
,
1000
0000
0001
0100
1000
0000
0100
0000
,
0001
0000
1000
0100
0000
1000
0010
0000
,
1000
0001
0000
1000
0100
0000
1000
0000
,
0001
0000
1000
0010
0001
0000
0010
0000
,
1000
0000
0001
0010
1000
0000
0010
0000
,
0001
0011
0011
1001
,
1000
0100
0010
0100
1000
0000
0110
0000
,
0001
0000
0100
0000
,
1000
0100
0010
1000
,
0001
0000
0010
0000
,
1000
0010
0100
1000
,
0001
0000
0100
0000
,
0001
0010
0100
0001
,
0100
0000
1000
0000
,
0010
0100
0001
0000
,
0101
0000
0101
0000
,
0110
0010
0110
0000
,
1010
0000
1010
0000
,
0110
0100
0110
0000
,
0101
0001
1001
1000
,
0001
0010
0100
0010
0001
0000
1000
0000
,
0001
1000
0001
1000
0001
1000
0001
0000
,
0100
0010
0100
0010
1000
0001
1000
0001
,
0100
0000
0000
0000
;

//--------------- dance-single - t7r ----------------
#NOTES:
     dance-single:
     t7r:
     Hard:
     13:
     0,0,0,0,0:
0000
0000
0000
0000
,
0000
0000
0000
0000
,
0000
0000
0000
0000
,
0000
0000
0000
0000
,
0000
0000
0000
0000
,
0000
0000
0000
0000
,
0000
0000
0000
0000
,
0000
0000
0000
0000
,
0000
0000
0000
0000
,
1100
0000
1100
0000
,
0101
0000
0101
0000
,
1010
0000
1010
0000
,
0011
0000
0011
0000
,
1000
0100
1100
1100
,
0001
0100
0101
0101
,
0001
0010
0100
1000
0001
0010
0100
1000
,
0001
0100
0010
2000
0000
3001
1000
0001
,
0200
0000
0000
0000
0000
0310
0010
0100
,
0010
1000
0100
1000
0001
0010
0100
1000
,
0001
0100
0001
0010
0001
0000
0011
0000
,
1000
0100
1000
0010
1000
0000
1010
0000
,
0001
0010
0100
0010
0100
1000
0100
0010
,
0001
0100
0010
1000
0001
1000
0100
0000
,
1000
0010
1000
0001
1000
0000
1010
0000
,
0001
0010
0001
1000
0001
0000
0011
0000
,
0001
0100
0010
0100
0010
1000
0001
0010
,
0100
0010
0001
1000
0001
0000
1001
0000
,
1000
0100
0010
0001
0100
0000
1010
0000
,
0001
0010
0100
1000
0010
0000
0101
0000
,
1000
0001
0100
0001
1000
0100
1000
0001
,
0010
0001
1000
0001
0100
0000
0110
0000
,
0100
0001
0010
0001
1000
0000
1001
0000
,
0100
1000
0010
1000
0001
0000
1001
0000
,
0001
1000
0100
1000
0001
0100
0001
1000
,
0010
1000
0001
0010
0001
0000
1001
0000
,
1000
1000
0100
0100
,
0001
0000
1000
0000
0010
0000
0001
1000
,
0001
0001
0100
0100
,
1000
0000
0001
0000
0010
0100
0001
1000
,
0001
0001
0010
0010
,
1000
0000
0001
0000
0100
0000
1000
0001
,
1000
1000
0010
0010
,
0001
0000
1000
0000
0100
0010
1000
0001
,
1000
0000
1001
0000
,
1100
0100
1001
0000
,
0101
0000
1001
0000
,
0101
0100
1001
0000
,
1100
1100
1001
1001
,
0101
0101
1001
1001
,
0001
0100
0010
1000
0001
0010
0100
1000
,
0001
0001
0100
0100
0010
0010
1000
1000
,
0002
0000
0000
0000
0000
1003
0001
0000
,
1001
0000
1100
0000
1000
0001
0100
0000
,
0001
0010
0100
1000
0010
0000
1010
0000
,
1001
0000
0101
0000
0001
1000
0100
0000
,
1000
0010
0100
0001
0010
0000
0011
0000
,
1001
0000
1010
0000
1000
0001
0010
0000
,
0001
0100
0010
1000
0100
0000
1100
0000
,
1001
0000
0011
0000
0001
1000
0010
0000
,
1000
0100
0010
0001
0100
0000
0101
0000
,
0110
1001
0110
1001
,
0001
0100
0010
1000
0100
0000
0011
0000
,
1001
0110
1001
0110
,
0010
0100
0001
0010
0100
0000
1100
0000
,
0101
0011
0101
0011
,
0001
0010
0100
1000
0010
0000
0101
0000
,
1100
1010
1100
1010
,
1000
0100
0010
0001
0100
0000
1010
0000
,
0001
0010
1000
0010
0001
0000
0001
0100
,
0001
0010
1000
0010
0001
0000
0001
0100
,
0001
0010
0100
0010
0100
1000
0100
0010
,
0001
0100
0010
1000
0001
0000
1001
0000
,
1000
0100
0001
0100
1000
0000
1000
0010
,
1000
0100
0001
0100
1000
0000
1000
0010
,
1000
0100
0010
0100
0010
0001
0100
0010
,
1000
0001
0100
0010
1000
0000
0110
0000
,
0001
0001
0100
0100
,
1000
0000
0001
0010
1000
0000
0001
0010
,
1000
1000
0010
0010
,
0001
0100
1000
0100
0001
0000
1001
0000
,
0010
0010
1000
1000
,
0100
1000
0010
0000
0110
0000
0000
0000
,
0100
0100
0001
0001
,
0010
0001
0100
0000
0110
0000
0000
0000
,
1010
0000
1010
0000
,
1001
0010
1001
0000
,
0011
0000
0011
0000
,
1001
0100
1001
0000
,
0101
0101
1100
1100
,
0001
0010
1000
0001
0100
0000
1100
0000
,
1000
0010
0001
1000
0100
0001
1000
0001
,
1000
1000
0100
0100
0010
0010
0001
1000
,
0001
0000
0000
0000
;
