#TITLE:Buzzin';
#SUBTITLE:;
#ARTIST:OVERWERK;
#TITLETRANSLIT:;
#SUBTITLETRANSLIT:;
#ARTISTTRANSLIT:;
#GENRE:;
#CREDIT:;
#BANNER:Buzzin'.png;
#BACKGROUND:Buzzin'-bg.png;
#LYRICSPATH:;
#CDTITLE:;
#MUSIC:Buzzin'.ogg;
#OFFSET:0.005000;
#SAMPLESTART:90.450996;
#SAMPLELENGTH:14.763000;
#SELECTABLE:YES;
#DISPLAYBPM:130.000000;
#BPMS:0.000000=130.000000
,195.000000=260.000000
,196.000000=130.000000
;
#STOPS:195.000000=0.231000
;
#BGCHANGES:;
#KEYSOUNDS:;
#ATTACKS:;

//---------------dance-single - ----------------
#NOTES:
     dance-single:
     Expert:
     Hard:
     12:
     0.520223,0.669169,0.197831,0.337046,0.340709,497.000000,470.000000,27.000000,46.000000,0.000000,0.000000,0.520223,0.669169,0.197831,0.337046,0.340709,497.000000,470.000000,27.000000,46.000000,0.000000,0.000000:
0000
0000
0000
0000
,
0000
0000
0000
0000
,
0000
0000
0000
0000
,
0000
0000
0000
0000
,
0000
0000
0000
0000
,
1000
0000
0000
1000
0000
0000
1000
0000
0000
0000
1000
0000
0000
0000
0000
0000
,
0001
0000
0000
0001
0000
0000
0001
0000
0000
0000
0001
0000
0000
0000
0000
0000
,
0010
0000
0000
0010
0000
0000
0010
0000
0000
0000
0010
0000
0000
0000
0000
0000
,
0100
0000
0000
0100
0000
0000
0100
0000
0000
0000
0100
0000
0000
0000
0000
0000
,
0011
0000
0000
0001
1000
0000
0001
0000
0001
0000
0000
0001
0010
0000
0000
0000
,
0110
0000
0000
0100
1000
0000
0010
0000
0100
0000
0000
0100
0010
0000
0000
0000
,
1010
0000
0000
0010
1000
0000
0100
0000
1000
0000
0000
1000
0001
0000
0000
0000
,
0101
0000
0000
0100
0010
0000
0100
0000
0001
0000
0000
0010
0100
0000
1000
0000
,
1100
0000
0000
1000
0100
0000
0010
0000
0101
0000
0000
0001
1000
0000
0001
0000
,
1001
0000
0000
0100
0001
0000
0010
0000
0011
0000
0001
0010
0100
0000
0010
0000
,
0101
0000
0000
0001
0100
0000
0010
0000
1010
0000
1000
0010
1000
0000
0010
0000
,
0200
0010
1300
1001
,
0001
0001
0011
0000
0100
0100
1100
0000
,
0010
0000
0010
0000
1000
0000
1000
0000
0010
0000
0100
0001
1000
0000
0000
0000
,
1000
1000
1010
0000
0010
0010
0101
0000
,
0100
0000
0100
0000
0001
0000
0001
0000
0010
0000
0100
1000
0010
0000
0000
0000
,
1000
1000
0001
0000
0001
0001
1000
0000
,
1000
0000
0010
0000
0100
0000
0001
0000
0010
0000
0100
1000
0001
0000
0000
0000
,
0001
0100
0001
0000
0001
0010
0001
0000
,
0010
0100
1000
0100
2000
0001
3001
0000
,
0200
0010
0010
0310
,
0020
1000
0001
1030
,
2000
0010
0100
3001
,
0002
0010
0100
1003
,
2000
0000
0100
0000
0010
0010
3010
0000
,
0020
0000
0001
0000
0100
0100
0130
0000
,
0200
0000
1000
0000
0001
0001
0301
0000
,
0002
0010
0100
1003
,
0001
0000
0000
0100
0000
0000
0010
0000
0000
0010
0000
0000
0110
0000
0000
0000
,
0100
0000
0000
0010
0000
0000
1000
0000
0000
1000
0000
0000
1100
0000
0000
0000
,
0010
0000
0000
0001
0000
0000
1000
0000
0000
1000
0000
0000
1010
0000
0000
0000
,
0010
0000
0000
0100
0000
0000
0001
0000
0000
0001
0000
0000
0011
0000
0000
0000
,
0020
0000
0000
0001
0000
0000
1000
0000
0000
1000
0000
0000
0031
0000
0000
0000
,
0002
0000
0000
0100
0000
0000
0010
0000
0000
0010
0000
0000
1003
0000
0000
0000
,
2000
0000
0000
0010
0000
0000
0100
0000
0000
0100
0000
0000
3001
0000
0000
0000
,
0200
0000
0000
0010
0000
0000
1000
0000
0000
0001
0000
0000
0301
0000
0000
0000
,
0001
1000
0010
0000
0001
1000
0010
0000
,
0010
1000
0100
0000
0010
1000
0100
0000
,
1000
0010
0100
0001
0010
0010
0001
0000
,
0001
0010
0010
0001
0100
0010
1000
0000
,
1000
1000
0100
0100
0010
0010
0001
0001
,
0100
0100
0010
0010
1000
1000
0001
0001
,
1000
0010
1000
0000
0010
0100
0010
0000
0100
0001
0010
0000
0001
0010
0100
0000
,
0010
0001
0010
0001
0010
0001
0010
0001
0010
0000
0000
0000
0011
0000
0000
0000
,
0101
0000
0100
0010
0000
0000
1020
0000
0000
0000
0100
0000
1030
0000
0000
0000
,
1100
0000
1000
0001
0000
0000
1000
0000
0010
0000
0100
0010
0100
0000
0010
0000
,
0200
0000
0001
0300
0020
0000
0001
0030
2000
0000
0010
3000
2000
0000
0100
3000
,
1000
0000
0001
1000
0000
0000
0010
0000
0200
0000
0002
0300
0020
0003
0200
0030
,
1300
0000
0010
0100
0000
0000
0201
0000
0000
0000
0010
0000
0301
0000
0000
0000
,
0011
0000
0001
1000
0000
0000
0001
0000
0100
0000
0010
0100
0010
0000
0100
0000
,
0020
0000
1000
0030
0200
0000
1000
0300
0002
0000
0100
0003
0002
0000
0010
0003
,
0001
0000
1000
0001
0000
0000
0100
0000
0020
0000
2000
0030
0200
3000
0020
0300
,
0031
0000
0001
0100
0000
0001
0200
0000
0000
0000
0010
0000
0310
0000
0000
0000
,
1000
0000
1000
0010
0000
0000
0010
0000
0010
0000
0100
0001
0010
0000
0000
0000
,
0200
0000
0010
0300
0020
0000
0001
0030
0002
0000
0100
0003
0200
0000
1000
0300
,
0100
0000
0001
0010
0000
0000
0001
0000
1000
0000
0100
0000
0010
0000
0001
0000
,
0100
0000
0100
0010
0000
0100
0020
0000
0000
0000
1000
0000
0130
0000
0000
0000
,
0011
0000
0001
0010
0000
0001
0010
0000
0200
0000
0010
0000
0310
0000
0000
0000
,
0002
1000
1003
0000
2000
0001
3001
0000
,
0101
0000
0001
0100
0010
0100
0010
0100
0010
0000
1000
0000
0100
0000
1000
0000
,
0001
0000
0001
1000
0000
1000
0010
0000
0010
1000
0000
1000
0001
0000
0001
0000
,
0010
0000
0010
0100
0000
0100
1000
0000
1000
0001
0000
0001
1000
0000
1000
0000
,
0100
0000
0100
1000
0000
1000
0100
0000
0010
0001
0000
0001
0100
0000
0001
0000
,
0100
0000
0001
0100
0000
0100
0001
0000
0000
0000
0020
0000
0200
0030
1000
0300
,
1000
0000
1000
0001
0000
0001
0100
0000
0100
0001
0000
0001
1000
0000
1000
0000
,
0100
0000
0100
0010
0000
0010
0001
0000
0001
1000
0000
1000
0001
0000
0001
0000
,
0010
0000
0010
0001
0000
0001
0010
0000
0100
1000
0000
1000
0010
0000
0010
0000
,
0010
0000
0010
1000
0000
0010
1000
0000
0000
0000
0200
0000
0020
0300
0002
0030
,
0000
0003
0000
0000
0000
0000
0000
0000
0000
0000
0000
0000
0000
0000
0000
0000
;

//---------------dance-single - ----------------
#NOTES:
     dance-single:
     Difficult:
     Medium:
     9:
     0.312971,0.347075,0.043962,0.278429,0.000000,299.000000,293.000000,6.000000,38.000000,0.000000,0.000000,0.312971,0.347075,0.043962,0.278429,0.000000,299.000000,293.000000,6.000000,38.000000,0.000000,0.000000:
0000
0000
0000
0000
,
0000
0000
0000
0000
,
0000
0000
0000
0000
,
0000
0000
0000
0000
,
0000
0000
0000
0000
,
1000
0000
0000
1000
0000
0000
1000
0000
,
0100
0000
0000
0100
0000
0000
0100
0000
,
0010
0000
0000
0010
0000
0000
0010
0000
,
0001
0000
0000
0001
0000
0000
0001
0000
,
1000
0010
1000
1000
,
0100
0000
0010
0000
0001
0001
1000
0000
,
0100
1000
0001
0001
,
0010
0000
0100
0000
1000
1000
0010
0000
,
0100
0001
0010
0000
0001
0000
0001
0000
,
0010
0100
1000
0000
1000
0001
1000
0000
,
0010
0100
0010
0000
0010
0100
0001
0000
,
0010
0100
1000
0000
1000
0000
0001
0000
,
0001
0001
0010
0000
0001
0000
0101
0000
,
0100
0010
0020
1030
,
1000
1000
0100
0000
1000
0000
1010
0000
,
0010
0100
0002
0013
,
0100
0010
0001
0000
0010
0000
0011
0000
,
0100
1000
0020
0130
,
0100
0001
1000
0000
0100
0100
0100
0000
,
2000
3001
0020
0130
,
0020
0000
0001
0031
,
0002
0000
1000
1003
,
2000
0000
0010
3010
,
0020
0000
0100
0130
,
0200
0010
0001
1300
,
0002
0010
0100
1003
,
2000
0010
0100
3001
,
0200
0010
1000
0301
,
0002
0000
0000
0010
0000
0000
0013
0000
,
0200
0000
0000
1000
0000
0000
1300
0000
,
2000
0000
0000
0010
0000
0000
3010
0000
,
0020
0000
0000
0100
0000
0000
0130
0000
,
0200
0000
0000
0001
0000
0000
0301
0000
,
0020
0000
0000
0001
0000
0000
0031
0000
,
0002
0000
0000
0100
0000
0000
0103
0000
,
0020
0000
0000
1000
0000
0000
0031
0000
,
1000
0100
1000
0100
,
1000
0010
0100
0001
,
0010
0010
0001
0001
,
0010
0010
0001
0001
,
1000
0100
1000
0000
1000
0000
0000
0000
,
0010
0100
0010
0000
0010
0000
0000
0000
,
0100
0001
0100
0000
0100
0000
0000
0000
,
0001
0010
0001
0000
0001
0000
1001
0000
,
0110
0000
0010
0000
0010
1000
0100
0000
,
1000
1000
0002
1003
,
0200
1300
2000
3010
,
0020
0000
0130
0000
0100
0001
0010
0000
,
1100
0000
0100
0000
0010
0001
0100
0000
,
0001
0001
2000
3001
,
0020
0031
0002
0103
,
0200
0000
0310
0000
0010
1000
0100
0000
,
1000
0001
1000
0000
0010
0000
0010
0000
,
0010
0100
0001
0000
0020
0000
0031
0000
,
2000
3100
0020
0031
,
0200
0000
0310
0000
0010
1000
0100
0000
,
1000
1000
0001
0000
0001
0001
0100
0000
,
0200
0000
0310
0000
0010
1000
0100
0000
,
0010
0001
0100
0000
0100
0010
0100
0000
,
0100
0001
0010
0000
0100
1000
0010
0000
,
0100
0000
0010
0000
0100
0010
1000
0000
,
0001
0000
1000
0000
0001
0010
0100
0000
,
0100
0000
0010
0000
0100
0010
0001
0000
,
0002
0000
1003
0000
2000
0010
3010
0000
,
0010
0000
0100
0000
0010
0100
0001
0000
,
1000
0000
0001
0000
1000
0100
0010
0000
,
0010
0000
0100
0000
0010
0100
1000
0000
,
2000
0000
3001
0000
0002
0100
0100
0103
;

//---------------dance-single - ----------------
#NOTES:
     dance-single:
     Basic:
     Easy:
     5:
     0.254354,0.346479,0.095252,0.285756,0.000000,243.000000,230.000000,13.000000,39.000000,0.000000,0.000000,0.254354,0.346479,0.095252,0.285756,0.000000,243.000000,230.000000,13.000000,39.000000,0.000000,0.000000:
0000
0000
0000
0000
,
0000
0000
0000
0000
,
0000
0000
0000
0000
,
0000
0000
0000
0000
,
0000
0000
0000
0000
,
2000
0000
0000
3001
0000
0000
0000
0000
,
0020
0000
0000
0130
0000
0000
0000
0000
,
0200
0000
0000
1300
0000
0000
0000
0000
,
2000
0000
0000
3010
0000
0000
0000
0000
,
0100
0010
0100
0100
,
0100
0001
0010
0001
,
1000
1000
0001
1000
,
0010
0100
0001
0010
,
0100
0100
1000
1000
,
0010
0100
0001
0001
,
0010
0100
1000
1000
,
0010
0100
0001
1001
,
0100
1100
1000
1010
,
0010
0110
0200
0301
,
0010
0011
0010
0110
,
0010
0001
2000
3010
,
0010
0011
0001
0101
,
0100
0110
0020
1030
,
0100
1100
0100
0110
,
0100
1000
0002
0103
,
0200
0000
0310
0000
,
0020
0000
1030
0000
,
2000
0000
3100
0000
,
0020
0000
0031
0000
,
0002
0000
0013
0000
,
0020
0000
0130
0000
,
0200
0000
1300
0000
,
2000
0000
3001
0000
,
0001
0000
0000
0001
0000
0000
0001
0000
,
0010
0000
0000
0010
0000
0000
0010
0000
,
0100
0000
0000
0100
0000
0000
0100
0000
,
1000
0000
0000
1000
0000
0000
1000
0000
,
0010
0000
0000
0010
0000
0000
0010
0000
,
0100
0000
0000
0100
0000
0000
0100
0000
,
0001
0000
0000
0001
0000
0000
0001
0000
,
1000
0000
0000
1000
0000
0000
1000
0000
,
0200
0000
1300
0000
,
2000
0000
3010
0000
,
0020
0000
0130
0000
,
0200
0000
0301
0000
,
0020
0001
0031
0000
,
0002
0010
0013
0000
,
0020
0100
0100
0130
,
2000
0010
0100
3001
,
1001
0110
0010
0100
,
0010
0010
2000
3100
,
0010
0001
0010
0010
,
0001
1000
0010
0010
,
0100
0001
0010
0010
,
0100
1000
0001
1000
,
0020
0130
0200
0310
,
2000
3100
0020
0031
,
0200
0010
0010
0310
,
0020
1000
0001
0130
,
0002
1003
2000
3001
,
0020
0130
0200
0310
,
0010
0001
1000
1000
,
0100
1000
0010
0010
,
0020
0130
0200
0310
,
0010
1000
0100
1000
,
0001
1000
0001
0001
,
1000
0010
0100
0100
,
0010
0100
0001
0001
,
0010
0001
2000
3001
,
1000
0001
1000
1000
,
0001
0100
0010
0010
,
0100
0010
1000
1000
,
0100
1000
0002
1003
;

//---------------dance-single - ----------------
#NOTES:
     dance-single:
     Challenge:
     Challenge:
     14:
     0.596634,0.695935,0.161196,0.300410,0.571512,570.000000,548.000000,22.000000,41.000000,0.000000,0.000000,0.596634,0.695935,0.161196,0.300410,0.571512,570.000000,548.000000,22.000000,41.000000,0.000000,0.000000:
0000
0000
0000
0000
,
0000
0000
0000
0000
,
0000
0000
0000
0000
,
0000
0000
0000
0000
,
0000
0000
0000
0000
,
0001
0000
1000
0001
0000
0000
0001
0000
0000
0000
0001
0000
0000
0000
0000
0000
,
1000
0000
0001
1000
0000
0000
1000
0000
0000
0000
1000
0000
0000
0000
0000
0000
,
0100
0000
0010
0100
0000
0000
0100
0000
0000
0000
0100
0000
0000
0000
0000
0000
,
0010
0000
0100
0010
0000
0000
0010
0000
0000
0000
0010
0000
0000
0000
0000
0000
,
1100
0000
0000
1000
0001
0000
1000
0000
1000
0000
0000
1000
0100
0000
0000
0000
,
0110
0000
0000
0010
0001
0000
0100
0000
0010
0000
0000
0010
0100
0000
0100
0000
,
0101
0000
0000
0100
0001
0000
0010
0000
0001
0000
0000
0001
1000
0000
0000
0000
,
1010
0000
0000
0010
0100
0000
0010
0000
1000
0000
1000
0100
0010
0000
0001
0000
,
0011
0000
0000
0001
0010
0000
0100
0000
1010
0000
0000
1000
0001
0000
1000
0000
,
1001
0000
0000
0010
1000
0000
0100
0000
1100
0000
1000
0100
0010
0000
0100
0000
,
1010
0000
0000
1000
0010
0000
0100
0000
0101
0000
0001
0100
0001
0000
0100
0000
,
0020
0000
0100
0000
0031
0000
1000
0001
,
1000
0000
0100
1000
0000
0010
0100
0000
0100
0001
0000
0001
0010
0000
0001
0000
,
1000
0000
1000
0001
0000
0001
0100
0000
0100
0000
0010
1000
0100
0000
0000
0000
,
1000
0000
0100
0010
0000
0010
0100
0000
0100
1000
0000
1000
0100
0000
1000
0000
,
0100
0000
0100
0010
0000
0010
0100
0000
0100
0000
1000
0001
1000
0000
0000
0000
,
0001
0000
0010
0001
0000
0100
0010
0000
0010
1000
0000
1000
0100
0000
1000
0000
,
0001
0000
0001
1000
0000
1000
0010
0000
0010
0000
0100
0001
0010
0000
0000
0000
,
0001
0000
0010
0100
0000
0100
0010
0000
0010
0001
0000
0001
0010
0000
0001
0000
,
0010
0000
0010
0100
0000
0100
0010
0000
0010
0000
0001
1000
0001
0000
0000
0000
,
0020
0000
0000
0100
0000
0000
0100
0000
0000
0100
0000
0000
0130
0000
0000
0000
,
0200
0000
0000
0001
0000
0000
1000
0000
0000
0001
0000
0000
1300
0000
0000
0000
,
0002
0000
0000
0100
0000
0000
0010
0000
0000
0010
0000
0000
1003
0000
0001
0000
,
2000
0000
0000
0100
0000
0000
0100
0000
0000
0010
0000
0000
3001
0000
0000
0000
,
0002
0000
0000
0010
0000
0000
0100
0000
0000
0100
0000
0000
0103
0000
0000
0000
,
0200
0000
0000
1000
0000
0000
0010
0000
0000
0010
0000
0000
0310
0000
0000
0000
,
0020
0000
0000
0001
0000
0000
1000
0000
0000
1000
0000
0000
1030
0000
0000
0000
,
2000
0000
0000
0100
0000
0000
0010
0000
0000
0010
0000
0000
3001
0000
0000
0000
,
1000
0000
1000
0010
0000
0000
0100
0000
0010
0100
0000
0000
0110
0000
0000
0000
,
0010
0000
0010
0100
0000
0000
0001
0000
0010
0001
0000
0000
0011
0000
0000
0000
,
0100
0000
0100
1000
0000
0000
0001
0000
0100
0001
0000
0000
0101
0000
0000
0000
,
0100
0000
0100
0010
0000
0000
1000
0000
0100
1000
0000
0000
1100
0000
0000
0000
,
0200
0000
1000
1000
0000
0000
0001
0000
0000
0001
0000
0000
1300
0000
0000
0000
,
2000
0000
0010
0010
0000
0000
0100
0000
0000
0100
0000
0000
3001
0000
0000
0000
,
0002
0000
0100
0100
0000
0000
0010
0000
0000
0010
0000
0000
1003
0000
0000
0000
,
0020
0000
0100
0100
0000
0000
0001
0000
0000
1000
0000
0000
1030
0000
0000
0000
,
1000
0000
0001
0100
0000
0010
1000
0000
1000
0100
0000
1000
0001
0000
1000
0000
,
0001
0000
0100
0010
0000
0100
0001
0000
0100
0001
0000
0001
0010
0000
0001
0000
,
0001
0000
0100
0010
0000
0010
1000
0000
0100
1000
0100
0000
1000
0000
0000
0000
,
1000
0000
0100
1000
0000
1000
0010
0000
0010
0100
0001
0000
0010
0000
0010
0000
,
0001
0001
0010
0010
0100
0100
1000
1000
,
0010
0010
0100
0100
0001
0001
1000
1000
,
0001
0100
0001
0000
0100
0010
0100
0000
0010
1000
0100
0000
1000
0100
0010
0000
,
0100
1000
0100
1000
0100
1000
0100
1000
0100
0000
1000
0000
1100
0000
0000
0000
,
1010
0000
0010
0100
0000
0001
0200
0000
0000
0000
0010
0000
0301
0000
0010
0000
,
0011
0000
0001
1000
0000
0001
0100
0000
0100
0000
0010
0100
0010
0000
0100
0000
,
0020
0000
1000
0030
0200
0000
1000
0300
0002
0000
0100
0003
0002
0000
0010
0003
,
0001
0000
1000
0001
0000
0000
0100
0000
0020
0000
2000
0030
0200
3000
0020
0300
,
0031
0000
0100
0010
0000
1000
0020
0000
0000
0000
0100
0000
1030
0000
1000
0000
,
1100
0000
1000
0001
0000
0000
1000
0000
0010
0000
0100
0010
0100
0000
0010
0000
,
0200
0000
0001
0300
0020
0000
0001
0030
2000
0000
0010
3000
2000
0000
0100
3000
,
1000
0000
0001
1000
0010
0100
0001
0100
0001
0000
0002
0000
0020
0003
0200
0030
,
1300
0000
1000
0010
0000
1000
0020
0000
0100
0000
0100
0000
0130
0000
0110
0000
,
0001
0000
0001
0100
0000
0010
0100
0000
0100
0000
0010
1000
0100
0000
0010
0000
,
0020
0000
0100
0030
0200
0000
1000
0300
2000
0000
0010
3000
0020
0000
0001
0030
,
0010
0000
1000
0100
1000
0000
1000
0000
0001
0010
0001
0000
0100
0000
0010
0000
,
0100
0000
0010
0100
0000
0010
0200
0000
0000
0000
0001
0000
0310
0000
0110
0000
,
1100
0000
1000
0100
0000
1000
0100
0000
0010
0000
0100
0010
0100
0000
0000
0000
,
0100
1000
0001
0001
1000
0010
1000
0001
,
1010
0000
1000
0010
0100
0010
0100
0010
0100
0000
0001
0000
0010
0000
0001
0000
,
1000
0000
1000
0001
0000
0001
0100
0000
0100
0001
0000
0001
1000
0000
1000
0000
,
0100
0000
0100
0010
0000
0010
0001
0000
0001
1000
0000
1000
0001
0000
0001
0000
,
0010
0000
0010
0001
0000
0001
0010
0000
0100
1000
0000
1000
0010
0000
1000
0000
,
0010
0000
1000
0010
0000
0010
1000
0000
0000
0000
0200
0000
0020
0300
0001
0030
,
0001
0000
0001
1000
0000
1000
0010
0000
0010
1000
0000
1000
0001
0000
0001
0000
,
0010
0000
0010
0100
0000
0100
1000
0000
1000
0001
0000
0001
1000
0000
1000
0000
,
0100
0000
0100
1000
0000
1000
0100
0000
0010
0001
0000
0001
0100
0000
0100
0000
,
0100
0000
0100
0001
0000
0100
0001
0000
0000
0000
0020
0000
0200
0030
2000
0300
,
0000
3000
0000
0000
0000
0000
0000
0000
0000
0000
0000
0000
0000
0000
0000
0000
;
