#TITLE:Backyun!;
#SUBTITLE:-悪い女-;
#ARTIST:青木千紘&愛海;
#TITLETRANSLIT:;
#SUBTITLETRANSLIT:-Warui Onna-;
#ARTISTTRANSLIT:Chihiro Aoki & Manami;
#GENRE:ELECTROPOP;
#CREDIT:;
#BANNER:Backyun! -Warui Onna-.png;
#BACKGROUND:Backyun! -Warui Onna--bg.png;
#LYRICSPATH:;
#CDTITLE:cdtitle.png;
#MUSIC:Backyun! -Warui Onna-.ogg;
#OFFSET:-1.661000;
#SAMPLESTART:57.373001;
#SAMPLELENGTH:15.000000;
#SELECTABLE:YES;
#BPMS:0.000000=140.000000
;
#STOPS:130.000000=0.429000
;
#BGCHANGES:-3.000=Backyun! -Warui Onna-.avi=1.000=0=0=0=StretchNoLoop==CrossFade_Fastest==,
99999=-nosongbg-=1.000=0=0=0 // don't automatically add -songbackground-
;
#KEYSOUNDS:;
#ATTACKS:;

//---------------dance-single - Daff_4K----------------
#NOTES:
     dance-single:
     :
     Beginner:
     2:
     0.155138,0.251468,0.054298,0.081447,0.000000,120.000000,114.000000,6.000000,9.000000,0.000000,0.000000,0.155138,0.251468,0.054298,0.081447,0.000000,120.000000,114.000000,6.000000,9.000000,0.000000,0.000000:
0000
0000
0000
0000
,
0000
0000
0000
0000
,
0000
0000
0000
0000
,
0000
0000
0000
0000
,
0010
0010
0000
0000
,
0100
0100
0000
0000
,
0010
0010
0000
0000
,
1001
0000
0000
0000
,
0001
0000
0000
0000
,
1000
0000
0000
0000
,
0001
0000
0000
0000
,
0010
0010
0010
0000
,
0010
0000
0000
0000
,
0100
0000
0000
0000
,
0010
0000
0000
0000
,
0100
0100
0100
0000
,
2000
0000
3000
0000
,
0002
0000
0003
0000
,
0200
0000
0300
0000
,
0001
0000
0001
0000
,
0002
0000
0003
0000
,
2000
0000
3000
0000
,
0200
0000
0300
0000
,
1000
0000
1000
0000
,
0001
0001
0001
0000
,
0100
0000
0100
0000
,
0010
0000
0000
0000
,
1000
0000
0001
0000
,
1000
1000
1000
0000
,
0100
0000
0100
0000
,
0010
0000
0000
0000
,
1001
0000
0000
0000
,
0000
0000
0000
1000
,
1000
0000
0001
0000
,
1000
1000
0000
0010
,
0000
0010
0000
0100
,
0000
0000
0000
0001
,
0001
0000
1000
0000
,
0001
0001
0000
0010
,
0000
0010
0000
0100
,
0000
0000
0000
1000
,
1000
1000
1000
1000
,
0000
0010
0000
0100
,
0100
0100
0100
0200
,
0000
0300
0000
0001
,
0001
0001
0001
0001
,
0000
0010
0000
0100
,
0100
0100
0100
0100
,
0000
1000
0000
0001
,
0001
0001
0001
0001
,
0000
0110
0000
1000
,
1000
1000
1000
1000
,
0000
0110
0000
0010
,
0010
0010
0010
0010
,
0000
1001
0000
0100
,
0100
0100
0100
0200
,
0000
0300
0000
0020
,
0000
0030
0000
0001
,
0000
1000
0000
1001
,
0000
0000
0000
0000
,
0000
0000
0000
0010
,
0000
0100
0100
0100
;

//---------------dance-single - Daff_4K----------------
#NOTES:
     dance-single:
     :
     Easy:
     5:
     0.228828,0.250450,0.036199,0.253391,0.000000,177.000000,173.000000,4.000000,28.000000,0.000000,0.000000,0.228828,0.250450,0.036199,0.253391,0.000000,177.000000,173.000000,4.000000,28.000000,0.000000,0.000000:
0000
0000
0000
0000
,
0000
0000
0000
0000
,
0000
0000
0000
0000
,
0000
0000
0000
0000
,
1000
0010
2000
3000
,
0001
0010
0002
0003
,
1000
0001
2000
3000
,
0220
0000
0330
0000
,
0002
0003
0100
0010
,
0200
0300
1000
0100
,
0020
0030
0100
0001
,
1000
1000
0001
0001
,
2000
3000
0100
0010
,
0200
0300
0001
0100
,
0020
0030
0100
1000
,
0001
0001
1000
1000
,
0002
0000
1003
0000
,
0010
0100
0010
0000
,
2000
0000
3001
0000
,
0010
0010
0100
0100
,
2000
0000
3001
0000
,
0010
0100
0010
0000
,
0002
0000
1003
0000
,
0010
0010
0100
0100
,
0001
1000
0001
0000
,
0010
0100
1000
0000
,
0001
1000
0000
0010
,
0100
0010
1000
0001
,
1000
0001
1000
0000
,
0010
0100
0001
0000
,
1000
0001
0000
0020
,
0000
0000
0000
0000
,
0000
0000
0030
0001
,
0001
1000
1000
0010
,
0100
0010
1000
0001
,
0010
1000
0100
0001
,
0000
0010
0100
1000
,
1000
0001
0001
0010
,
0100
0010
0001
1000
,
0010
0001
0100
1000
,
0000
0010
0100
0001
,
0100
1000
0100
0001
,
0010
0100
0100
1000
,
0010
0001
0010
2000
,
3000
0002
0003
1000
,
0100
0001
0100
1000
,
0010
0100
0100
0001
,
0010
1000
0010
0002
,
0003
2000
3000
0001
,
0100
1000
0010
0001
,
0100
0010
0010
1000
,
0010
0001
0010
0200
,
0300
0020
0030
1000
,
0100
0001
0010
1000
,
0100
0010
0010
0001
,
0010
1000
0010
0200
,
0300
0020
0030
2002
,
0000
3003
0000
0220
,
0000
0330
0000
1001
,
0000
0000
0000
0000
,
0000
0000
0000
1000
,
0001
0100
0010
0000
;

//---------------dance-single - Daff_4K----------------
#NOTES:
     dance-single:
     :
     Medium:
     9:
     0.387844,0.390381,0.244342,0.389137,0.018099,300.000000,273.000000,27.000000,43.000000,0.000000,0.000000,0.387844,0.390381,0.244342,0.389137,0.018099,300.000000,273.000000,27.000000,43.000000,0.000000,0.000000:
0000
0000
0000
0000
,
0000
0000
0000
0000
,
0000
0000
0000
0000
,
0000
0000
0000
0000
,
0010
0000
0000
0000
1001
0000
0000
0000
1000
0000
0000
0001
0000
0000
0100
0000
,
0010
0000
0000
0000
1001
0000
0000
0000
0001
0000
0000
1000
0000
0000
0100
0000
,
0010
0000
0000
0000
1001
0000
0000
0000
1000
0000
0000
0001
0000
0000
0100
0000
,
0020
0100
0130
1001
,
1000
0001
0000
0100
0010
0100
0001
0000
,
1000
0100
0000
0010
0001
1000
0001
0000
,
0100
0010
0000
1000
0100
0010
0100
1000
,
0002
0203
0320
2030
,
3001
1000
0000
0100
0010
0100
1000
0000
,
0001
0100
0000
0010
1000
0001
1000
0000
,
0100
0010
0000
0001
0100
0010
0100
0001
,
2000
3200
0320
0032
,
2003
0010
0000
3010
,
0200
0001
0000
0301
,
0020
0100
0000
0130
,
2000
0000
3002
0000
0103
0010
2000
0000
,
3002
0010
0000
0013
,
0200
1000
0000
1300
,
0020
0100
0000
0130
,
0002
0000
2003
0000
3100
0010
0002
0000
,
1003
0010
0100
0001
1000
0000
0100
0001
,
0000
0100
0000
1000
0001
0000
0110
0000
,
2000
0000
3001
0000
0100
0010
1000
0000
,
0002
0000
1003
0000
0100
0010
0100
0010
,
0001
0010
0100
1000
0001
0000
0100
1000
,
0000
0100
0000
0001
1000
0000
0110
0000
,
0002
0000
1003
0000
0010
0100
0000
2002
,
0000
0000
0000
0000
,
0000
0000
3003
0010
,
1001
0000
1000
0100
0001
0000
0100
0010
,
0001
0200
0000
1300
0100
0020
0000
1030
,
0001
0001
0010
0100
0010
0002
0000
0000
,
1003
0020
0130
0010
,
1001
0000
0001
0100
1000
0000
0100
0010
,
1000
0200
0000
0301
0100
0020
0000
0031
,
1000
1000
0010
0100
0010
2000
0000
0001
,
3001
0020
0130
0010
,
1001
0000
0100
0000
1001
0000
0001
0100
,
0010
0000
0100
0001
1000
0000
0100
0000
,
1001
0000
0010
0000
1001
0000
0001
0100
,
0010
1000
0002
0000
1003
0000
0010
0000
,
1001
0000
0100
0000
1001
0000
1000
0100
,
0010
0000
0100
1000
0001
0000
0100
0000
,
1001
0000
0010
0000
1001
0000
1000
0100
,
0010
0001
0200
0000
0310
0000
1000
0000
,
0110
0000
0001
0000
0110
0000
1000
0010
,
0001
0000
0010
1000
0001
0000
1000
0000
,
0110
0000
0001
0000
0110
0000
1000
0010
,
0100
0001
2000
0000
3001
0000
0001
0000
,
0110
0000
1000
0000
0110
0000
0001
0010
,
1000
0000
0010
0001
1000
0000
0001
0000
,
0110
0000
1000
0000
0110
0000
0001
0010
,
0100
1000
0020
0000
0130
0000
0001
1000
,
0100
0020
0000
0230
0000
0300
1000
0010
,
0100
0001
0020
0000
0130
0000
2002
0000
,
0000
0000
0000
0000
,
0000
0000
3003
0010
,
1001
0000
0000
0000
0100
0000
0000
0010
0000
0000
0100
0000
0000
0000
0000
0000
;

//---------------dance-single - Daff_4K----------------
#NOTES:
     dance-single:
     :
     Hard:
     12:
     0.523589,0.557687,0.352938,0.253391,0.217193,405.000000,366.000000,39.000000,28.000000,0.000000,0.000000,0.523589,0.557687,0.352938,0.253391,0.217193,405.000000,366.000000,39.000000,28.000000,0.000000,0.000000:
// measure 0
0000
0000
0000
0000
,  // measure 1
0000
0000
0000
0000
,  // measure 2
0000
0000
0000
0000
,  // measure 3
0000
0000
0000
0000
,  // measure 4
1100
0000
0000
0000
0011
0000
0000
0000
0100
0000
0000
1000
0000
0000
0010
0000
,  // measure 5
0101
0000
0000
0000
1010
0000
0000
0000
0100
0000
0000
0001
0000
0000
0010
0000
,  // measure 6
0110
0000
0000
0000
1001
0000
0000
0000
1000
0000
0000
0001
0000
0000
0100
0000
,  // measure 7
0110
0000
0000
0000
1001
0000
0000
0000
0001
1000
0001
1000
0100
0000
0010
0000
,  // measure 8
0002
1000
0003
0001
0100
1000
0100
0010
,  // measure 9
2000
0100
3000
1000
0001
0100
0010
1000
,  // measure 10
0200
0001
0300
0100
0010
0001
0100
0010
,  // measure 11
1000
0000
0001
0010
0001
0000
1000
0010
1000
0000
0001
0000
0100
0000
0010
0000
,  // measure 12
2000
0001
3000
1000
0100
0001
0100
0010
,  // measure 13
0002
0100
0003
0001
1000
0100
0010
0001
,  // measure 14
0200
1000
0300
0100
0010
1000
0100
0010
,  // measure 15
0001
0000
1000
0010
1000
0000
0001
0010
0001
0000
1000
0000
0100
0000
0010
0000
,  // measure 16
0002
0000
0100
0000
1000
0000
0013
0001
,  // measure 17
0200
0000
1000
0000
0010
0000
0301
0100
,  // measure 18
0020
0000
1000
0000
0100
0000
0031
0010
,  // measure 19
1000
0000
0001
0100
0001
0000
1000
0010
1000
0000
0001
0000
0100
0000
0010
0000
,  // measure 20
2000
0000
0100
0000
0001
0000
3010
1000
,  // measure 21
0200
0000
0001
0000
0010
0000
1300
0100
,  // measure 22
0020
0000
0001
0000
0100
0000
1030
0010
,  // measure 23
0001
0000
1000
0100
1000
0000
0001
0010
0001
0000
1000
0000
0100
0000
0010
0000
,  // measure 24
0001
0100
1000
0100
0020
0000
1030
0001
,  // measure 25
0000
0110
0000
1000
0001
0000
1001
0000
,  // measure 26
1000
0100
0010
0100
0001
0100
1000
0010
,  // measure 27
0200
0000
0000
0000
0301
0000
1000
0000
0100
0010
0000
0100
0010
0000
0001
0000
,  // measure 28
1000
0100
0001
0100
0020
0000
0031
1000
,  // measure 29
0000
0110
0000
0001
1000
0000
1001
0000
,  // measure 30
0001
0100
0010
0100
1000
0100
0001
2002
,  // measure 31
0000
0000
0000
0000
,  // measure 32
0000
0000
3003
1100
,  // measure 33
0011
0000
0001
1000
0110
0000
0001
0010
,  // measure 34
1000
0000
0020
0000
0000
0000
0031
0000
1000
0000
0001
0000
0000
0001
0100
0000
,  // measure 35
1000
0100
0010
1000
0001
0020
1000
0000
,  // measure 36
0130
0000
0000
0000
0010
0001
0000
0000
1000
0001
0000
0000
0101
0000
0000
0000
,  // measure 37
1010
0000
1000
0001
0110
0000
1000
0010
,  // measure 38
0001
0000
0020
0000
0000
0000
1030
0000
0001
0000
1000
0000
0000
1000
0100
0000
,  // measure 39
0001
0100
0010
0001
0100
2000
0000
3100
,  // measure 40
0020
0000
0000
0000
1030
0000
0001
0000
0010
0000
0100
0000
1000
0001
0000
0000
,  // measure 41
1010
0000
0000
0000
0001
1000
0000
0000
0101
0000
0000
0000
1000
0000
0010
0000
,  // measure 42
0001
0000
0020
0000
0000
0000
0130
0000
0001
0000
0000
0000
1000
0100
0000
0000
,  // measure 43
1010
0000
0000
0000
0001
0100
0000
0000
0011
0000
0000
0000
1000
0000
0100
0000
,  // measure 44
0010
0000
0001
0000
0100
0010
0000
0100
0010
0000
1000
0000
0001
1000
0000
0000
,  // measure 45
0011
0000
0000
0000
1000
0001
0000
0000
1100
0000
0000
0000
0001
0000
0010
0000
,  // measure 46
1000
0000
0020
0000
0000
0000
0130
0000
1000
0000
0000
0000
0001
0100
0000
0000
,  // measure 47
0011
0000
0000
0000
1000
0100
0000
0000
1010
0000
0000
0000
0001
0000
0100
0000
,  // measure 48
1000
0000
0100
0000
0001
1000
0000
1000
0001
0000
0010
0000
0100
1000
0000
0000
,  // measure 49
0011
0000
0000
0000
0100
0001
0000
0000
1010
0000
0000
0000
0001
0000
0100
0000
,  // measure 50
1000
0000
0100
0000
0010
0000
1000
0000
0001
0000
0010
0000
0001
1000
0000
0000
,  // measure 51
0011
0000
0000
0000
1000
0001
0000
0000
1010
0000
0000
0000
0001
0000
0100
0000
,  // measure 52
0010
0000
1000
0000
0100
0010
0000
0100
0010
0000
0001
0000
0100
0001
0000
0000
,  // measure 53
1010
0000
0000
0000
0100
1000
0000
0000
0011
0000
0000
0000
1000
0000
0100
0000
,  // measure 54
0001
0000
0100
0000
0010
0000
0001
0000
1000
0000
0010
0000
1000
0001
0000
0000
,  // measure 55
1010
0000
0000
0000
0001
1000
0000
0000
0011
0000
0000
0000
1000
0000
0100
0000
,  // measure 56
0010
0002
0000
0103
0020
0000
1030
0001
,  // measure 57
0010
0000
0100
1000
0000
0001
0000
0100
0000
0010
0100
0000
0001
0000
1000
0000
,  // measure 58
0010
0000
0100
0000
0001
0000
1000
0100
0000
0010
0001
0000
2002
0000
0000
0000
,  // measure 59
0000
0000
0000
0000
,  // measure 60
0000
0000
3003
0101
,  // measure 61
1010
0000
0000
0000
1000
0000
0000
0001
0000
0000
0110
0000
0000
0000
0000
0000
;

//---------------dance-single - Backyun!! -Bad Daff_4K-----------------
#NOTES:
     dance-single:
     :
     Challenge:
     14:
     0.599865,0.613456,0.515832,0.180994,0.352938,464.000000,407.000000,57.000000,20.000000,136.000000,0.000000,0.599865,0.613456,0.515832,0.180994,0.352938,464.000000,407.000000,57.000000,20.000000,136.000000,0.000000:
0000
0000
0000
0000
,
0000
0000
0000
0000
,
0000
0000
0000
0000
,
0000
0000
0000
0000
,
1010
0000
0000
0000
MMMM
0000
0000
0000
0101
0000
0000
0010
0000
0000
1100
0000
,
0011
0000
0000
0000
MMMM
0000
0000
0000
1100
0000
0000
0010
0000
0000
0101
0000
,
0110
0000
0000
0000
MMMM
0000
0000
0000
1001
0000
0000
0110
0000
0000
1001
0000
,
1000
0000
0001
0000
0100
0000
0010
0000
1000
0001
1000
0001
0010
0000
0100
0000
,
1000
1020
0000
0031
0010
0100
0001
1000
,
0100
0120
0000
0031
0100
1000
0001
0010
,
1000
1200
0000
0310
0001
1000
0010
0100
,
MMMM
0000
0001
0010
0100
0000
1000
0010
0100
0000
0001
0100
0010
0000
1000
0000
,
0001
0021
0000
1030
0010
0100
1000
0001
,
0100
0120
0000
1030
0100
0001
1000
0010
,
0001
0201
0000
0310
1000
0001
0010
0100
,
MMMM
0000
1000
0010
0100
0000
0001
0010
0100
0000
1000
0100
0010
0000
0001
0000
,
1002
0000
0100
0000
0010
0000
1003
MMMM
,
0201
0000
1000
0000
0010
0000
0301
MMMM
,
2010
0000
0001
0000
0100
0000
3010
MMMM
,
0100
0000
0001
0010
0100
0000
1000
0010
0100
0000
0001
0100
0010
0000
1000
0000
,
2001
0000
0100
0000
0010
0000
3001
MMMM
,
1200
0000
0001
0000
0010
0000
1300
MMMM
,
0012
0000
1000
0000
0100
0000
0013
MMMM
,
0100
0000
1000
0010
0100
0000
0001
0010
0100
0000
1000
0100
0010
0000
0001
0000
,
1000
0100
0001
0100
1100
MMMM
1000
0010
,
0001
0010
1000
0100
0110
MMMM
1001
0001
,
0010
1000
0010
0100
0010
0001
1000
0001
,
0100
0000
0010
0100
0010
0000
1000
0000
0001
1000
0000
1000
0100
0000
0010
0000
,
0001
0100
1000
0100
0101
MMMM
0001
0010
,
1000
0010
0001
0100
0110
MMMM
1001
1000
,
0010
0001
0010
0100
0010
1000
0001
2002
,
0000
0000
0000
0000
,
0000
0000
0000
0000
3003
0000
0000
0000
MMMM
0000
0000
0000
0110
0000
0000
0001
,
0010
0000
0000
1000
0010
0000
0100
0000
1001
0000
0000
0001
0100
0000
0010
1000
,
0100
0000
0010
0001
0100
0000
0010
0000
1000
0000
0102
0000
0000
0000
0013
0000
,
1000
0001
0100
1000
0010
0200
0000
0301
,
1000
0000
0100
0010
0100
0010
0000
0001
1000
0000
MMMM
0000
0110
0000
0000
1000
,
0010
0000
0000
0001
0010
0000
0100
0000
1001
0000
0000
1000
0100
0000
0010
0001
,
0100
0000
0010
1000
0100
0000
0010
0000
0001
0000
2100
0000
0000
0000
3010
0000
,
0001
1000
0100
0001
0010
0200
0000
1300
,
0001
0000
0100
0010
0100
0010
0000
1000
0001
0000
MMMM
0000
1000
0100
0000
0000
,
1010
0000
MMMM
0000
0001
0100
0000
0000
0011
0000
MMMM
0000
1000
0000
0100
0010
,
0100
0000
0001
0000
1000
0000
0010
0000
0001
0000
0100
0000
0010
1000
0000
0000
,
0101
0000
MMMM
0000
0010
0001
0000
0000
1100
0000
MMMM
0000
0001
0000
0100
0000
,
1000
0000
0001
0000
0010
1000
0000
1000
0100
0000
0010
0000
0001
0100
0000
0000
,
0011
0000
MMMM
0000
1000
0100
0000
0000
1010
0000
MMMM
0000
0001
0000
0100
0010
,
0100
0000
1000
0000
0001
0000
0010
0000
1000
0000
0100
0000
0010
0001
0000
0000
,
1100
0000
MMMM
0000
0010
1000
0000
0000
0101
0000
MMMM
0000
1000
0000
0100
0000
,
0001
0000
1000
0000
0010
0100
0010
0100
0010
0000
0001
0000
1000
0010
0000
0000
,
0101
0000
0010
0000
1000
0100
0000
0000
0011
0000
MMMM
0000
0100
1000
0100
0000
,
1000
0001
1000
0000
0001
0100
0010
0000
1000
0000
0100
0000
0010
0001
0000
0000
,
1100
0000
0010
0000
1000
0100
0000
0000
0011
0000
MMMM
0000
0100
1000
0100
0000
,
1000
0001
1000
0000
0001
0100
0000
0100
0010
0000
1000
0000
0001
0010
0000
0000
,
1100
0000
0010
0000
0001
0100
0000
0000
1010
0000
MMMM
0000
0100
0001
0100
0000
,
0001
1000
0001
0000
1000
0100
0010
0000
0001
0000
0100
0000
0010
1000
0000
0000
,
0101
0000
0010
0000
0001
0100
0000
0000
1010
0000
MMMM
0000
0100
0000
0001
0000
,
0010
0000
0100
0000
1000
0000
0010
0100
0010
0000
0100
0000
0001
0000
0010
0000
,
0100
0000
1000
0010
0100
0001
0000
1000
0000
0001
0010
0100
1000
0000
0010
0000
,
0100
0000
0001
0000
1000
0010
0000
0001
0000
0010
1000
0000
2002
0000
0000
0000
,
0000
0000
3003
MMMM
,
MMMM
MMMM
MMMM
0011
,
1010
0000
0000
0000
1001
0000
0000
0110
0000
0000
1001
0000
0000
0000
0000
0000
;
