#VERSION:0.83;
#TITLE:A Little Respect;
#SUBTITLE:;
#ARTIST:Erasure;
#TITLETRANSLIT:;
#SUBTITLETRANSLIT:;
#ARTISTTRANSLIT:;
#GENRE:;
#ORIGIN:;
#CREDIT:;
#BANNER:banner.png;
#BACKGROUND:A Little Respect-bg.png;
#PREVIEWVID:;
#JACKET:jacket.png;
#CDIMAGE:;
#DISCIMAGE:;
#LYRICSPATH:;
#CDTITLE:;
#MUSIC:A Little Respect.ogg;
#OFFSET:-1.181747;
#SAMPLESTART:100.267273;
#SAMPLELENGTH:12.000000;
#SELECTABLE:YES;
#BPMS:0.000=114.000;
#STOPS:;
#DELAYS:;
#WARPS:;
#TIMESIGNATURES:0.000=4=4;
#TICKCOUNTS:0.000=4;
#COMBOS:0.000=1;
#SPEEDS:0.000=1.000=0.000=0;
#SCROLLS:0.000=1.000;
#FAKES:;
#LABELS:0.000=Song Start;
#BGCHANGES:;
#KEYSOUNDS:;
#ATTACKS:
;

//---------------dance-single - ----------------
#NOTEDATA:;
#CHARTNAME:;
#STEPSTYPE:dance-single;
#DESCRIPTION:;
#CHARTSTYLE:;
#DIFFICULTY:Beginner;
#METER:2;
#RADARVALUES:0.093195,0.136145,0.007091,0.000000,0.000000,92.000000,91.000000,1.000000,0.000000,0.000000,0.000000,0.000000,0.000000,0.000000,0.093195,0.136145,0.007091,0.000000,0.000000,92.000000,91.000000,1.000000,0.000000,0.000000,0.000000,0.000000,0.000000,0.000000;
#CREDIT:;
#NOTES:
0000
0000
0000
0000
,
0000
0000
0000
0000
,
0000
0000
0000
0000
,
0000
0000
0000
0000
,
1000
0000
0000
0000
,
0001
0000
0001
0000
,
0100
0000
0000
0000
,
0010
0000
0010
0000
,
1000
0000
0000
0000
,
0100
0000
0100
0000
,
0010
0000
0000
0000
,
0001
0000
0001
0000
,
1000
0000
0000
0000
,
0010
0000
0010
0000
,
0100
0000
0000
0000
,
0001
0000
0001
0000
,
1000
0000
1000
0000
,
0001
0000
0001
0000
,
0010
0000
0010
0000
,
0100
0000
0100
0100
,
0100
0000
0000
0000
,
0010
0000
0000
0000
,
0001
0000
0000
0000
,
1000
0000
0000
0000
,
0010
0000
0000
0000
,
0100
0000
0100
0100
,
0100
0000
0000
0000
,
0001
0000
0001
0000
,
1000
0000
0000
0000
,
0100
0000
0000
0000
,
0010
0000
0000
0000
,
0001
0000
0000
0000
,
1000
0000
0000
0000
,
0010
0000
0000
0000
,
0100
0000
0000
0000
,
0001
0000
0000
0000
,
1000
0000
1000
0000
,
0100
0000
0000
0000
,
0010
0000
0010
0000
,
0001
0000
0000
0000
,
1000
0000
1000
0000
,
0010
0000
0000
0000
,
0100
0000
0100
0000
,
0001
0000
0000
0000
,
0010
0000
0010
0000
,
0100
0000
0000
0000
,
1000
0000
1000
0000
,
0001
0000
0000
0000
,
0100
0000
0100
0000
,
0010
0000
0000
0000
,
1000
0000
1000
0000
,
0001
0000
0000
0000
,
0010
0000
0010
0000
,
0100
0000
0000
0000
,
1000
0000
1000
0000
,
0001
0000
0000
0000
,
1000
0000
1000
0000
,
0010
0000
0000
0000
,
0100
0000
0100
0000
,
0001
0000
0000
0000
,
1000
0000
1000
0000
,
0001
0000
0001
0000
,
0100
0000
0100
0000
,
0010
0000
0010
0000
,
1001
0000
0000
0000
;

//---------------dance-single - ----------------
#NOTEDATA:;
#CHARTNAME:;
#STEPSTYPE:dance-single;
#DESCRIPTION:;
#CHARTSTYLE:;
#DIFFICULTY:Easy;
#METER:5;
#RADARVALUES:0.209688,0.233999,0.014182,0.078000,0.000000,207.000000,205.000000,2.000000,11.000000,0.000000,0.000000,0.000000,0.000000,0.000000,0.209688,0.233999,0.014182,0.078000,0.000000,207.000000,205.000000,2.000000,11.000000,0.000000,0.000000,0.000000,0.000000,0.000000;
#CREDIT:;
#NOTES:
0000
0000
0000
0000
,
0000
0000
0000
0000
,
0000
0000
0000
0000
,
0000
0000
0000
0000
,
1000
1000
0000
0000
,
0001
0001
0100
0100
,
0010
0010
1000
0000
,
0001
0001
0010
0010
,
0100
0000
0000
0000
,
0010
0010
0001
0001
,
1000
1000
0000
0000
,
0001
0100
0010
1000
,
0100
0010
0001
0000
,
0001
0010
0100
1000
,
0010
0100
0001
0000
,
1000
1000
0001
0001
,
1000
0000
1000
1000
,
0100
0010
0010
0000
,
0001
0001
0100
0100
,
0010
0010
1000
1000
,
0002
0100
1003
0000
,
1000
0010
0100
0001
,
2000
0100
3001
0000
,
0001
0010
0100
1000
,
0020
0100
0130
0000
,
0010
1000
0100
0010
,
0200
1000
1300
0000
,
1000
0001
0100
0010
,
1001
0000
1000
0000
,
0001
0000
0001
0000
,
1000
0000
1000
0000
,
0010
0000
0010
0000
,
0100
0100
0001
0001
,
0010
0010
0100
0100
,
1000
1000
0001
0001
,
0100
0010
0010
0010
,
1000
0100
1000
0000
,
0001
0100
0001
0010
,
0001
1000
0001
0000
,
1000
0010
0100
0001
,
0010
0000
0010
0100
,
0001
0001
0001
0000
,
1000
1000
0010
0010
,
0100
0100
0001
1000
,
0002
1000
1003
0000
,
0001
0100
0001
0001
,
1000
1000
0001
0000
,
0001
0100
0100
0001
,
2000
0001
3001
0000
,
1000
0010
0100
0100
,
0002
1000
1003
0000
,
1000
0100
0001
0010
,
1000
1000
0001
0000
,
1000
0010
0100
0001
,
0010
0010
0100
0000
,
0100
0010
0001
0100
,
0002
1000
1003
0000
,
1000
0010
0100
0001
,
2000
0001
3001
0000
,
0001
0100
1000
0010
,
0001
0001
1000
1000
,
0010
0010
0100
0100
,
0001
0001
0010
0010
,
0100
0100
1000
1000
,
2002
0000
0000
0000
,
0000
0000
0000
0000
,
3003
0000
0000
0000
;

//---------------dance-single - ----------------
#NOTEDATA:;
#CHARTNAME:;
#STEPSTYPE:dance-single;
#DESCRIPTION:;
#CHARTSTYLE:;
#DIFFICULTY:Medium;
#METER:6;
#RADARVALUES:0.280597,0.327599,0.035454,0.134727,0.000000,277.000000,272.000000,5.000000,19.000000,0.000000,0.000000,0.000000,0.000000,0.000000,0.280597,0.327599,0.035454,0.134727,0.000000,277.000000,272.000000,5.000000,19.000000,0.000000,0.000000,0.000000,0.000000,0.000000;
#CREDIT:;
#NOTES:
0000
0000
0000
0000
,
0000
0000
0000
0000
,
0000
0000
0000
0000
,
0000
0000
1000
0000
0001
0100
0010
0000
,
1000
1000
0001
0000
,
1000
0000
0100
0000
0010
0001
0010
0000
,
0100
1000
0001
0001
,
0000
0000
1000
0000
0010
0100
0001
0000
,
0010
0010
0100
0000
,
0000
0000
0010
0000
0001
1000
0010
0000
,
0100
0100
0001
0000
,
1000
0100
0010
0001
,
0100
0100
0001
0000
,
0001
1000
0100
1000
,
0010
1000
1000
0000
,
0001
0000
0000
0000
1000
1000
0010
0000
,
0100
0000
0000
0000
0001
0001
0010
0000
,
0100
0100
1000
1000
0001
0000
0001
0000
,
1000
1000
0001
0001
,
0100
0100
0010
0010
,
0200
1000
0301
0000
,
0001
0010
0100
1000
,
0020
0001
1030
0000
,
1000
0001
0010
0100
,
2000
0001
3001
0000
,
1000
0000
0010
0000
0100
0000
0100
0001
,
0002
1000
1003
0000
,
0001
0000
0100
0000
0010
1000
0010
0100
,
0001
0001
1000
1000
,
0100
0100
0010
0010
,
0001
0001
0100
0100
,
0010
0000
0010
0000
1000
0001
1000
0000
,
0100
0100
0100
1000
,
0001
0000
1000
0000
0001
1000
0010
0000
,
1000
1000
1000
1000
,
0001
0010
0001
0000
0001
0010
0001
0000
,
0100
0100
0010
0010
,
1000
0000
1000
0000
0001
0100
0001
0000
,
1000
1000
0100
0100
,
1000
0000
1000
0000
0010
1000
0001
0000
,
0010
0010
0010
0000
0001
0000
1000
0000
,
0100
0100
0100
0000
1000
0000
0001
0000
,
1000
0001
0100
0000
0001
1000
0100
0000
,
1000
0001
0010
0000
0001
1000
0010
0000
,
2000
0100
0010
3001
,
0001
1000
0010
0000
0010
1000
0001
0000
,
0002
0100
0010
1003
,
1000
0010
0100
0000
0001
0010
0100
0000
,
2000
0010
3100
1000
,
0002
0010
0103
0001
,
2100
3001
0012
1003
,
2000
0100
3001
1000
,
0001
0000
1000
0000
0010
0100
0001
0000
,
1000
0000
0001
0000
0010
0100
1000
0000
,
0001
0000
0100
0000
1000
0100
0001
0000
,
1000
0000
0100
0000
0001
0100
1000
0000
,
0002
0103
2000
3010
,
0002
0013
2000
3100
,
2010
3001
0102
1003
,
1000
0001
1000
0000
0001
0100
0010
0000
,
1000
1000
0100
0000
0010
0010
0001
0000
,
1000
0010
0100
0000
0001
0100
0010
0000
,
1000
1000
0100
0000
0010
0010
0001
0000
,
1000
0010
0100
0000
0001
0100
0010
0000
,
2002
0000
0000
0000
,
0000
0000
0000
0000
,
3003
0000
0000
0000
;

//---------------dance-single - ----------------
#NOTEDATA:;
#CHARTNAME:;
#STEPSTYPE:dance-single;
#DESCRIPTION:;
#CHARTSTYLE:;
#DIFFICULTY:Hard;
#METER:10;
#RADARVALUES:0.393038,0.421199,0.113454,0.127636,0.085091,388.000000,372.000000,16.000000,18.000000,0.000000,0.000000,0.000000,0.000000,0.000000,0.393038,0.421199,0.113454,0.127636,0.085091,388.000000,372.000000,16.000000,18.000000,0.000000,0.000000,0.000000,0.000000,0.000000;
#CREDIT:;
#NOTES:
0000
0000
0000
0000
,
0000
0000
0000
0000
,
0000
0000
0000
0000
,
0000
0000
0000
1000
0001
0100
0010
0100
,
0001
0001
1000
1000
,
0100
0010
0100
1000
0010
0100
0001
0010
,
0100
0010
0001
0001
,
1000
0000
0010
0100
0001
1000
0010
0100
,
0001
0001
1000
1000
,
0100
0000
1000
0001
0010
0100
1000
0001
,
0010
0001
1000
0001
,
1000
0010
0100
0010
0001
0010
0100
0010
,
2000
3001
0002
1003
,
0001
0010
0100
0010
1000
0010
0100
0010
,
0002
1003
2000
3001
,
1000
0000
0000
0000
0010
0000
0000
0000
0100
0000
0000
0001
0000
0000
0001
0000
,
1000
0000
0100
0000
1000
0000
0000
0000
0001
0000
0000
1000
0000
0000
1000
0000
,
0010
1000
0001
0001
1100
0000
1001
0000
,
0001
0000
0000
0010
0000
0000
0010
0000
0100
0000
0000
1000
0000
0000
1000
0000
,
0010
0000
0000
0100
0000
0000
0100
0000
0001
0000
0000
1000
0000
0000
1000
0000
,
0001
1000
1100
0000
1000
0001
0101
0000
,
0001
0010
0100
1000
0010
0100
1000
0100
,
0001
1000
1010
0000
1000
0001
0011
0000
,
0001
1000
0010
0100
0001
1000
0100
0010
,
0001
1100
1000
0011
,
0001
0000
0000
0000
1000
0000
0000
0000
0010
0000
0000
0100
0000
0000
0100
0000
,
0001
0011
1000
1010
,
0010
0100
0001
1000
0100
0010
0001
1000
,
0001
0000
0001
0000
1000
0000
0000
0000
0010
0000
0000
0010
0000
0000
0100
0000
,
0001
0000
1000
0000
0100
0000
0000
0000
1000
0000
0000
1000
0000
0000
0001
0000
,
0010
0000
0001
0000
0100
0000
0000
0000
0010
0000
0000
0010
0000
0000
1000
0000
,
0100
0000
1000
0000
0010
0000
0100
0000
0200
0000
0000
0001
0000
0000
0301
0000
,
2000
0100
0010
3001
,
1000
0000
0000
0000
0100
0000
1000
0000
0020
0000
0000
0100
0000
0000
0130
0000
,
0002
0010
0100
1003
,
0001
0100
1000
0100
0001
0010
1000
0010
,
0002
1000
0100
1003
,
1000
0010
0100
0001
1000
0100
0010
0001
,
2000
0001
0100
3001
,
0010
0000
0000
0000
1001
0000
0000
0000
0001
0000
0000
1000
0000
0000
0010
0000
,
2000
0000
0001
0000
3001
0000
0000
0000
1000
0000
0000
0100
0000
0000
1000
0000
,
0002
1000
1003
0010
0100
0000
1001
0000
,
0001
0000
0000
0010
0000
0000
1000
0000
0001
0000
0000
0100
0000
0000
1000
0000
,
1000
0000
0000
0010
0000
0000
0001
0000
1000
0000
0000
0100
0000
0000
0001
0000
,
1000
0100
1000
0000
0010
0000
1001
0000
,
0001
0010
0100
1000
0010
0100
1000
0100
,
0001
0010
0100
0000
0011
0000
1100
0000
,
0001
0100
0100
0010
0100
0100
0001
0001
,
1000
0100
1000
0000
0001
0100
0001
0000
,
1000
0000
0010
0000
0100
0000
0000
0000
0001
0000
0000
0010
0000
0000
0100
0000
,
0010
0010
0001
0000
1000
1000
0010
0000
,
1000
0100
0001
0100
1000
0010
0001
0010
,
1000
0100
0010
0000
0010
0001
1000
0000
,
1000
0010
0100
0010
1000
0100
0001
0100
,
1000
0010
0100
0000
0100
0001
1000
0000
,
0001
0010
0100
0010
0001
0100
0010
0100
,
0001
1000
0100
0000
0010
0001
0100
0000
,
0010
0000
0100
0000
0001
0000
0000
0000
0010
0000
0000
0100
0000
0000
1000
0000
,
0001
0100
1000
0000
1000
0100
0001
0000
,
0001
0010
1000
0010
0001
0100
1000
0100
,
0001
0000
0010
0000
0100
0000
1000
0000
0020
0000
0000
0100
0000
0000
0130
0000
,
0001
0000
0100
0000
0010
0000
1000
0000
0200
0000
0000
0010
0000
0000
0310
0000
,
0001
0000
0100
0000
1000
0000
0100
0000
0002
0000
0000
1000
0000
0000
1003
0000
,
0001
0000
0010
0000
1000
0000
0010
0000
0200
0000
0000
1000
0000
0000
1300
0000
,
2002
0000
0000
0000
,
0000
0000
0000
0000
,
3003
0000
0000
0000
;

//---------------dance-single - ----------------
#NOTEDATA:;
#CHARTNAME:;
#STEPSTYPE:dance-single;
#DESCRIPTION:;
#CHARTSTYLE:;
#DIFFICULTY:Challenge;
#METER:12;
#RADARVALUES:0.467999,0.491399,0.063818,0.311999,0.177272,462.000000,453.000000,9.000000,44.000000,0.000000,0.000000,0.000000,0.000000,0.000000,0.467999,0.491399,0.063818,0.311999,0.177272,462.000000,453.000000,9.000000,44.000000,0.000000,0.000000,0.000000,0.000000,0.000000;
#CREDIT:;
#NOTES:
// measure 0
0000
0000
0000
0000
,  // measure 1
0000
0000
0000
0000
,  // measure 2
0000
0000
0000
0000
,  // measure 3
0000
0000
1000
0100
0010
0001
0100
0010
,  // measure 4
1000
1000
0001
0001
,  // measure 5
1000
0010
0100
0001
1000
0100
0010
0001
,  // measure 6
0100
0100
0010
0000
0100
0100
0001
0000
,  // measure 7
1000
0000
0001
0010
0100
1000
0010
0100
,  // measure 8
0001
0001
1000
1000
,  // measure 9
0001
0000
1000
0100
0001
0100
0010
0001
,  // measure 10
1000
1000
0001
0000
1000
0010
0100
0000
,  // measure 11
0001
0010
1000
0010
0001
0100
1000
0100
,  // measure 12
0002
1000
1003
0001
2000
0001
3001
0000
,  // measure 13
1000
0100
0010
0001
1000
0010
0100
0001
,  // measure 14
0020
0100
0130
0010
0200
0010
0310
0000
,  // measure 15
0001
0000
1000
0000
0010
0000
0100
0000
0001
0000
1000
0001
0000
1000
0001
0000
,  // measure 16
2000
0000
0100
0000
3100
0000
0000
0000
1000
0000
0010
0100
0000
0010
0100
0000
,  // measure 17
0002
1000
2003
0001
3001
0000
1001
0000
,  // measure 18
0001
0000
0010
0100
0000
1000
0001
0000
1000
0000
0010
0100
0000
0001
1000
0000
,  // measure 19
0001
0000
0100
0010
0000
1000
0001
0000
1000
0000
0100
0010
0000
0001
1000
0000
,  // measure 20
0020
0100
0130
0010
0200
0010
0310
0000
,  // measure 21
1000
0100
0010
0001
0100
0010
1000
0001
,  // measure 22
2000
0001
3001
1000
0002
1000
1003
0000
,  // measure 23
0001
0010
0100
1000
0010
0100
1000
0100
,  // measure 24
0002
0010
1003
0000
2000
0010
3001
0000
,  // measure 25
0001
0000
0100
0000
1000
0000
0100
0000
0001
0000
0010
0100
0000
0010
0100
0000
,  // measure 26
2000
0010
3001
0000
0002
0010
1003
0000
,  // measure 27
1000
0100
0010
0001
1000
0010
0001
0100
,  // measure 28
1000
0000
0000
0000
0101
0000
0000
0000
0001
0000
1000
0001
0000
1000
0001
0000
,  // measure 29
0100
0000
0000
0000
1001
0000
0000
0000
1000
0000
0001
0010
0000
0001
0010
0000
,  // measure 30
0100
0000
0000
0000
1001
0000
0000
0000
1000
0000
0010
0100
0000
0001
1000
0000
,  // measure 31
0001
0000
0000
0000
1100
0000
0001
0010
0200
0000
0000
1000
0000
0000
1300
0000
,  // measure 32
2010
0100
0010
0100
,  // measure 33
3001
0000
0000
0000
1000
0000
0001
0010
0200
0000
0000
0010
0000
0000
0310
0000
,  // measure 34
0012
0100
0010
1003
,  // measure 35
1000
0000
0010
0000
0100
0000
0001
0000
1000
0000
0100
0000
0010
0001
0010
0001
,  // measure 36
0200
0010
0310
0100
0020
0100
0130
0000
,  // measure 37
0001
1000
0100
0001
0100
1000
0010
1000
,  // measure 38
0002
1000
1003
0001
2000
0001
3001
0000
,  // measure 39
1000
0000
0100
0000
0010
0000
0001
0000
0100
0000
0010
0100
0000
0100
0001
0000
,  // measure 40
0020
0000
0100
0000
0130
0000
0000
0000
0010
0000
0001
1000
0000
1000
0010
0000
,  // measure 41
0200
0001
0302
1000
1003
0000
1001
0000
,  // measure 42
0001
0000
0010
0100
0000
1000
0001
0000
1000
0000
0100
0010
0000
0001
1000
0000
,  // measure 43
0001
0000
0100
0010
0000
1000
0001
0000
1000
0000
0010
0100
0000
0001
1000
0000
,  // measure 44
0002
0010
0013
0001
0020
0001
0031
0000
,  // measure 45
1000
0010
0100
0001
1000
0100
0010
0001
,  // measure 46
0200
0010
0310
0100
0020
0100
0130
0000
,  // measure 47
0010
1000
0100
0001
0100
1000
0001
0100
,  // measure 48
0002
0010
1003
0000
2000
0010
3001
0000
,  // measure 49
1000
0000
0100
0000
0100
0000
0001
0000
0100
0000
0010
0001
0000
0010
0001
0000
,  // measure 50
0200
0010
0310
0000
0020
0100
0130
0000
,  // measure 51
0001
1000
0100
0010
0001
0100
1000
0010
,  // measure 52
0002
1000
1003
0001
2000
0001
3001
0000
,  // measure 53
1000
0010
0100
0001
0010
0100
1000
0001
,  // measure 54
0200
0010
0310
0100
0020
0100
0130
0000
,  // measure 55
0001
1000
0100
0001
0100
1000
0010
0100
,  // measure 56
0002
0010
1003
0000
2000
0010
3001
0000
,  // measure 57
1000
0000
0010
0000
0100
0000
0001
0000
0010
0000
0100
0010
0000
0100
0010
0000
,  // measure 58
0002
0100
1003
0000
2000
0100
3001
0000
,  // measure 59
1000
0010
0100
0001
1000
0100
0001
0010
,  // measure 60
1000
0000
0001
0000
0100
0000
0010
0000
1000
0000
0001
1000
0000
0001
1000
0000
,  // measure 61
0001
0000
0010
0000
0100
0000
1000
0000
0010
0000
1000
0001
0000
1000
0001
0000
,  // measure 62
1000
0000
0010
0000
0100
0000
0001
0000
1000
0000
0100
0010
0000
0100
0010
0000
,  // measure 63
0001
0000
1000
0000
0010
0000
0100
0000
0001
0000
0010
0100
0000
0010
0100
0000
,  // measure 64
2002
0000
0000
0000
,  // measure 65
0000
0000
0000
0000
,  // measure 66
3003
0000
0000
0000
;
