#TITLE:zeeros;
#SUBTITLE:;
#ARTIST:onoken;
#TITLETRANSLIT:;
#SUBTITLETRANSLIT:;
#ARTISTTRANSLIT:;
#GENRE:;
#CREDIT:;
#MUSIC:zeeros.ogg;
#BANNER:zeeros.png;
#BACKGROUND:zeeros-bg.png;
#CDTITLE:;
#SAMPLESTART:58.532;
#SAMPLELENGTH:15.000;
#SELECTABLE:YES;
#OFFSET:1.741;
#BPMS:0.000=93.000
,29.500=83.000
,30.500=73.000
,31.000=187.000
,259.000=166.000
,261.000=146.000
,263.000=144.000
,264.000=154.000
,265.000=186.000
,341.000=93.000
;
#STOPS:;
#BGCHANGES:0.000=../BGAs/22wh.mp4=1.000=0=0=0=StretchNoLoop====,
99999.000=-nosongbg-=1.000=0=0=0=StretchNoLoop====
;
#FGCHANGES:;

//--------------- dance-single - Princess Pamela ----------------
#NOTES:
     dance-single:
     Princess Pamela:
     Easy:
     9:
     0,0,0,0,0:
0000
0000
0000
0000
,
0000
0000
0000
0000
,
0000
0000
0000
0000
,
0000
0000
0000
0000
0000
0000
0000
1000
,
0001
0000
1000
1000
0000
0001
0001
0000
,
0100
0010
0000
1000
0001
0000
0010
0100
,
0000
1000
0001
0000
0000
0000
0000
0000
,
0220
0000
0000
0330
0000
0000
2002
0000
0000
3003
0000
0000
2200
0000
0000
0000
,
0000
0300
0000
0000
0010
0000
3010
0000
,
0000
0000
0202
0000
0000
0300
0000
0000
,
0010
0013
0000
2002
,
0000
0003
0000
0000
0010
0000
3010
0000
,
0000
0200
0001
0302
,
0023
0230
1300
2002
,
3000
0000
0100
0100
0103
0000
0001
0000
,
0010
0000
2002
0000
0003
0000
0100
0100
,
3100
1000
0010
0220
,
0030
0000
0001
0001
0301
0000
0100
0000
,
0010
2000
0000
0000
,
3001
0000
0000
0010
0000
0000
0200
0000
,
0000
0000
0000
0000
0310
0000
0000
1001
,
0000
0000
2000
0000
0000
3100
0000
0000
,
0002
0000
0000
0103
0000
0000
2000
0000
,
0000
3010
0000
0000
0002
0000
0000
0013
,
0000
0000
2000
0000
0000
0100
0000
0000
,
3001
0000
0000
1001
0000
0000
0002
0000
,
0000
0100
0000
0000
1003
0000
0000
1001
,
0000
0000
2100
0000
0000
3010
0000
0000
,
0102
0000
0000
0013
0000
0000
1001
0000
,
0000
0100
0000
0000
0220
0000
0000
0000
,
0330
0000
0001
0000
0000
0001
0000
0000
,
0100
0001
0100
0001
0000
0000
1000
0000
,
0000
1000
0000
0000
0100
1000
0100
1000
,
0000
0000
0001
0000
0000
0010
0000
0000
,
0001
1000
0001
1000
0000
0000
0110
0000
,
1000
0001
0010
0100
,
1000
0000
0002
0000
0100
0100
0103
0000
,
2000
0000
0100
0100
3100
0000
0020
0000
,
0100
0100
0130
0000
2002
0000
0000
0000
,
3003
0000
1000
0100
2000
0000
0010
0000
,
3010
0000
0100
0000
0001
0000
0010
0001
,
0010
0001
0010
0000
0100
0000
1000
0000
,
0001
0000
2001
0000
0000
0010
3010
0000
,
0100
0001
0010
1002
,
0000
0100
0103
0000
0010
0000
1000
0000
,
0100
0000
0110
0000
0010
0001
0010
0001
,
0010
0100
1000
0110
,
1000
0010
1000
0010
1000
0000
0001
0000
,
0010
0000
0210
0000
0300
1000
0100
0000
,
1000
0001
0100
0220
,
0300
1000
2000
0000
,
3030
0001
0010
0100
,
1000
0100
0010
0001
,
0010
0000
0100
0000
1000
0001
1000
0001
,
1000
0001
1000
0000
0010
0000
0100
0000
,
0001
0100
0010
1000
,
0010
0000
0100
0000
0001
1000
0001
1000
,
0001
1000
0002
0000
0000
0000
0003
0000
,
0020
0000
0030
0100
,
1000
0100
0020
0000
,
0030
0002
0000
0103
,
0020
0000
0000
1030
0000
0000
2002
0000
,
0000
3003
0220
0000
,
0330
0000
0001
0000
0000
0001
0000
0000
,
0001
0010
0100
1000
,
0100
0010
0001
0000
,
1000
1000
0000
0001
,
0001
0000
0100
0100
,
0000
0010
0100
0000
0110
0000
0000
0000
,
1000
0000
0001
0000
0000
1000
0001
0000
,
0010
0100
1000
0020
,
0000
0030
2002
0000
,
3003
0000
1000
0100
1000
0100
1000
0000
,
0010
0000
0010
0000
0110
0000
0001
0100
,
0001
0100
0001
0000
0010
0000
0100
0000
,
1000
0000
1002
0000
0000
0010
0013
0000
,
0001
1000
0010
2002
,
3003
0100
0220
0330
,
0010
0000
2001
0000
0000
0100
3100
0000
,
1000
0010
0100
0210
,
0001
0001
0301
0000
1000
0000
0100
0000
,
0010
0000
0210
0000
1000
1000
1300
0000
,
0001
0100
0010
1002
,
0010
0010
0013
0000
2001
0000
0010
0010
,
3010
0120
0230
0310
,
0110
2002
0000
0000
,
0000
3003
0000
0000
;

//--------------- dance-single - Princess Pamela ----------------
#NOTES:
     dance-single:
     Princess Pamela:
     Medium:
     13:
     0,0,0,0,0:
0000
0000
0000
0000
,
0000
0000
0000
0000
,
0000
0000
0000
0000
,
0000
0000
0000
0000
0000
0000
0000
0001
,
1000
0000
0000
0000
0010
0000
0010
0000
0000
0000
1000
0000
0001
0000
0000
0010
,
0100
0000
1000
0000
0100
0000
0010
0000
0001
0000
0000
0100
0010
0000
0100
0000
,
0000
0001
2000
0000
0000
0000
3000
0100
,
0220
0000
0000
0330
0000
0000
2002
0000
0000
3003
0000
0000
1200
0000
0000
0000
,
0301
0100
0001
0100
1000
0000
0010
0000
,
0100
0000
0201
0000
1300
0100
1000
0100
,
0001
0010
0100
2100
,
3010
0100
0010
0100
0002
0000
0013
0100
,
0010
0100
2000
0000
0001
0000
3001
0000
,
0001
0010
0100
1000
0010
0100
0002
0000
,
0103
1000
0100
1000
0100
0000
0001
0010
,
0100
0000
2100
0000
3100
0001
0100
0001
,
0100
0000
1000
0010
0100
0000
0102
0000
,
0013
0100
1000
0000
2010
0000
3100
0010
,
0001
0000
1000
0001
1000
0001
0000
0100
,
0001
0100
0001
0100
0000
0000
0001
1000
,
0001
1000
0000
0100
1000
0100
0010
0001
,
0000
0000
0100
0010
0100
0001
0000
0000
,
0010
0100
0010
0001
0000
0000
1000
0010
,
0100
0010
1000
0001
1000
0100
0010
0001
,
0000
0000
0100
0001
0100
0001
0000
1000
,
0100
0010
0001
0200
0000
0300
0010
1000
,
0010
1000
0000
0001
0010
0100
1000
0001
,
0000
0000
1001
0000
1000
0100
0000
0000
,
1001
0000
0001
0100
0000
0000
0110
0000
,
1000
0010
0000
0100
0002
0000
0000
0000
,
0003
1000
0100
1000
0001
0100
0001
1000
,
0100
0010
0001
1000
0000
0001
0100
0001
,
1000
0100
1000
0001
0100
0010
1000
0001
,
0000
0010
0100
1000
0010
0100
0000
0001
,
0010
0100
0010
0001
0100
0000
2001
0000
,
3200
0320
0032
0023
,
0230
0000
1300
0001
1000
0001
1000
0010
,
0001
0010
1000
0001
1000
0100
0010
0001
,
0100
0010
1000
0000
2002
0000
3003
0000
,
0010
0000
0000
0000
2001
0000
0000
0000
3001
0000
0010
0000
0100
0000
1000
0100
,
2000
0000
0000
0000
3010
0000
0100
0000
0001
0000
0100
0001
0200
0000
0000
0000
,
0310
1000
0100
0000
0110
0000
0011
0000
,
1001
0000
0000
0000
1000
0000
0100
0000
1000
0000
0010
1000
0010
0000
0100
0000
,
0002
0000
0023
0000
2030
0000
3010
0001
,
0010
0000
0001
0100
0001
0000
0100
0000
0001
0000
1000
0000
0100
0000
0010
0000
,
0001
0000
0000
0000
0012
0000
0000
0000
0103
0000
0010
0000
0100
0000
0010
1000
,
0020
0000
0000
0000
1030
0000
0100
0000
0010
0000
0001
1000
0002
0000
0000
0000
,
0103
0010
0100
0001
0101
0000
0110
0000
,
1010
0000
0000
0000
1001
0000
1000
0000
0100
0000
1000
0100
1000
0000
0100
0000
,
0002
0003
0200
0300
2000
3000
0001
0100
,
0010
0000
1000
0000
0100
0000
1000
0100
2000
0000
0000
0000
0001
0000
0000
0000
,
3001
0000
1000
0100
1000
0001
0100
0001
,
1000
0100
0010
0001
0100
0010
1000
0100
,
1000
0001
0100
0001
1000
0100
0001
0100
,
1000
0001
1000
0010
1000
0001
0010
0001
,
1000
0010
0100
0001
0010
0100
1000
0010
,
1000
0001
0010
0001
1000
0010
0001
0010
,
1000
0001
0200
0000
0000
0300
0010
1000
,
0020
0000
0000
0030
0100
0001
2000
0000
,
3200
0320
0032
0000
,
0103
0000
0020
0000
0000
0030
1000
0001
,
2000
3000
0000
2002
3003
0000
0012
0000
,
0003
0010
0100
1000
0200
0000
0000
0000
,
0300
0000
0010
0001
1000
0010
1000
0001
,
0010
0100
1000
0001
1000
0100
0010
0001
,
1000
0001
0100
0010
1000
0000
0000
0000
,
0002
0003
0002
0003
0000
0000
2000
3000
,
2000
3000
0000
0000
0020
0030
0020
0030
,
0000
0200
0302
0003
0200
0300
0000
0000
,
0020
0030
2000
3000
0000
0002
0023
0030
,
0200
0300
2000
3000
0020
0030
0220
0000
,
0000
0330
2002
0000
,
3003
0000
0000
0000
1000
0000
0100
0000
1000
0000
0010
1000
0010
0000
0100
0000
,
0010
0000
0100
0000
0001
0000
0010
0001
0010
0000
0100
0000
1000
0000
0001
0000
,
0100
0000
0010
0100
0010
0000
1000
0000
0002
0000
0003
0000
0020
0000
0030
0000
,
2000
0000
3000
0000
0011
0000
0010
0000
0001
0000
0100
0001
0100
0000
0010
0000
,
1000
0100
0001
0100
1000
0010
0100
0000
,
0001
0100
0001
0100
0010
1000
0100
0010
0001
0010
0000
0000
,
0110
0000
0000
0000
1001
0000
0001
0000
0010
0000
0100
0010
0100
0000
1000
0000
,
0001
0100
1000
0100
0001
0000
0201
0000
,
1000
1000
1300
0000
0100
0001
0010
0100
,
1000
0000
1200
0000
0001
0001
0301
0000
,
0100
1000
0100
0000
1000
0000
0001
0000
0100
0000
0000
0000
0210
0000
0000
0000
,
0001
0000
0001
0000
0301
0000
0010
0100
2000
0000
0000
0000
3100
0000
0010
0000
,
0001
1000
0001
1000
0002
0000
0000
0000
0103
0000
0010
1000
0010
0000
0100
0000
,
0001
2002
0000
0000
,
0000
3003
0000
0000
;

//--------------- dance-single - Princess Pamela ----------------
#NOTES:
     dance-single:
     Princess Pamela:
     Hard:
     16:
     0,0,0,0,0:
0000
0000
0000
0000
,
0000
0000
0000
0000
,
0000
0000
0000
0000
,
0000
0000
0000
0000
0000
0000
0000
0001
,
1000
0000
0000
0000
0010
0000
0010
0000
0000
0000
0100
0000
0100
0000
0000
0001
,
1000
0000
0001
0000
0010
0000
0100
0000
1000
0000
0000
0001
0100
0000
0010
0000
,
0000
1000
0002
0000
0000
0000
0003
0010
,
0200
0000
0000
1300
1000
0000
0020
0000
0000
0030
0000
0000
2001
0000
0000
0000
,
3001
0010
0001
0010
0100
0000
1000
0000
,
0010
0000
0120
0000
0130
0001
0100
0001
,
0010
0100
1000
0100
0001
0000
1200
0000
,
1300
0010
0100
0010
0001
0010
1000
0100
,
0010
0000
0000
0000
0001
1000
0001
1000
0100
1000
0100
1000
0001
0000
0010
0000
,
0001
1000
0001
1000
0010
0100
0001
1000
0010
0000
0100
0000
0120
0000
0000
0000
,
1030
0000
0100
0000
0010
0000
0001
0000
0100
0001
0100
0010
0100
0000
0001
0000
,
1000
0100
1200
0000
1300
0010
0100
0001
,
1000
0100
0010
0001
0010
0000
0001
0000
1000
0000
0010
0000
0210
0000
0000
0000
,
0301
0000
0010
0000
0100
0000
0010
0000
0001
1000
0001
1000
0010
0000
0100
0000
,
0002
0000
1003
0100
0100
1000
0000
0010
,
0100
0001
0010
0100
0000
0000
1000
0001
,
0001
1000
0010
0100
0001
1000
0100
1001
,
0000
0000
0000
0000
1000
0000
0010
0000
0001
0000
0010
0000
0000
0000
1000
0010
,
1000
0000
0100
0000
0001
0000
0100
0000
0000
0000
1000
0100
1000
0000
0010
0000
,
0100
0001
0010
1000
0001
0100
1000
0100
,
0000
0000
0010
0001
0001
0100
0010
1000
,
0001
0100
1000
0200
0000
0300
0010
1000
,
1000
0100
0010
0001
1000
0010
0100
1001
,
0000
0000
0000
0000
0001
0000
1000
0000
0100
0000
0001
0000
0000
0000
0100
1000
,
0001
0000
1000
0000
0010
0000
0001
0000
0000
0000
0010
1000
0001
0000
0010
0000
,
0100
1000
0010
0100
2002
0000
0000
3003
,
0000
0000
0001
0010
0100
0001
0100
0010
,
0001
0000
1000
0010
0100
0000
0101
0000
0000
0000
0000
0000
1000
0000
0010
0000
,
0100
0000
1000
0000
0100
0000
0010
0000
1000
0000
0001
0010
0100
0000
1100
0000
,
0000
0001
0010
1000
0010
0011
0000
1000
,
0010
0000
0001
0000
0010
0100
0010
0000
0001
0000
1000
0000
1002
0000
0003
0000
,
0200
0300
0020
0030
2002
3003
0022
0033
,
0001
0000
1000
0000
0001
0100
0002
0000
0023
0000
0230
0000
2300
0000
3010
0000
,
1000
0100
2000
0000
3002
0000
0203
0000
0320
0000
1030
0000
0001
0010
0200
0000
,
2300
3002
0203
0310
0220
0000
0330
0000
,
1001
0000
0000
0000
1100
0000
0100
0000
1000
0000
0010
0000
0100
0010
0100
0000
,
0001
0100
0001
0000
0010
0000
1000
0000
0010
0001
0010
0000
0100
1000
0100
0000
,
0010
0000
0001
1000
0010
0000
0100
0000
0001
0010
0001
0000
0100
0010
0100
0000
,
0010
1000
0001
0000
1001
0000
1000
0000
0100
0000
1000
0000
1100
0000
0000
0000
,
0001
0010
0100
0000
0010
0100
1000
0000
0001
0100
0010
0000
1000
0000
0001
0000
,
0010
0000
1000
0000
0010
0000
0001
0000
0110
0000
0000
0000
0100
0000
1000
0010
,
0100
0000
0001
0000
1001
0000
0000
0000
1000
0100
0010
0001
0010
0000
0100
0000
,
1001
0000
0000
0000
0001
0100
0010
1000
0010
0000
0100
0000
1001
0000
0000
0000
,
0001
1000
0100
0010
0001
0000
0100
0000
0110
0000
0000
0000
1010
0000
0000
0000
,
1100
0000
0000
0000
0001
0100
0001
0000
0010
0000
0100
1000
0001
0000
0100
0000
,
0110
0010
1010
1000
1001
0001
0020
0000
,
0130
1000
0100
0010
0001
0000
0000
0000
1002
0000
0000
0000
0100
0000
0100
0000
,
0103
0000
1000
1000
0010
0100
0100
0010
,
0001
0010
1000
0100
0010
0001
1000
1000
,
0010
0000
0100
0000
0100
0000
0010
0000
1000
0001
1000
0100
0010
0001
1000
0001
,
0100
0010
1000
0001
0010
0000
0001
0000
0100
0000
0010
0000
1000
0000
0100
0000
,
0001
0100
1000
0010
0100
0001
0010
0001
,
0100
0000
0010
0000
1000
0000
0100
0000
0010
0001
0010
0100
1000
0100
0010
0001
,
1000
0010
0100
0001
2000
0000
0000
0000
3100
0000
0010
0000
0100
0000
1000
0000
,
0020
0000
0130
0001
0010
0100
1100
0000
,
1010
0000
0110
0000
0102
0000
0013
0100
,
1000
0010
0002
0000
0013
1000
0001
0100
,
0220
0330
0000
2002
3003
0000
1000
0100
,
1000
0000
0001
0000
0100
0000
0010
0000
1000
0000
0001
0000
0010
0000
0100
1000
,
0100
0010
0001
1000
0002
0000
0000
0003
0000
0000
0002
0000
0000
0003
0010
0000
,
0100
1000
0001
0100
0010
1000
0002
0023
,
0230
2300
3200
0320
0032
0003
0000
0000
,
0002
0003
2000
3000
0000
0000
0020
0030
,
0020
0030
0000
0000
0200
0300
0200
0300
,
0000
0002
2003
3000
0002
0003
0020
0030
,
0200
0300
2000
3000
0000
0002
0203
0300
,
0020
0000
0030
0000
2000
0000
3000
0000
0002
0000
0003
0000
1000
0000
0100
1000
,
0100
0000
0010
0000
0001
0010
0001
0000
1000
0010
0100
0001
0100
0000
0010
0000
,
0110
0000
0000
0000
1002
0000
0000
0000
0103
0010
1000
0010
0100
0010
1000
0100
,
0020
0000
0000
0000
0031
1000
0100
1000
0001
1000
0010
0100
0002
0000
0000
0000
,
0103
0010
1000
0001
1000
0000
0001
0010
0100
0000
0010
0100
1000
0000
0010
0100
,
0001
0000
1000
0000
2001
0000
0000
0000
3001
0010
0100
1000
0100
0000
0010
0001
,
0200
0310
2000
3010
0002
0013
2000
0000
,
3001
0010
0100
1000
0001
0010
1000
0001
0100
1000
0000
0000
,
0110
0000
0000
0000
1002
0000
0000
0000
1003
0010
0100
0001
1000
0000
0100
0010
,
0001
0000
0100
0010
1000
0000
0001
0000
1001
0000
0000
0000
0012
0000
0000
0000
,
0103
0010
0100
0010
0100
0000
0001
0010
0100
0000
1000
0000
0010
0000
0001
0000
,
0010
0000
1000
0000
2010
0000
0000
0000
3001
0010
0100
1000
0100
0000
0010
0001
,
1000
0000
0010
0000
1000
0001
0010
0100
1000
0100
0010
0001
2000
0000
0000
0000
,
3001
0100
0001
1000
0100
0010
0001
1000
0020
0000
0000
0000
1030
0001
0100
0001
,
1000
0100
0010
0001
0200
0000
0000
0000
0310
1000
0001
0010
0100
1000
0001
0100
,
0010
2002
0000
0000
,
0000
3003
0000
0000
;

//--------------- dance-double - Princess Pamela ----------------
#NOTES:
     dance-double:
     Princess Pamela:
     Medium:
     13:
     0,0,0,0,0:
00000000
00000000
00000000
00000000
,
00000000
00000000
00000000
00000000
,
00000000
00000000
00000000
00000000
,
00000000
00000000
00000000
00000000
00000000
00000000
00000000
00001000
,
00010000
00000000
00000000
00000000
00100000
00000000
00100000
00000000
00000000
00000000
10000000
00000000
00010000
00000000
00000000
10000000
,
01000000
00000000
00100000
00000000
00010000
00000000
00001000
00000000
00000100
00000000
00000000
00001000
00000001
00000000
00001000
00000000
,
00000000
00000010
00000200
00000000
00000000
00000000
00000300
00000000
,
00000220
00000000
00000000
00000330
00000000
00000000
00002002
00000000
00000000
00003003
00000000
00000000
00000102
00000000
00000000
00000000
,
00000103
00001000
00000100
00001000
00010000
00000000
00100000
00000000
,
10000000
00000000
21000000
00000000
31000000
00010000
01000000
00010000
,
00001000
00000010
00000001
00000102
,
00000103
00001000
00000100
00001000
00020000
00000000
00130000
10000000
,
00100000
10000000
00020000
00000000
10000000
00000000
10030000
00000000
,
00010000
00100000
01000000
10000000
01000000
00010000
00002000
00000000
,
00003010
00000100
00000010
00000100
00000010
00000000
00000001
00000100
,
00001000
00000000
00020000
00000000
00130000
01000000
00100000
01000000
,
00100000
00000000
10000000
01000000
00010000
00000000
00002000
00000000
,
00003010
00000100
00000010
00000000
00000002
00000000
00000103
00000010
,
00000100
00000000
00000001
00001000
00000001
00001000
00000000
00000001
,
00000010
00000001
00000010
00000001
00000000
00000000
00001000
00000001
,
00001000
00000001
00000000
00001000
00000010
00001000
00000100
00010000
,
00000000
00000000
00001000
00010000
00001000
00100000
00000000
00000000
,
00001000
00010000
00001000
01000000
00000000
00000000
00001000
00010000
,
00001000
00100000
00010000
00100000
01000000
10000000
00010000
10000000
,
00000000
00000000
01000000
00100000
01000000
00100000
00000000
01000000
,
10000000
01000000
00010000
00002000
00000000
00003000
00000010
00000100
,
00000010
00000100
00000000
00000010
00000001
00000010
00001000
00010000
,
00000000
00000000
00011000
00000000
00000010
00001000
00000000
00000000
,
00011000
00000000
00100000
00010000
00000000
00000000
00011000
00000000
,
00000100
00010000
00000000
00001000
00200000
00000000
00000000
00000000
,
00300000
00000000
00010000
01000000
00010000
10000000
00100000
10000000
,
00010000
00100000
01000000
00010000
00000000
00000000
00000100
00001000
,
00000100
00000010
00000001
00000010
00000100
00010000
00001000
01000000
,
00000000
00010000
10000000
00010000
00100000
01000000
00000000
10000000
,
00100000
00010000
00001000
00021000
,
02030000
03020000
00032000
00003200
,
00002300
00000000
00013000
00001000
00010000
00001000
00000100
00000010
,
00000100
00001000
00010000
00001000
00010000
00100000
01000000
00100000
,
00010000
00001000
00010000
00000000
00022000
00000000
00033000
00000000
,
00000010
00000000
00000000
00000000
00001001
00000000
00000000
00000000
00000001
00000000
00000100
00000000
00000010
00000000
00001000
00000010
,
00002000
00000000
00000000
00000000
00003100
00000000
00010000
00000000
00001000
00000000
00010000
00001000
00020000
00000000
00000000
00000000
,
00031000
01000000
00010000
00000000
00110000
00000000
01100000
00000000
,
11000000
00000000
00000000
00000000
00010000
00000000
10000000
00000000
00010000
00000000
10000000
00100000
10000000
00000000
00010000
00000000
,
20000000
00000000
32000000
00000000
03020000
00000000
00031000
00010000
,
00001000
00000000
00010000
00000100
00010000
00000000
00000100
00000000
00010000
00000000
00001000
00000000
00000010
00000000
00001000
00000000
,
00000010
00000000
00000000
00000000
00001001
00000000
00000000
00000000
00001000
00000000
00000010
00000000
00001000
00000000
00000010
00000100
,
00000020
00000000
00000000
00000000
00000130
00000000
00000001
00000000
00000010
00000000
00000100
00001000
00000200
00000000
00000000
00000000
,
00010300
00000010
00010000
00001000
00011000
00000000
00101000
00000000
,
00110000
00000000
00000000
00000000
10010000
00000000
00000000
00000000
10000000
00000000
01000000
10000000
01000000
00000000
00010000
00000000
,
02000000
00000000
03020000
00000000
00032000
00000000
00013000
00001000
,
00010000
00000000
00000010
00000000
00001000
00000000
00000010
00001000
00000020
00000000
00000000
00000000
00000100
00000000
00000000
00000000
,
00000130
00000000
00000001
00001000
00000001
00000100
00000010
00000100
,
00000001
00001000
00000001
00000010
00001000
00010000
00001000
00100000
,
00001000
01000000
00010000
01000000
00100000
10000000
01000000
00010000
,
00001000
00100000
00010000
10000000
00010000
01000000
00100000
01000000
,
00010000
00100000
00001000
00010000
00000010
00001000
00000001
00000100
,
00000001
00001000
00000100
00001000
00000001
00000010
00001000
00010000
,
01000000
10000000
02000000
00000000
00000000
03000000
00100000
00010000
,
00200000
00000000
00000000
00300000
00001000
00010000
00002000
00000000
,
00003020
00002030
00023000
00000000
,
01030000
00000000
20000000
00000000
00000000
00000000
31000000
00100000
,
02000000
03000000
00000000
00020000
00030000
00000000
00002000
00000000
,
00003000
00000010
00000100
00000010
00000002
00000000
00000000
00000000
,
00000003
00000000
00000100
00000010
00000100
00000001
00001000
00000001
,
00000100
00000010
00000100
00001000
00010000
00100000
01000000
00010000
,
10000000
00010000
00100000
01000000
10000000
00000000
00000000
00000000
,
00020000
00030000
00020000
00030000
00000000
00000000
20000000
30000000
,
20000000
30000000
00000000
00000000
02000000
03000000
02000000
03000000
,
00000000
00020000
00032000
00003000
00020000
00030000
00000000
00000000
,
00002000
00003000
00000020
00000030
00000000
00000002
00000023
00000030
,
00000200
00000300
00002000
00003000
00000002
00000003
00002002
00000000
,
00000000
00003003
00000220
00000000
,
00000330
00000000
00000000
00000000
00000001
00000000
00000100
00000000
00000001
00000000
00001000
00000001
00001000
00000000
00000100
00000000
,
00020000
00000000
00000000
00000000
00031000
00000000
00100000
00001000
00100000
00000000
00010000
00000000
02000000
00000000
00000000
00000000
,
03100000
00000000
10000000
00100000
10000000
00000000
00010000
00000000
20000000
00000000
30000000
00000000
02000000
00000000
03000000
00000000
,
00020000
00000000
00030000
00000000
00011000
00000000
00001000
00000000
00010000
00000000
00001000
00010000
00001000
00000000
00010000
00000000
,
00000100
00001000
00000010
00000100
00000001
00000100
00001000
00000000
,
00010000
00001000
00010000
00001000
00010000
00100000
01000000
00100000
00010000
00001000
00000000
00000000
,
00011000
00000000
00000000
00000000
00001000
00000000
00010000
00000000
00000010
00000000
00001000
00000010
00001000
00000000
00000001
00000000
,
00001000
00000100
00000001
00000100
00001000
00000000
00002100
00000000
,
00000010
00000010
00003010
00000000
00000001
00000100
00001000
00010000
,
00001000
00000000
02001000
00000000
00010000
00010000
03010000
00000000
,
01000000
00100000
01000000
00000000
00100000
00000000
10000000
00000000
00010000
00000000
00000000
00000000
10020000
00000000
00000000
00000000
,
00100000
00000000
00100000
00000000
00130000
00000000
00001000
00010000
00002000
00000000
00000000
00000000
00010000
00000000
00010000
00000000
,
00013000
00000000
00000100
00001000
00000200
00000000
00000000
00000000
00000310
00000000
00000001
00000010
00000001
00000000
00001000
00000000
,
00000010
00002002
00000000
00000000
,
00000000
00003003
00000000
00000000
;

//--------------- dance-double - Princess Pamela ----------------
#NOTES:
     dance-double:
     Princess Pamela:
     Hard:
     17:
     0,0,0,0,0:
00000000
00000000
00000000
00000000
,
00000000
00000000
00000000
00000000
,
00000000
00000000
00000000
00000000
,
00000000
00000000
00000000
00000000
00000000
00000000
00000000
00010000
,
00001000
00000000
00000000
00000000
00000010
00000000
00000010
00000000
00000000
00000000
00000001
00000000
00000001
00000000
00000000
00000100
,
00000010
00000000
00001000
00000000
00010000
00000000
01000000
00000000
00100000
00000000
00000000
10000000
00010000
00000000
10000000
00000000
,
00000000
01000000
00020000
00000000
00000000
00000000
00030000
00001000
,
00012000
00000000
00000000
00000010
00003010
00000000
00021000
00000000
00000000
00000000
00130000
00000000
20010000
00000000
00000000
00000000
,
30100000
01000000
00100000
00010000
00001000
00000000
00000100
00000000
,
00000001
00000000
00001002
00000000
00000013
00000100
00000010
00001000
,
00010000
01000000
00010000
00001000
00100000
00000000
21000000
00000000
,
30100000
01000000
00100000
00010000
00001000
00000100
00001000
00010000
,
00100000
00000000
00000000
00000000
10000000
00010000
10000000
00010000
10000000
00100000
01000000
00010000
10000000
00000000
01000000
00000000
,
00010000
00001000
00010000
00001000
00100000
00001000
00010000
00000100
00010000
00000000
00001000
00000000
00000020
00000000
00000000
00000000
,
00000031
00000000
00000010
00000000
00000100
00000000
00000001
00000000
00000100
00000010
00000100
00001000
00000100
00000000
00010000
00000000
,
00001000
01000000
01200000
00000000
10300000
00100000
01000000
10000000
,
01000000
00100000
01000000
00010000
01000000
00000000
00001000
00000000
00010000
00000000
00000010
00000000
00000120
00000000
00000000
00000000
,
00000031
00000000
00000010
00000000
00000100
00000000
00000001
00000000
00000100
00000010
00000100
00001000
00000100
00000000
00010000
00000000
,
01000000
00010000
00100000
01000000
01000000
10000000
00000000
01000000
,
00010000
00001000
00010000
00011000
00000000
00000000
00001000
00000010
,
00000010
00000001
00000010
00000100
00010000
00000010
00010000
00011000
,
00000000
00000000
00000000
00000000
00001000
00000000
00000010
00000000
00000001
00000000
00000010
00000000
00000000
00001000
00010000
00001000
,
00010000
00000000
00100000
00000000
10000000
00000000
00100000
00000000
00000000
00010000
00001000
00010000
00001000
00000000
00000100
00000000
,
00000001
00000100
00000010
00001000
00010000
01000000
00010000
10010000
,
00000000
00000000
10000000
00100000
00100000
00010000
00001000
00010000
,
00100000
00001000
00000010
00002000
00000000
00003000
00000001
00000010
,
00000010
00001000
00010000
00001000
00000010
00010000
01000000
01020000
,
00000000
00000000
00030000
00000000
10000000
00000000
00100000
00000000
00010000
00000000
00001000
00000000
00000000
00000100
00000010
00000100
,
00000001
00000000
00000010
00000000
00001000
00000000
00010000
00000000
00000000
01000000
00100000
01000000
10000000
00000000
00100000
00000000
,
00010000
00001000
00010000
01000000
20020000
00000000
00000000
30030000
,
00000000
00010000
01000000
10000000
01000000
00100000
00010000
00001000
,
00000100
00000000
00000010
00000100
00000001
00000000
00000101
00000000
00000000
00000000
00001000
00000000
00000100
00000000
00000001
00000000
,
00000100
00000000
00000010
00000000
00001000
00000000
00010000
00000000
01000000
00000000
00100000
01000000
10000000
00000000
00100000
00000000
,
01000000
00100000
00010000
00001000
00010000
00011000
00000000
00001000
,
00000010
00000000
00000001
00000000
00000010
00000100
00001000
00000000
00000001
00000000
00000100
00000000
00000120
00000000
00000030
00000000
,
00002000
00003000
00200000
00300000
20000000
30000000
20020000
30030000
,
00010000
00000000
10000000
00000000
00100000
01000000
00200000
00000000
00320000
00000000
00032000
00000000
00003200
00000000
00000310
00000000
,
00000100
00000010
00000200
00000000
00002300
00000000
00023000
00000000
00230000
00000000
01300000
00000000
00010000
10000000
00020000
00000000
,
00032000
00003002
00002003
00003010
00000220
00000000
00000330
00000000
,
00001001
00000000
00000000
00000000
00000101
00000000
00000100
00000000
00000001
00000000
00000010
00000000
00000100
00001000
00000100
00000000
,
00010000
00001000
00010000
00000000
00000010
00000000
00000100
00000000
00001000
00010000
00001000
00000000
01000000
00010000
01000000
00000000
,
00100000
00000000
10000000
01000000
00100000
00000000
00010000
00000000
01010000
00000000
00001000
00000000
00011000
00000000
00000010
00000000
,
00001010
00000100
00001001
00000001
00000100
00001000
00011000
00000000
,
00001000
00010000
00100000
00000000
01000000
00100000
00010000
00000000
00001000
00010000
00001000
00000000
00100000
00000000
01000000
00000000
,
00010000
00000000
00001000
00000000
00000010
00000000
00000100
00000000
00000110
00000000
00000000
00000000
00000001
00000010
00000100
00001000
,
00000001
00000000
00000100
00000000
00010010
00000000
00000000
00000000
00010000
00001000
00100000
00010000
00100000
00000000
01000000
00000000
,
10010000
00000000
00000000
00000000
00010000
01000000
00001000
00010000
00001000
00000000
00000010
00000000
00001100
00000000
00000000
00000000
,
00000001
00001000
00000001
00000010
00000100
00000000
00001000
00000000
00001010
00000000
00010000
00000000
00011000
00000000
00100000
00000000
,
10010000
00000000
01000000
00000000
01100000
00000000
10000000
00000000
00010000
00000000
01000000
00001000
00010000
00000000
00001000
00000000
,
00011000
00000100
00001100
00010000
00101000
00010000
00022000
00000000
,
00003000
00001000
00002000
00000000
,
00033000
00000000
01000000
00100000
00010000
00001000
00000100
00000010
,
00000001
00000010
00000100
00001000
00010000
00100000
01000000
00100000
,
00010000
00000000
00001000
00000000
00000100
00000000
00000010
00000000
00000001
00000010
00000100
00000010
00000100
00001000
00000100
00001000
,
00010000
00001000
00010000
00100000
01000000
00000000
00010000
00000000
00100000
00000000
01000000
00000000
00010000
00000000
00001000
00000000
,
00000010
00000100
00000010
00001000
00010000
01000000
00100000
01000000
,
00010000
00000000
00001000
00000000
00000010
00000000
00000100
00000000
00000001
00000100
00000010
00000100
00000010
00001000
00000010
00001000
,
00010000
00001000
00010000
01000000
00200000
00000000
00000000
00000000
00000000
00000000
00000000
00000000
00310000
00000000
10000000
00000000
,
00020000
00000000
00000000
00000000
01030000
00100000
00020000
00000000
,
00032000
00003200
00000320
00000230
,
00002300
00000000
00023000
00000000
00000000
00000000
00130000
10000000
,
20200000
30300000
00000000
02020000
03030000
00000000
10000000
01000000
,
00100000
00000000
00010000
00000000
00001000
00000000
00000100
00000000
00000010
00000000
00000001
00000000
00001000
00000000
00000001
00001000
,
00000001
00000100
00000010
00001000
00000001
00000000
00000010
00000000
00000001
00000000
00001000
00000000
00000010
00000000
00001000
00000000
,
00000001
00000010
00001000
00010000
01000000
10000000
02000000
03200000
,
00320000
00032000
00003200
00000320
00000032
00000003
00000000
00000000
,
00000100
00000000
00000000
00000000
00000001
00001000
00000001
00001000
00000001
00001000
00000001
00001000
00000001
00000010
00000001
00000010
,
00000100
00001000
00000100
00001000
00000100
00001000
00000100
00001000
00000010
00010000
00000010
00010000
00001000
00010000
00001000
00010000
,
00001000
00010000
00001000
00100000
00010000
00100000
00010000
00100000
01000000
10000000
01000000
10000000
00100000
01000000
00100000
01000000
,
00010000
01000000
00010000
01000000
00001000
00100000
00001000
00100000
00001000
00100000
00010000
00100000
00001000
00010000
00001000
00010000
,
00000010
00001000
00000010
00001000
00000100
00000010
00000100
00000010
00000001
00000100
00000001
00000100
00001000
00010000
00001000
00010000
,
00001000
00010000
00001000
00010000
00001000
00010000
00001000
00010000
00100000
01000000
00100000
01000000
00010000
00100000
01000000
10000000
,
00200000
00000000
00000000
00000000
20300000
00000000
00000000
00000000
31000000
00100000
00010000
00100000
01000000
00100000
00010000
01000000
,
00002000
00000000
00000000
00000000
00013000
00000010
00001000
00000010
00010000
00000100
00010000
00001000
00020000
00000000
00000000
00000000
,
00031000
00000100
00000010
00000100
00000010
00000000
00000100
00000001
00000010
00000000
00000100
00001000
00000010
00000000
00000100
00001000
,
00010000
00000000
00001000
00000000
00012000
00000000
00000000
00000000
00013000
00100000
01000000
00100000
01000000
00000000
00100000
10000000
,
02000000
03020000
00032000
00003020
,
00000031
00000100
00001000
00010000
00100000
00010000
00001000
00000100
00000010
00000100
00000000
00000000
,
00000110
00000000
00000000
00000000
00001002
00000000
00000000
00000000
00000103
00000010
00000100
00001000
00010000
00000000
00001000
00010000
,
00100000
00000000
01000000
00100000
01000000
00000000
00000000
00000000
01100000
00000000
00000000
00000000
10000000
00010000
10000000
01000000
,
00100000
00010000
10000000
00010000
02000000
00000000
00000000
00000000
03001000
00010000
00001000
00010000
00000010
00001000
00000010
00000100
,
00000002
00000000
00000000
00000000
00000013
00000100
00001000
00000100
00000010
00000001
00001000
00000010
00020000
00000000
00000000
00000000
,
00130000
01000000
00100000
10000000
00010000
00100000
01000000
10000000
01000000
00100000
00010000
10000000
02000000
00000000
00000000
00000000
,
03010000
00001000
00010000
00001000
00000100
00000010
00000100
00001000
00020000
00000000
00000000
00000000
00031000
00010000
00001000
00010000
,
00100000
01000000
00100000
00010000
00002000
00000000
00000000
00000000
00003100
00000010
00000100
00000001
00000010
00000100
00010000
00001000
,
00100000
20020000
00000000
00000000
,
00000000
30030000
00000000
00000000
;
