#TITLE:satfinal;
#SUBTITLE:;
#ARTIST:RAM;
#TITLETRANSLIT:;
#SUBTITLETRANSLIT:;
#ARTISTTRANSLIT:;
#GENRE:;
#CREDIT:;
#MUSIC:satfinal.ogg;
#BANNER:satfinal-bn.png;
#BACKGROUND:;
#CDTITLE:;
#SAMPLESTART:33.899;
#SAMPLELENGTH:21.333;
#SELECTABLE:YES;
#OFFSET:-0.566;
#BPMS:0.000=180.000;
#STOPS:;
#BGCHANGES:;
#FGCHANGES:;

//--------------- dance-single - ----------------
#NOTES:
     dance-single:
     :
     Beginner:
     4:
     0,0,0,0,0:
0000
0000
0000
0000
,
0000
0000
0000
0000
,
0000
0000
0000
0000
,
0000
0000
0000
0000
,
0000
0000
0000
0000
,
1000
0000
0000
0000
,
0001
0000
0000
0000
,
0100
0000
0000
0000
,
0010
0000
0000
0000
,
1000
0000
0000
0000
,
0100
0000
0000
0000
,
0010
0000
0000
0000
,
0001
0000
0000
0000
,
1000
0000
0000
0000
,
0010
0000
0000
0000
,
0100
0000
0000
0000
,
0001
0000
0000
1000
,
1000
0000
0000
0000
,
0010
0000
0000
0000
,
0100
0000
0000
0000
,
0001
0000
0000
0000
,
1000
0000
0000
0000
,
0100
0000
0000
0000
,
0010
0000
0000
0000
,
0001
0001
0001
0001
,
0001
0000
1000
0000
,
1000
0000
0010
0000
,
0010
0000
0100
0000
,
0100
0000
0001
0000
,
0001
0000
1000
0000
,
1000
0000
0100
0000
,
0100
0000
0010
0000
,
0020
0030
0000
0000
,
0001
0001
0001
0000
,
0100
0000
0000
0000
,
0010
0010
0010
0000
,
1000
0000
0000
0000
,
0100
0100
0100
0000
,
0010
0000
0000
0000
,
0001
0000
0001
0000
,
1000
0000
0000
0000
,
0010
0000
0000
0000
,
0100
0000
0000
0000
,
0001
0000
0000
0000
,
1000
0000
0000
0000
,
0100
0000
0000
0000
,
1000
0000
0000
0000
,
0001
0000
0000
0000
,
0100
0100
0000
0000
,
0010
0010
0000
0000
,
0100
0100
0000
0000
,
0001
0001
0000
0000
,
1000
1000
0000
0000
,
0100
0100
0000
0000
,
0010
0010
0000
0000
,
0001
0001
0000
0000
,
2000
0000
3000
0000
,
0010
0000
0000
0000
,
0100
0000
0000
0000
,
0001
0000
0000
0000
,
0010
0000
0000
0000
,
0001
0000
0000
0000
,
1000
0000
0000
0000
,
0010
0000
0000
0000
,
0100
0000
0000
0000
,
0001
0000
0001
0000
,
0010
0000
0010
0000
,
0100
0000
0100
0000
,
1000
0000
1000
0000
,
0001
0000
0001
0000
,
0100
0000
0100
0000
,
0010
0000
0010
0000
,
1000
0000
1000
0000
,
0001
0001
0001
0000
,
0010
0000
0000
0000
,
0100
0100
0100
0000
,
1000
0000
0000
0000
,
0001
0001
0001
0000
,
0100
0000
0000
0000
,
0010
0000
0000
0000
,
0100
0000
0000
0000
,
0010
0000
0000
0000
;

//--------------- dance-single - ----------------
#NOTES:
     dance-single:
     :
     Easy:
     7:
     0,0,0,0,0:
0000
0000
0000
0000
,
0000
0000
0000
0000
,
0000
0000
0000
0000
,
0000
0000
0000
0000
,
0000
0000
0000
0000
,
1000
0000
0000
0000
0000
0001
0000
0000
,
0001
0000
0000
0000
0000
0100
0000
0000
,
0100
0000
0000
0000
0000
0010
0000
0000
,
0010
0000
0000
0000
0000
1000
0000
0000
,
1000
0000
0000
0000
0000
0001
0000
0000
,
0001
0000
0000
0000
0000
0010
0000
0000
,
0010
0000
0000
0000
0000
0100
0000
0000
,
0100
0000
0000
0000
0000
1000
0000
0000
,
1000
0000
0000
0000
0000
0001
0000
0000
,
0001
0000
0000
0000
0000
0100
0000
0000
,
0100
0000
0000
0000
0000
0010
0000
0000
,
0010
0000
0000
0000
0000
1000
0000
0001
,
1000
0000
0100
0000
0000
1000
0000
0000
,
0001
0000
0100
0000
0000
0001
0000
0000
,
0010
0000
0001
0000
0000
1000
0000
0000
,
0010
0000
0100
0000
0000
0001
0000
0000
,
0100
0000
0010
0000
0000
1000
0000
0000
,
0001
0000
0010
0000
0000
0001
0000
0000
,
0100
0000
0010
0000
0000
1000
0000
0000
,
0001
0010
0100
1000
,
0001
0100
0001
1000
,
0010
0000
0100
0000
0001
0100
0000
0001
,
0100
0010
1000
0001
,
1000
0000
0100
0000
0010
0001
0000
0010
,
0001
1000
0010
1000
,
0100
0000
0010
0000
0001
1000
0000
0001
,
0100
0010
1000
0010
,
0200
0000
0000
0000
0000
0301
0000
0000
,
0100
0000
0010
0000
1000
0000
0001
1000
,
0000
0001
0000
0010
0100
0000
1000
0000
,
0001
0000
0100
0000
0010
0000
1000
0010
,
0000
0100
0000
0010
1000
0000
0001
0000
,
1000
0000
0100
0000
0010
0000
0001
1000
,
0000
0001
0000
0100
0010
0000
0100
0000
,
0001
0000
0010
0000
0002
0003
0000
2000
,
0000
0000
0000
0000
0000
3010
0000
0000
,
0010
0000
0000
0000
0000
0100
0000
0000
,
0100
0000
0000
0000
0000
0001
0000
0000
,
0001
0000
0000
0000
0000
1000
0000
0000
,
1000
0000
0000
0000
0000
0100
0000
0000
,
0100
0000
0000
0000
0000
0010
0000
0000
,
0010
0000
0000
0000
0000
0001
0000
0000
,
0001
0000
0000
0000
,
1000
0000
0001
0000
0000
0100
0000
0000
,
0010
0000
1010
0000
0000
1001
0000
0000
,
0011
0000
0000
0010
0000
0100
0000
0000
,
1000
0000
1100
0000
0000
1001
0000
0000
,
0101
0000
0000
0100
0000
0010
0000
0000
,
1000
0000
0011
0000
0000
0110
0000
0000
,
1100
0000
0000
1000
0000
0001
0000
0000
,
0100
0000
1010
0000
0000
0101
0000
0000
,
2002
0000
3003
0000
0000
0001
0000
0000
,
0010
0000
0000
0000
0000
0100
0000
1000
,
0000
0000
0001
0000
0000
0100
0000
0010
,
0000
0000
1000
0000
0000
0001
0000
0010
,
0000
0000
0001
0000
0000
0100
0000
0010
,
0000
0000
1000
0000
0000
0010
0000
0100
,
0000
0000
0001
0000
0000
1000
0000
0100
,
0000
0000
1000
0000
0000
0001
0000
0100
,
0000
0010
0200
0000
,
0310
0000
1000
0000
0001
0000
0010
0100
,
0000
0010
0100
0000
1000
0000
0001
0000
,
0100
0000
0010
0000
1000
0000
0001
0010
,
0000
0001
0010
0000
0100
0000
1000
0000
,
0001
0000
0100
0000
0010
0000
1000
0010
,
0000
1000
0010
0000
0100
0000
0001
0000
,
1000
0000
0100
0000
1000
0000
0001
0100
,
0000
0001
1000
0000
0001
0000
0010
0000
,
0100
0100
1000
1000
,
0001
0001
0100
0100
,
0010
0010
1000
1000
,
0001
0001
0010
0010
,
0100
1000
0100
1000
,
0001
0100
0001
0100
,
0010
0010
0100
0000
,
0001
0000
1000
0000
0000
0100
0000
0010
;

//--------------- dance-single - ----------------
#NOTES:
     dance-single:
     :
     Medium:
     11:
     0,0,0,0,0:
0000
0000
0000
0000
,
0000
0000
0000
0000
,
0000
0000
0000
0000
,
0000
0000
0000
0000
,
0000
0000
0000
0000
,
1000
0000
0000
0001
0000
0100
0000
0000
,
0001
0000
0000
0010
0000
0001
0000
0000
,
1000
0000
0000
0010
0000
0100
0000
0000
,
0001
0000
0000
0010
0000
0001
0000
1000
,
0001
0000
0000
0100
0000
0010
0000
0000
,
1000
0000
0000
0010
0000
0100
0000
0000
,
0001
0000
0000
0010
0000
0001
0000
0000
,
0010
0000
0000
0100
0000
1000
0000
0001
,
0100
0000
0000
0010
0000
1000
0000
0000
,
0001
0000
0000
0010
0000
0001
0000
0000
,
1000
0000
0000
0010
0000
0100
0000
0000
,
0002
0000
0000
0000
0000
1003
0000
0000
,
0100
0000
1000
0000
0001
0100
0000
0001
,
1000
0000
0100
0000
0010
0100
1000
0001
,
0100
0000
0010
0000
1000
0001
0000
0010
,
0001
0000
0010
0000
0100
1000
0001
0100
,
0010
0000
0100
0000
0001
1000
0000
0100
,
1000
0000
0001
0000
0100
0010
0000
0100
,
0001
0000
1000
0000
0100
0010
0000
0100
,
1000
0000
0001
0000
0100
0010
1000
0001
,
0010
0000
0100
0000
1000
0001
0000
0100
,
0010
0000
1000
0000
0010
0100
0001
0010
,
0001
0000
0100
0000
0010
1000
0000
0100
,
0001
0000
0100
0000
1000
0001
0100
0010
,
1000
0000
0001
0000
0010
1000
0000
0010
,
0001
0000
1000
0000
0010
0100
0010
1000
,
0001
0000
0010
0000
0100
0001
0000
0100
,
1000
0000
0001
0000
0100
0010
1000
0010
,
0100
0001
1000
0100
0010
0001
0000
0010
,
0001
0000
1000
0000
0001
0010
0001
0010
,
0100
1000
0001
0000
0100
0010
1000
0001
,
0000
0010
0000
0001
0100
0010
1000
0001
,
1000
0000
0100
0000
1000
0001
0000
0100
,
0010
0000
0100
0000
0001
1000
0100
0010
,
0100
0000
1000
0000
0001
0100
0000
0001
,
1000
0000
0100
0000
0010
0100
0000
1000
,
0002
0000
0000
0100
0000
0100
0000
0000
,
2003
0000
0000
0100
0000
0100
0000
0000
,
3020
0000
0000
1000
0000
1000
0000
0000
,
0230
0000
0000
0001
0000
0001
0000
0000
,
0320
0000
0000
0100
0000
1000
0000
0000
,
2030
0000
0000
0100
0000
0001
0000
0000
,
3002
0000
0000
0010
0000
0100
0000
0000
,
0013
0000
0001
0000
0000
1000
0000
0000
,
1010
0000
0010
0100
0000
0101
0000
0000
,
1001
0000
0000
1100
0000
0000
1001
0000
,
0001
0000
0100
0010
0000
0110
0000
0000
,
0101
0000
0000
1001
0000
1100
0000
0000
,
1000
0000
0001
0010
0000
0011
0000
0000
,
0110
0000
0000
1100
0000
1001
0000
0000
,
0001
0100
0001
0100
0010
0100
0001
0100
,
0000
0010
0000
0100
0001
2000
0000
0000
,
3100
0000
0000
1000
0000
0001
0000
0100
,
0001
0000
0000
0000
0010
0001
0000
1000
,
0001
0000
0000
0000
0100
0010
0000
1000
,
0010
0000
0000
0000
0100
0001
0000
1000
,
0001
0000
0000
0000
0010
0001
0000
0010
,
0100
0000
0000
0000
1000
0010
0000
1000
,
0001
0000
0000
0000
0010
0100
0000
0010
,
0001
0000
0010
0000
1000
0010
0001
0010
,
0100
1000
0001
0000
0100
0010
0000
1000
,
0010
0000
0100
0000
0001
1000
0001
0000
,
0010
0100
1000
0000
0100
0010
0000
0100
,
1000
0000
0001
0000
0100
0010
1000
0010
,
0100
0000
0001
0000
1000
0100
0000
0010
,
0100
0000
1000
0000
0001
0100
0010
1000
,
0001
0000
0010
0000
0001
0010
0000
0100
,
1000
0001
0100
0001
2000
0000
0100
0000
,
3001
0100
0010
0100
0001
0000
0010
0000
,
0100
1000
0100
0000
0010
0001
0010
0000
,
0001
0100
0010
0100
0001
0000
1000
0000
,
0010
0100
0010
0000
0100
0001
1000
0000
,
0100
1000
0100
0010
0001
0000
1000
0000
,
0010
0100
0001
0000
0100
0010
1000
0000
,
0001
0000
0010
0000
0000
0001
0000
1000
,
0010
0000
0100
0000
0000
0001
0000
1000
;

//--------------- dance-single - ----------------
#NOTES:
     dance-single:
     :
     Hard:
     13:
     0,0,0,0,0:
0000
0000
0000
0000
,
0000
0000
0000
0000
,
0000
0000
0000
0000
,
0000
0000
0000
0000
,
0000
0000
0000
0000
,
1000
0000
0000
0001
0000
0100
0000
0001
,
1000
0000
0100
1000
0000
0100
0000
1000
,
0001
0000
0100
0001
0000
0010
0000
0001
,
1000
0000
0010
0100
0000
0001
0000
0100
,
0010
0000
1000
0001
0000
0010
0000
0001
,
0010
0000
0100
1000
0000
0001
0000
0100
,
0010
0000
1000
0010
0000
0100
0000
0001
,
0010
0000
0001
0010
0000
0100
0000
1000
,
0001
0000
0100
0010
0000
1000
0000
0010
,
0100
0000
0001
1000
0000
0100
0000
1000
,
0001
0000
0100
0010
1000
0000
0000
0001
,
0020
0000
0000
0000
0000
0100
0000
0130
,
0010
0000
0001
0000
0000
1000
0000
0010
,
1000
0000
0010
0000
0100
0001
0010
0001
,
0100
0000
0010
0000
0000
1000
0000
0001
,
0010
0000
0001
0000
0010
0100
1000
0001
,
0100
0000
0010
0000
0100
0001
0000
0010
,
0001
0000
0010
0000
0100
1000
0001
0100
,
0010
0000
1000
0000
0001
1000
0000
0100
,
1000
0000
1010
0000
0000
0010
0000
0100
,
0001
0000
0010
0001
0010
0100
1000
0001
,
0100
0000
0010
1000
0010
0100
0001
1000
,
0100
0000
0010
0100
1000
0001
0010
0100
,
1000
0000
0001
0010
0100
0010
0001
0100
,
0010
0000
0100
0001
0010
0001
0100
0010
,
1000
0000
0001
0010
0001
0010
0100
1000
,
0001
0000
0100
0010
1000
0010
0100
0001
,
1000
0000
0100
1000
0000
0001
0000
0100
,
0010
0100
0001
0010
0001
0101
0000
1010
,
0000
0110
0000
0010
1000
0001
0010
0100
,
1000
0001
0100
0010
1000
0100
0000
1100
,
0000
0000
0011
0000
0000
0000
0001
0000
1000
0000
0001
0000
0100
0000
0010
1000
,
0010
0100
0001
0000
0010
0001
0010
0110
,
0000
0100
1000
1001
0000
0001
0100
0010
,
0000
0000
0100
0000
0001
0010
0000
0001
,
1000
0000
0001
0100
0010
1000
0001
0010
,
0100
0000
0000
1000
0100
1000
0000
0000
,
0001
0000
0000
0100
0010
0100
0000
0000
,
0001
0000
0000
0010
0100
0010
0000
0000
,
0001
0000
0000
0100
0010
0100
0000
0000
,
0010
0000
0000
1000
0001
1000
0000
0000
,
0001
0000
0000
0010
0100
0010
0000
0000
,
0001
0000
0000
1000
0100
1000
0000
0000
,
0001
0000
0100
0010
0000
0100
0001
0000
,
1001
0000
1000
0100
0000
1000
0001
0100
,
0110
0000
1000
0010
0000
1000
0001
0010
,
0110
0000
1000
0100
0000
1000
0001
0100
,
0101
0000
0001
1000
0000
0010
1000
0001
,
0011
0000
0010
0100
0000
1000
0100
0010
,
0011
0000
0001
1000
0000
0010
0100
0001
,
1000
0100
0100
0010
0010
0001
0001
1000
,
1000
0000
0010
0000
0100
0001
0000
0000
,
0010
0000
0000
0001
0000
1000
0000
0010
,
1000
0000
0001
0000
0010
0001
0000
0010
,
0100
0000
1000
0000
0001
0100
0000
0010
,
1000
0000
0010
0000
0100
0001
0000
1000
,
0100
0000
1000
0000
0001
0100
0000
0010
,
1000
0000
0001
0000
0010
0001
0000
0010
,
0100
0000
1000
0000
0001
0100
0000
0010
,
1000
0000
0001
0000
0010
0100
1000
0001
,
0100
0000
0010
1000
0010
0000
1000
0000
0100
0000
0010
0000
0000
0000
0011
0000
,
0000
1100
0000
1000
0001
0100
0010
1000
,
0001
0000
0010
0001
0010
0000
0100
0000
1000
0000
0001
0000
0100
0000
0101
0000
,
0000
1010
0000
1000
0001
0010
0100
0010
,
0001
0000
1000
0010
1000
0000
0010
0000
0100
0000
0101
0000
0000
0000
1001
0000
,
0000
1100
0000
1000
0100
0010
0001
1000
,
0010
0000
0100
0001
0100
0000
0001
0000
0010
0000
0100
0000
1000
0000
1100
0000
,
0000
0101
0000
0001
1000
0100
0010
0001
,
1000
0000
0001
0100
0001
0000
1000
0000
0010
0000
0100
0000
0001
0000
0010
0000
,
0100
0010
0001
1000
0010
1000
0001
0010
,
0100
0000
1000
0100
1000
0000
0001
0000
0100
0000
0010
0000
1000
0000
0001
0000
,
0010
0001
0010
0100
1000
0001
0100
0010
,
1000
0000
0001
0010
0001
0000
0010
0000
0100
0000
1000
0000
0001
0000
0100
0000
,
0010
0100
0001
0100
0010
1000
0001
0010
,
0100
0000
0000
1000
0000
0000
0001
0000
0100
0000
0001
0000
0010
0000
0001
0000
,
0010
0100
1000
0001
0100
0010
0100
0110
;

//--------------- dance-single - ----------------
#NOTES:
     dance-single:
     :
     Challenge:
     15:
     0,0,0,0,0:
0000
0000
0000
0000
,
0000
0000
0000
0000
,
0000
0000
0000
0000
,
0000
0000
0000
0000
,
0000
0000
0000
0000
,
1000
0000
0000
0000
0000
0010
0000
0000
,
0110
0000
0000
0000
0000
0001
0000
0000
,
0011
0000
0000
0000
0000
0100
0000
0000
,
1100
0000
0000
0000
0000
1000
0000
0010
,
1010
0000
0000
0000
0000
0100
0000
0001
,
1001
0000
0000
0000
0000
1000
0000
0100
,
0110
0000
0000
0000
0000
0010
0000
0001
,
1001
0000
0000
0000
0000
1000
0000
0010
,
0110
0000
0000
0000
0000
0100
0000
0001
,
0011
0000
0000
0000
0000
0010
0000
0100
,
1100
0000
0000
0000
0000
1000
0000
0001
,
0201
0000
0000
0000
0000
0000
0000
0000
0000
0000
0310
0000
0100
0000
0001
1000
,
0002
0000
0010
0000
0000
1000
0000
1000
,
2003
0000
0010
0000
0000
0001
0000
0001
,
3002
0000
0010
0000
0000
0100
0000
0100
,
0203
0000
0010
0000
0000
0010
0000
0010
,
0320
0000
1000
0000
0000
1000
0000
1000
,
2030
0000
0001
0000
0000
0001
0000
0010
,
3020
0000
0100
0000
0000
1000
0000
0100
,
0230
0000
0000
0000
0301
0000
0100
0000
0001
0100
0001
0100
0010
1000
0010
1000
,
0001
0000
0010
0001
0010
0000
0001
0000
0010
0000
0100
0000
1000
0000
0001
0000
,
0100
0000
0010
1000
0010
0000
0100
0000
0001
0000
0010
0000
0001
0000
0100
0000
,
0010
0000
1000
0001
1000
0000
0001
0000
0010
0000
0100
0000
1000
0000
0001
0000
,
0100
0000
0010
1000
0010
0000
0100
0000
0001
0000
0010
0000
0001
0100
0010
1000
,
0010
0000
1000
0001
0010
0000
0100
0000
1000
0000
0001
0000
0100
0000
0010
0000
,
1000
0000
0100
0010
0001
0000
0010
0000
0100
0000
1000
0000
0001
0000
0100
0000
,
0010
0000
0100
0001
1000
0000
0100
0000
1000
0000
0001
0000
0100
0000
0010
0000
,
2000
0000
0000
0000
0001
0000
3002
0000
0103
0001
0100
0010
1000
0001
1000
0100
,
1000
0100
0020
0000
0001
0032
0000
1000
,
2003
0000
0000
0000
3010
0000
1000
0010
1000
0000
0010
0000
0001
0000
0010
0000
,
1000
0100
0020
0000
0001
0230
1000
2300
,
0000
0000
0001
0000
0000
0000
3010
1000
0010
0000
0001
0000
0010
0000
0100
0000
,
0001
0010
0200
0000
0010
2300
0000
0010
,
3002
0000
0000
0000
0013
0000
0001
1000
0001
0000
0100
0000
0010
0000
0100
0000
,
0001
0000
1000
0000
0100
1000
0000
0001
,
0100
0000
0000
0000
0010
0000
1000
0000
0010
0100
0010
0100
0001
1000
0001
1000
,
0200
0000
0000
1000
0000
0010
0000
0000
,
2300
0000
0000
0010
0000
0001
0000
0000
,
3020
0000
0000
0100
0000
1000
0000
0000
,
0230
0000
0000
0001
0000
0010
0000
0000
,
0302
0000
0000
0010
0000
1000
0000
0000
,
0023
0000
0000
0100
0000
1000
0000
0000
,
0230
0000
0000
0001
0000
1000
0000
0000
,
1300
0001
1000
0010
0100
0001
0010
0100
,
1100
0000
1000
1100
0000
0101
0100
0010
,
1010
0000
0001
0011
0000
0110
0100
1000
,
1001
0000
0001
0101
0000
1010
0010
0100
,
0101
0000
0001
1100
0000
1001
0001
0010
,
1100
0000
1000
0101
0000
1001
0010
0001
,
0101
0000
0010
0101
0000
1001
1000
0100
,
1100
0100
0100
0010
0010
0001
0001
1000
,
1000
0000
0010
0000
0100
0001
0000
1000
,
0200
0000
0010
0010
0000
1000
0000
2300
,
0001
0000
0010
0000
3001
0100
1000
0100
,
0002
0000
0010
0000
0100
0100
0000
2003
,
0010
0000
0100
0000
3100
1000
0100
0010
,
0002
0000
0010
0000
0100
0100
0000
2003
,
0100
0000
0010
0000
3010
1000
0100
1000
,
0020
0000
0100
0000
0001
0001
0000
0230
,
0301
0000
1000
0001
1000
0000
0100
0000
1000
0100
1000
0100
0010
0001
0010
0001
,
1000
0000
0001
0100
0001
0000
1000
0100
1000
0000
0001
0000
0100
0000
0010
0000
,
1000
0001
0010
0100
0010
0001
1000
0010
,
0100
0000
0001
0100
0001
0000
1000
0100
1000
0000
0100
0000
0010
0000
0001
0000
,
0010
0100
1000
0001
0100
0010
1000
0001
,
0010
0000
0001
1000
0001
0000
0100
0010
0100
0000
0010
0000
1000
0000
0001
0000
,
0010
0100
0010
0001
0100
0010
1000
0001
,
0010
0000
0100
1000
0100
0000
0010
0001
0010
0000
0001
0000
0100
0000
0010
0000
,
1000
0000
0010
0000
0100
0000
0001
0000
1000
0010
1000
0010
0100
0001
0100
0001
,
1000
0000
0100
0000
0010
0000
0001
1000
0001
0000
0100
0000
0010
0000
1000
0000
,
0001
0000
0100
0000
0010
0000
1000
0001
1000
0000
0001
1000
0010
0000
0100
0000
,
0001
0000
1000
0000
0100
0000
0010
0100
0010
0000
0001
0000
1000
0000
0001
0000
,
0100
0000
0010
1000
0010
0000
0100
0001
0100
0000
0001
0000
0010
0000
0100
0000
,
1000
0000
0001
0100
0001
0000
0100
0000
0010
0000
1000
0000
0001
0010
0001
0000
,
0010
0000
0100
1000
0100
0000
1000
0000
0001
0100
0001
0000
0100
0010
1000
0000
,
0001
0000
0010
0001
0000
1000
0001
0000
0010
0001
1000
0000
0010
0100
0010
0000
,
0100
0001
1000
0100
0010
0100
1000
2200
,
3300
0000
0000
0000
;

//--------------- dance-double - ----------------
#NOTES:
     dance-double:
     :
     Easy:
     6:
     0,0,0,0,0:
00000000
00000000
00000000
00000000
,
00000000
00000000
00000000
00000000
,
00000000
00000000
00000000
00000000
,
00000000
00000000
00000000
00000000
,
00000000
00000000
00000000
00000000
,
00010000
00000000
00000000
00000000
,
00001000
00000000
00000000
00000000
,
01000000
00000000
00000000
00000000
,
00100000
00000000
00000000
00000000
,
10000000
00000000
00000000
00000000
00000000
00100000
00000000
00000000
,
01000000
00000000
00000000
00000000
00000000
00010000
00000000
00000000
,
00100000
00000000
00000000
00000000
00000000
00001000
00000000
00000000
,
00010000
00000000
00000000
00000000
00000000
00000100
00000000
00000000
,
00001000
00000000
00000000
00000000
00000000
00000010
00000000
00000000
,
00000100
00000000
00000000
00000000
00000000
00000001
00000000
00000000
,
00001000
00000000
00000000
00000000
00000000
00000100
00000000
00000000
,
00020000
00000000
00000000
00000000
,
00031000
00000000
00000000
00000000
,
01000000
00000000
00000000
00000000
,
00100000
00000000
00000000
00000000
,
10000000
00000000
00000000
00000000
,
00010000
00000000
00000000
00000000
,
00100000
00000000
00000000
00000000
,
00001000
00000000
00000000
00000000
,
00010000
00000000
00000000
00000000
,
00000100
00000010
00000100
00000000
,
00001000
00000000
00000001
00000000
,
00010000
00001000
00010000
00000000
,
00001000
00000000
01000000
00000000
,
00100000
10000000
00100000
00000000
,
01000000
00000000
00001000
00000000
,
00010000
00000100
00010000
00000000
,
00000100
00000000
00001000
00000000
,
00000001
00000100
00000001
00000000
,
00001000
00000000
00000100
00000000
,
00100000
00010000
00100000
00000000
,
00001000
00000000
01000000
00000000
,
00100000
10000000
00100000
00000000
,
01000000
00000000
00001000
00010000
,
00001000
00000000
00000100
00000000
,
00000010
00000001
00000010
00000000
,
00000002
00000000
00000003
00000000
,
00002000
00000000
00003000
00000000
,
00000200
00000000
00000300
00000000
,
00200000
00000000
00300000
00000000
,
00020000
00000000
00030000
00000000
,
20000000
00000000
30000000
00000000
,
00200000
00000000
00300000
00000000
,
02000000
00000000
03000000
00000000
,
00010000
00000000
00100000
00010000
00000000
00000000
01000000
00000000
,
00001000
00000000
00010000
00000100
00000000
00000000
00001000
00000000
,
00000100
00000000
00000010
00000001
00000000
00000000
00001000
00000000
,
00000010
00000000
00010000
00001000
00000000
00000000
00010000
00000000
,
00100000
00000000
01000000
10000000
00000000
00000000
00010000
00000000
,
01000000
00000000
00001000
00010000
00000000
00000000
00001000
00000000
,
00010000
00010000
00000100
00000100
,
00000020
00000000
00000000
00000030
,
00000011
00000000
00000001
00000000
,
00001010
00000000
00001000
00000000
,
00010100
00000000
00010000
00000000
,
01001000
00000000
01000000
00000000
,
10100000
00000000
00100000
00000000
,
01010000
00000000
00010000
00000000
,
00011000
00000000
00001000
00000000
,
00010100
00000000
00000100
00000000
,
00000010
00000001
00000010
00000100
,
00001000
00000010
00010000
00001000
,
00010000
00100000
10000000
00100000
,
01000000
10000000
00010000
01000000
,
00010000
00100000
00001000
00010000
,
00000100
00001000
00000100
00000001
,
00000100
00000010
00000001
00001000
,
00000200
00000000
00000000
00001300
,
00000100
00010000
00001000
01000000
,
00100000
10000000
01000000
00010000
,
01000000
10000000
00010000
01000000
,
00001000
00010000
00000100
00000010
,
00000001
00001000
00000010
00000100
,
00000010
00010000
00001000
00100000
,
10000000
00100000
00010000
00001000
,
00000100
00000001
00000100
00002000
,
00003000
00000000
00000000
00000000
;

//--------------- dance-double - ----------------
#NOTES:
     dance-double:
     :
     Medium:
     10:
     0,0,0,0,0:
00000000
00000000
00000000
00000000
,
00000000
00000000
00000000
00000000
,
00000000
00000000
00000000
00000000
,
00000000
00000000
00000000
00000000
,
00000000
00000000
00000000
00000000
,
00010000
00000000
00000000
00000000
00000000
00100000
00000000
00000000
,
00100000
00000000
00000000
00000000
00000000
01000000
00000000
00000000
,
01000000
00000000
00000000
00000000
00000000
10000000
00000000
00000000
,
10000000
00000000
00000000
00000000
00000000
00010000
00000000
00000000
,
00010000
00000000
00100000
00000000
00000000
00001000
00000000
00000000
,
00010000
00000000
00001000
00000000
00000000
00000100
00000000
00000000
,
00000010
00000000
00000001
00000000
00000000
00001000
00000000
00000000
,
00000010
00000000
00010000
00000000
00000000
00001000
00000000
00000000
,
00010000
00000000
00100000
00000000
00000000
00010000
00000000
00000000
,
10000000
00000000
00010000
00000000
00000000
01000000
00000000
00000000
,
00010000
00000000
00100000
00000000
00000000
00001000
00000000
00000000
,
00020000
00000000
00000000
00000000
,
00031000
00000000
00000000
00000000
,
00000100
00000000
00000000
00000000
,
00000010
00000000
00000000
00000000
,
00000001
00000000
00000000
00000000
,
00001000
00000000
00000000
00000000
,
00000100
00000000
00000000
00000000
,
00010000
00000000
00000000
00000000
,
00200000
02300000
23000000
30020000
,
01030000
00000000
00001000
00000000
00010000
00000100
00010000
00000000
,
00001000
00000000
00000100
00000000
00000010
00000001
00000010
00000000
,
00000001
00000000
00001000
00000000
00000100
00010000
00000100
00000000
,
00010000
00000000
00001000
00000000
00100000
00010000
00100000
00000000
,
00010000
00000000
10000000
00000000
00100000
01000000
00100000
00000000
,
01000000
00000000
00001000
00000000
00100000
00010000
00100000
00000000
,
00001000
00000000
00010000
00000000
00000100
00001000
00000100
00000000
,
00000010
00000000
00000001
00000000
00001000
00000010
00001000
00000000
,
00000010
00000000
00010000
00000000
00001000
00100000
00000000
00001000
,
01000000
00000000
00100000
00000000
10000000
01000000
10000000
01000000
,
00100000
00000000
00001000
00000000
00010000
00000100
00000000
00001000
,
00000001
00000000
00001000
00000000
00000010
00000100
00000010
00000100
,
00000001
00000000
00001000
00000000
00000100
00010000
00000000
00001000
,
01000000
00000000
00010000
00000000
01000000
00100000
01000000
00100000
,
10000000
00000000
01000000
00000000
00100000
00001000
00000000
00010000
,
00000100
00000000
00000010
00000000
00000100
00001000
00000100
00001000
,
00000002
00000000
00000000
00000000
00000000
00000203
00000000
00000000
,
00000320
00000000
00000000
00000000
00000000
00020030
00000000
00000000
,
00032000
00000000
00000000
00000000
00000000
00203000
00000000
00000000
,
02300000
00000000
00000000
00000000
00000000
23000000
00000000
00000000
,
30020000
00000000
00000000
00000000
00000000
00230000
00000000
00000000
,
00302000
00000000
00000000
00000000
00000000
00023000
00000000
00000000
,
00030200
00000000
00000000
00000000
00000000
00002300
00000000
00000000
,
00003010
00000000
00010000
00001000
00000000
00100000
00010000
00000000
,
00110000
00000000
00100000
01000000
00000000
10000000
00100000
10000000
,
00100000
00000000
01000000
00010000
00000000
00100000
00001000
00100000
,
00001000
00000000
00010000
00000100
00000000
00001000
00000010
00001000
,
00000010
00000000
00000100
00000001
00000000
00001000
00000100
00001000
,
00000100
00000000
00010000
00001000
00000000
00100000
00001000
00100000
,
00001000
00000000
01000000
00010000
00000000
10000000
00100000
10000000
,
00100000
01000000
00010000
10000000
00100000
01000000
00010000
10000000
,
02000000
00000000
00100000
00000000
,
03100000
00000000
00001000
00000000
,
00010000
00000000
00001000
00000000
,
00000100
00000000
00000010
00000000
,
00001000
00000000
00000001
00000000
,
00000010
00000000
00000100
00000000
,
00010000
00000000
00001000
00000000
,
01000000
00000000
00100000
00000000
,
10000000
00000000
00100000
00000000
01000000
00010000
01000000
00010000
,
01000000
00000000
00010000
00000000
10000000
01000000
00000000
00100000
,
00010000
00000000
00001000
00000000
00000100
00000010
00000001
00000010
,
00000100
00000000
00000001
00000000
00001000
00000100
00000000
00010000
,
00001000
00000000
00100000
00000000
00010000
10000000
00100000
10000000
,
00010000
00000000
00100000
00000000
00001000
00010000
00000000
00000100
,
00000010
00000000
00000001
00000000
00001000
00000010
00001000
00000010
,
00000100
00000000
00000010
00000000
00010000
00001000
00000000
00100000
,
00010000
00000000
10000000
00100000
01000000
00100000
10000000
00010000
,
01000000
00000000
01010000
00000000
00010000
10000000
01000000
00000000
,
00100000
00000000
00110000
00000000
00010000
00001000
00000100
00000000
,
00000010
00000000
00000011
00000000
00000001
00001000
00000010
00000000
,
00010000
00000000
00011000
00000000
00001000
00100000
00010000
00100000
,
01000000
00000000
11000000
00000000
10000000
00010000
01000000
00001000
,
00010000
00000000
00011000
00000000
00001000
00010000
00000100
00000010
,
00000200
00002300
00003002
00000203
,
00000320
00000000
00020030
00000000
00031000
00100000
00010000
20000000
,
30000000
00000000
00000000
00000000
;

//--------------- dance-double - ----------------
#NOTES:
     dance-double:
     :
     Hard:
     13:
     0,0,0,0,0:
00000000
00000000
00000000
00000000
,
00000000
00000000
00000000
00000000
,
00000000
00000000
00000000
00000000
,
00000000
00000000
00000000
00000000
,
00000000
00000000
00000000
00000000
,
00010000
00000000
00000000
00000000
00000000
00000100
00000000
00000000
,
00000110
00000000
00000000
00000000
00000000
00000010
00000000
00000000
,
00001001
00000000
00000000
00000000
00000000
00000001
00000000
00000000
,
00001100
00000000
00000000
00000000
00000000
00010000
00000000
00001000
,
10000000
00000000
01000000
00000000
00000000
10000000
00000000
00000000
,
00010000
00000000
01000000
00000000
00000000
00001000
00000000
00000000
,
00010000
00000000
00000100
00000000
00000000
00001000
00000000
00000000
,
00000001
00000000
00000010
00000000
00000000
00000001
00000000
00000000
,
00001000
00000000
00000100
00000000
00000000
00001000
00000000
00000000
,
00000010
00000000
00010000
00000000
00000000
00001000
00000000
00000000
,
00100000
00000000
00010000
00000000
00000000
10000000
00000000
00000000
,
00200000
00000000
00000000
00000000
00000000
01300000
00010000
10000000
,
01000000
00000000
00100000
00010000
00000000
00001000
00000000
00010000
,
00000100
00000000
00000010
00000000
00000001
00001000
00000010
00001000
,
00000001
00000000
00000100
00000000
00001000
00010000
00000000
00001000
,
00100000
00000000
00010000
00000000
00100000
01000000
10000000
01000000
,
00100000
00000000
00001000
00000000
00010000
00000100
00000000
00000010
,
00000001
00000000
00001000
00000000
00000010
00001000
00000001
00001000
,
00000100
00000000
00000010
00000000
00000001
00001000
00000000
00000100
,
00010000
00000000
00001000
00010000
01000000
10000000
00100000
00010000
,
00100000
01000000
00010000
00100000
01000000
00010000
00000000
01000000
,
10000000
00001000
00010000
00000100
00001000
00000010
00000100
00000001
,
00001001
00000000
00000100
00010000
00001000
00100000
00000000
01000000
,
10000000
00010000
01000000
00001000
00010000
00100000
00010000
00001000
,
00010000
00000000
00000010
00000100
00000001
00001000
00000000
00000100
,
00010000
00001000
00100000
10000000
00100000
01000000
10000000
00010000
,
01000000
00000000
00100000
10000000
00010000
00100000
00000000
00001000
,
00000100
00000001
00000100
00001000
00010000
01000000
10000000
00100000
,
01000000
00000000
01010000
00000000
00010000
10000000
00000000
01000000
,
00100000
00000000
00010000
00001000
00000100
00001000
00010000
00100000
,
01000000
00000000
10100000
00000000
00100000
01000000
00000000
00001000
,
00010000
00001000
00000100
00000001
00000100
00001000
00000100
00000010
,
00010000
00000000
00011000
00000000
00001000
00010000
00000000
00100000
,
10000000
00000000
00100000
01000000
00010000
00100000
00001000
00010000
,
00000100
00000000
00001000
00000000
00000100
00000010
00000000
00000100
,
00001000
00000010
00000001
00000010
00001000
00010000
01000000
10000000
,
01000000
00000000
00000000
00100000
00000000
00100000
00000000
00000000
,
10000000
00000000
00000000
00010000
00000000
00010000
00000000
00000000
,
00100000
00000000
00000000
00001000
00000000
00001000
00000000
00000000
,
00010000
00000000
00000000
00000100
00000000
00000100
00000000
00000000
,
00000010
00000000
00000000
00000001
00000000
00000001
00000000
00000000
,
00001000
00000000
00000000
00000100
00000000
00000100
00000000
00000000
,
00010000
00000000
00000000
00001000
00000000
00001000
00000000
00000000
,
00010000
00100000
01000000
10000000
00000000
00010000
01000000
00000000
,
01010000
00000000
00010000
10000000
00000000
01000000
00100000
00001000
,
00011000
00000000
00010000
00000100
00000000
00000010
00000001
00001000
,
00001010
00000000
00000010
00010000
00000000
00001000
00100000
01000000
,
11000000
00000000
10000000
00010000
00000000
00100000
00001000
00010000
,
00010100
00000000
00000100
00000010
00000000
00010000
00000100
00001000
,
00001010
00000000
00000010
00010000
00000000
00001000
01000000
00100000
,
10000000
01000000
01000000
00100000
00100000
00001000
00001000
00010000
,
00000200
00000000
00000000
00000000
00000010
00000320
00000000
00000000
,
00000031
00000000
00000010
00000000
00000200
00001000
00000000
00000000
,
00010300
00000000
00001000
00000000
02000000
00100000
00000000
00000000
,
03010000
00000000
10000000
00000000
00200000
00010000
00000000
00000000
,
01300000
00000000
00001000
00000000
00020000
00000100
00000000
00000000
,
00030010
00000000
00001000
00000000
00000002
00000010
00000000
00000000
,
00001003
00000000
00000100
00000000
00200000
00010000
00000000
00000000
,
01300000
00000000
10000000
00000000
00200000
01000000
00000000
00000000
,
00310000
00000000
00001000
00100000
10000000
00100000
00010000
00100000
,
00110000
00000000
00011000
00000000
00010000
00000100
00001000
00010000
,
00100000
00000000
11000000
00000000
10000000
00010000
01000000
00001000
,
00010000
00000000
01010000
00000000
10000000
01000000
00010000
00001000
,
00000100
00000010
00001000
00000001
00000010
00001000
00010000
00000100
,
00010000
00000000
00101000
00000000
00100000
00010000
01000000
00001000
,
00011000
00000000
00001000
00000100
00000010
00001000
00000001
00000100
,
00000010
00000000
00011000
00000000
00001000
00100000
00010000
00100000
,
01000000
00010000
01000000
10000000
00010000
00100000
00001000
00010000
,
00000100
00000010
00000001
00001000
00000010
00010000
00000100
00010000
,
00001000
00001000
00100000
00010000
01000000
01000000
00100000
10000000
,
00010000
00100000
01000000
00100000
00001000
00010000
00000100
00000010
,
00000001
00000001
00001000
00000010
00001000
00001000
00000100
00010000
,
00001000
00010000
00100000
01000000
00010000
10000000
01000000
00100000
,
00001000
00001000
00010000
00000100
00000010
00000010
00000001
00001000
,
00000100
00000000
00000001
00000000
00000000
00000100
00000000
00000000
00001000
00000000
00000100
00000000
00010000
00000000
00001000
00000000
,
00100000
00010000
10000000
00100000
01000000
00010000
00100000
00020000
,
00030000
00000000
00000000
00000000
;

//--------------- dance-double - ----------------
#NOTES:
     dance-double:
     :
     Challenge:
     15:
     0,0,0,0,0:
00000000
00000000
00000000
00000000
,
00000000
00000000
00000000
00000000
,
00000000
00000000
00000000
00000000
,
00000000
00000000
00000000
00000000
,
00000000
00000000
00000000
00000000
,
10100000
00000000
00000000
00000000
00000000
00100000
00000000
00000000
,
01010000
00000000
00000000
00000000
00000000
00001000
00000000
00000000
,
00011000
00000000
00000000
00000000
00000000
00001000
00000000
00000000
,
00000110
00000000
00000000
00000000
00000000
00000001
00000000
00001000
,
00000100
00000000
00000010
00000100
00000000
00010000
00000000
00001000
,
00100000
00000000
00010000
10000000
00000000
00100000
00000000
01000000
,
00001000
00000000
00010000
00000100
00000000
00000010
00000000
00000100
,
00001000
00000000
00000001
00000100
00000000
00000010
00000000
00010000
,
00001000
00000000
01000000
00010000
00000000
00100000
00000000
10000000
,
00100000
00000000
00010000
00100000
00000000
00001000
00000000
00010000
,
00000100
00000000
00000010
00000100
00000000
00000010
00000000
00000000
,
00000022
00000000
00000000
00000000
00000033
00000001
00000010
00000100
,
00001000
00000000
00000100
00010000
00001000
00100000
00000000
01000000
,
10000000
00000000
00010000
00000000
01000000
10000000
01000000
00010000
,
00001000
00000000
00100000
00000000
00010000
00001000
00000100
00000010
,
00000001
00000000
00001000
00000100
00010000
00001000
01000000
00010000
,
00100000
00000000
01000000
00000000
10000000
00010000
00000000
01000000
,
00001000
00010000
00000100
00000000
00000010
00000001
00000000
00001000
,
00000010
00000000
00000100
00000000
00000001
00001000
00000000
00000100
,
00001000
00000000
00000000
00000000
00000100
00000000
00010000
00000000
00001000
00010000
00001000
00100000
00010000
00100000
00010000
10000000
,
00100000
00000000
00000000
00000000
10100000
00000000
10000000
00010000
00100000
00000000
00001000
00000000
00010000
00000000
00000100
00000000
,
00001100
00000000
00000000
00000000
00000011
00000000
00000010
00000100
00001000
00000000
00000100
00000000
00010000
00000000
00001000
00000000
,
00101000
00000000
00000000
00000000
01100000
00000000
01000000
10000000
00010000
00000000
01000000
00000000
00001000
00000000
00010000
00000000
,
00011000
00000000
00000000
00000000
00001100
00000000
00000100
00000010
00000001
00000000
00000100
00000000
00001000
00000000
00000100
00000000
,
00000110
00000000
00000000
00000000
00011000
00000000
00001000
00100000
00010000
00000000
01000000
00000000
10000000
00000000
01000000
00000000
,
01100000
00000000
00000000
00000000
00011000
00000000
00001000
00010000
00000100
00000000
00000001
00000000
00000100
00000000
00000010
00000000
,
00000011
00000000
00000000
00000000
00001010
00000000
00000010
00010000
00001000
00000000
00100000
00000000
00010000
00000000
00100000
00000000
,
01000000
00000000
10000000
00000000
00010000
00000000
01000000
00000000
00010000
00100000
00010000
00100000
00001000
00010000
00001000
00010000
,
00001000
00000000
00000000
00000000
00010000
00000000
00001000
00000100
00000010
00000000
00000100
00000000
00000001
00000000
00001000
00000100
,
00000010
00000100
00001000
00000100
00000002
00000203
00002300
00023000
,
00130000
00000000
00000000
00000000
01000000
00000000
00010000
01000000
00100000
00000000
00001000
00000000
00010000
00000000
00001000
00100000
,
00010000
00100000
10000000
00010000
02000000
03020000
00032000
00003020
,
00000031
00000000
00000000
00000000
00000010
00000000
00000100
00000010
00000001
00000000
00000010
00000000
00001000
00000000
00000100
00010000
,
00001000
00000000
00100000
00010000
10000000
00000000
00100000
00000000
01000000
00000000
10000000
00000000
01000000
00000000
00010000
00000000
,
00100000
00000000
01000000
00000000
00010000
00001000
00000000
00000100
,
00000001
00000000
00000010
00000000
00000100
00000000
00001000
00000000
00000100
00010000
00000100
00010000
00001000
00100000
00001000
00100000
,
00010000
00000000
00000000
00100000
00000000
01000000
00000000
00000000
,
10000000
00000000
00000000
00010000
00000000
00100000
00000000
00000000
,
00001000
00000000
00000000
00010000
00000000
00000010
00000000
00000000
,
00001000
00000000
00000000
00000100
00000000
00000010
00000000
00000000
,
00000001
00000000
00000000
00001000
00000000
00000100
00000000
00000000
,
00010000
00000000
00000000
00001000
00000000
01000000
00000000
00000000
,
10000000
00000000
00000000
01000000
00000000
00010000
00000000
00000000
,
10010000
00000000
00010000
00101000
00000000
00100000
00000100
00001000
,
00000001
00000000
00000010
00001000
00000000
00010000
01000000
10000000
,
00010000
01000000
10000000
01000000
00001000
00010000
00000100
00000001
,
00000100
00000000
00000010
00000001
00000000
00001000
00000010
00010000
,
00001000
00100000
10000000
00100000
00000000
01000000
10000000
00010000
,
01010000
00000000
01000000
00001000
00000000
00010000
00000100
00000001
,
00000100
00000010
00001000
00010000
01000000
10000000
00100000
01000000
,
00010000
00100000
00100000
00001000
00001000
00010000
00010000
00000100
,
00000020
00000000
00000032
00000000
,
00001003
00000000
00000010
00000000
00010000
00000100
00000000
00010000
,
00001000
00000000
01000000
00000000
10000000
01000000
00000000
00010000
,
00100000
00000000
00001000
00000000
00010000
00000100
00000000
00000001
,
00000100
00000000
00000010
00000000
00000001
00001000
00000000
00000100
,
00010000
00000000
00001000
00000000
01000000
00100000
00000000
10000000
,
00010000
00000000
00100000
00000000
10000000
00100000
00000000
00001000
,
00010000
00000000
00000100
00000000
00000010
00000001
00000000
00001000
,
00000010
00000000
00000000
00000000
00000100
00000000
00000001
00000000
00001000
00000100
00001000
00000100
00010000
00001000
00010000
00001000
,
00010000
00000000
00000000
00000000
01100000
00000000
01000000
10000000
00010000
00000000
01010000
00000000
00000000
00000000
01000000
00000000
,
00001000
00000000
00010000
00000000
00000100
00000000
00000010
00000001
00000010
00000000
00000100
00000000
00010000
00000000
00001000
00000000
,
00101000
00000000
00000000
00000000
01100000
00000000
01000000
10000000
00010000
00000000
01010000
00000000
00000000
00000000
01000000
00000000
,
00001000
00000000
00010000
00000000
00000100
00000000
00000010
00000100
00001000
00000000
00000001
00000000
00000100
00000000
00000010
00000000
,
00001010
00000000
00000000
00000000
00000011
00000000
00000010
00000100
00001000
00000000
00001100
00000000
00000100
00000000
00010000
00000000
,
00001000
01000000
00100000
00010000
00100000
10000000
00010000
00100000
,
01100000
00000000
00000000
00000000
11000000
00000000
10000000
00010000
01000000
00000000
01001000
00000000
00000000
00000000
00001000
00000000
,
00010000
00000000
00000100
00000000
00000010
00000000
00000001
00000000
00001000
00000010
00001000
00000010
00010000
00001000
00010000
00001000
,
00100000
00010000
00100000
00001000
00010000
00000100
00001000
00000100
,
00000001
00000000
00000100
00000000
00001000
00000000
00000010
00001000
00000010
00000000
00000100
00000000
00010000
00000000
01000000
00000000
,
00010000
10000000
01000000
00100000
00001000
00010000
01000000
00010000
,
00001000
00000000
00000010
00000000
00000100
00001000
00000100
00000000
00000010
00000000
00000001
00000000
00001000
00000000
00000010
00000000
,
00010000
00001000
00000100
00001000
00010000
00001000
00100000
10000000
,
00100000
01000000
10000000
00010000
01000000
00001000
00010000
00100000
,
01000000
00000000
10000000
00000000
00000000
01000000
00000000
00000000
00010000
00000000
00001000
00000000
00000010
00001000
00000000
00000000
,
00000100
00000010
00000001
00000100
00001000
00010000
01000000
00200000
,
00300000
00000000
00000000
00000000
;
