#VERSION:0.83;
#TITLE:nostos;
#SUBTITLE:;
#ARTIST:Setaria Virtuoso;
#TITLETRANSLIT:;
#SUBTITLETRANSLIT:;
#ARTISTTRANSLIT:;
#GENRE:;
#CREDIT:;
#MUSIC:nostos.ogg;
#BANNER:nostos.png;
#BACKGROUND:nostos-bg.png;
#CDTITLE:;
#SAMPLESTART:22.999;
#SAMPLELENGTH:15.001;
#SELECTABLE:YES;
#OFFSET:1.347;
#BPMS:0.000=128.000
,76.000=132.000
,130.000=144.000
,272.000=138.000
,275.000=128.000
,278.000=116.000
,280.000=100.000
,282.000=86.000
,285.000=112.000
,287.000=106.000
,290.000=102.000
,292.750=90.000
;
#STOPS:;
#PREVIEW:nostos (preview).ogg;
#BGCHANGES:1.000=nostos.mp4=1.000=0=0=0=StretchNoLoop====,
99999.000=-nosongbg-=1.000=0=0=0=StretchNoLoop====
;
#FGCHANGES:;

//--------------- dance-single - Princess Pamela ----------------
#NOTEDATA:;
#STEPSTYPE:dance-single;
#DESCRIPTION:Princess Pamela;
#DIFFICULTY:Medium;
#METER:11;
#RADARVALUES:0,0,0,0,0;
#NOTES:
0000
0000
0000
0000
,
0000
0000
0000
0000
,
0000
0000
0000
0000
,
0000
0000
0000
0000
,
0000
0000
0000
0001
,
1000
0010
1000
0000
0001
0000
0010
0000
,
0100
0000
1000
0000
0001
0100
0001
0000
,
1000
0100
0010
0001
,
0100
0010
1000
0001
,
0010
0000
0200
0000
0000
0000
0300
1000
,
0001
0000
0000
0100
0000
0000
0010
0000
,
0000
1000
0000
0000
2002
0000
0000
0000
,
0000
3003
0000
0000
,
1000
0000
0100
0000
0010
0100
0010
0000
,
0001
0000
0100
0000
0020
0000
0000
0030
,
1000
0000
0001
1000
0100
0000
0000
0000
,
0010
0001
0010
0000
0100
0000
1000
0001
,
1000
0000
0100
0000
1000
0010
1000
0000
,
0001
0200
0000
0300
,
1001
0000
0000
0001
1000
0001
0010
0000
,
0100
0000
1000
0000
0020
0000
0030
0100
,
0010
0100
0001
0000
1000
0000
0100
0000
,
0110
0000
0000
0001
1000
0001
0010
0000
,
0100
0000
1000
0000
0020
0000
0030
0100
,
0010
0100
0001
0000
1000
0000
0100
0000
,
1001
0000
0001
1000
1000
0001
0100
0000
,
0010
0000
1000
0000
0001
0000
1000
0001
,
0001
0100
0001
0000
0010
0000
0100
0000
,
1000
0010
0010
0000
1000
0001
0010
0100
,
1000
0010
0200
0000
,
0300
0000
0002
0000
0003
0010
0000
0000
,
2001
0001
3100
2001
,
0001
0000
3100
0000
1001
0000
0001
0010
,
0100
1000
0010
0000
1000
0100
0020
0000
,
0031
0000
0000
0001
0000
0000
0100
0000
0000
0100
0000
0000
0010
0000
0000
0010
,
0000
0000
1000
0000
0001
0000
1000
0000
0100
0000
0000
0100
0000
0000
0010
0000
,
0000
0010
0000
0000
0001
0000
0000
0001
0000
0000
0100
0000
0020
0000
0000
0000
,
1030
0000
0001
1000
0001
0000
0000
0000
0010
0000
0100
0000
1000
0000
0100
0000
,
0010
0000
0000
0000
0000
0000
0000
0000
0001
0000
1000
0001
1000
0000
0000
0000
,
0010
0100
0001
0100
0010
0000
0000
0000
,
1000
0000
0001
1000
0001
0000
0000
0000
0100
0000
0001
0000
0010
0000
0001
0000
,
1000
0000
0000
0000
0000
0000
0000
0000
0001
0000
1000
0001
1000
0000
0000
0000
,
0100
1000
0010
1000
0001
0000
0010
0000
,
1001
1100
0011
0110
,
1000
0001
0100
0000
0010
0000
1000
0000
,
1001
0101
1010
0110
,
0001
1000
0100
0000
0010
0000
0002
0000
,
1003
0010
0000
0010
0100
0001
0000
0001
,
0010
0100
0000
0100
1000
0001
0000
0001
,
0100
1000
0000
1000
0100
0010
0000
0010
,
1000
0100
0000
0100
0001
0100
2000
0000
,
3001
0010
0000
0010
0000
0001
0000
0000
0100
0010
0000
0010
0000
0100
0000
0000
,
0010
1000
0000
1000
0000
0010
0000
0000
0100
0001
0000
0001
0000
0010
0000
0000
,
2001
0000
0000
3001
0020
0000
0000
0130
,
2000
0000
0000
3010
0200
0000
0000
0301
,
2000
0000
3000
0200
0000
0300
0020
0000
,
0032
0203
0000
0310
,
2001
0000
0000
3001
0020
0000
0130
1000
,
0200
0320
0032
2003
,
3020
0000
0130
0001
0200
0000
0310
1000
,
0001
0000
0000
0010
0100
0000
0000
1000
0001
0000
0000
0000
0200
0000
0000
0000
,
0310
1000
0010
1000
0100
1000
0001
0010
,
0100
1000
0010
0100
0001
0010
0100
0000
,
1000
0010
1000
0010
0001
0010
1000
0010
,
0100
0001
0010
0100
1000
0010
0100
0000
,
1001
0001
0101
1001
,
1000
0000
1100
0000
0001
0010
0100
0000
,
1000
0000
0010
0100
0020
0000
0030
0000
,
1000
0100
0020
0000
0031
0000
1000
0010
,
0200
0000
0301
0000
0010
0100
2000
0000
,
3001
0000
0200
0000
0300
0020
0000
0030
,
1000
0001
0100
0001
,
1000
0100
1000
0001
,
0100
0001
1000
0100
,
1000
0001
0020
0000
0000
0000
0000
0000
0000
0000
0000
0030
0000
0000
0000
0000
;

//--------------- dance-single - Princess Pamela ----------------
#NOTEDATA:;
#STEPSTYPE:dance-single;
#DESCRIPTION:Princess Pamela;
#DIFFICULTY:Hard;
#METER:15;
#RADARVALUES:0,0,0,0,0;
#NOTES:
0000
0000
0000
0000
,
0000
0000
0000
0000
,
0000
0000
0000
0000
,
0000
0000
0000
0000
,
0000
0000
0000
0001
,
1000
0100
0010
0001
0020
0000
0000
0000
0031
0000
1000
0000
0001
0000
0100
0000
,
0010
0000
0000
0000
1000
0000
0000
0000
0001
0010
0100
1000
0200
0000
0000
0000
,
1300
0001
0100
0010
0100
0000
0001
0000
,
0020
0000
0130
1000
0010
0000
0200
0000
,
0301
0010
0200
0000
0000
0000
0300
1000
,
0002
0000
0000
0103
0000
0000
0010
0000
,
0000
1000
0000
0000
2002
0000
0000
0000
,
0000
0000
0000
0000
3003
0000
0000
0000
1000
0000
0001
0010
0100
0000
1000
0000
,
0001
0000
0100
0000
0010
1000
0010
0000
,
0100
0001
0010
0100
,
1000
0000
0001
0100
0001
0000
0000
0000
,
2000
0100
3100
0002
,
0100
0103
2000
0010
,
3010
0002
0000
0003
,
1001
0000
1000
0100
0100
1000
0010
0100
,
0001
1000
0001
0000
0100
0000
0000
0000
1001
0000
0000
0000
0001
0000
0010
0000
,
0100
0000
1000
0000
0010
0000
0100
0000
0001
0000
0000
0000
0010
0000
0100
1000
,
0001
0100
0010
0100
0001
1000
0100
0010
,
0001
0000
0100
0010
1000
0100
0001
0100
,
1000
0000
0001
0000
0100
0000
0010
0000
0100
0000
0000
0000
0001
1000
0010
0100
,
0001
0000
1000
0100
0100
0010
0011
0000
,
0100
0010
1000
0000
0001
0010
0010
0100
,
1000
0010
1010
1000
0001
0100
0010
0000
,
0110
0000
0001
0000
0002
0000
0000
0000
0013
0000
0100
0000
1000
0000
0001
0100
,
0001
0100
1000
0100
0002
0000
0000
0000
,
0000
0000
0000
0000
0023
0000
0000
0000
0130
0000
0000
1000
0001
0000
1000
0000
,
1010
0000
0000
0000
0100
0010
0100
0000
0001
0000
1000
0000
0010
0000
0000
0000
,
0100
0010
0100
0000
0001
0000
1000
0000
1001
0000
0000
0000
0100
0010
0100
0000
,
0001
0000
1000
0000
1001
0000
0000
0000
0100
0010
0100
0000
0001
1000
0001
1000
,
0100
0010
0000
0010
0000
0001
0100
0010
0000
0010
0000
1000
0001
0010
0000
0100
,
0000
1000
0001
0100
0000
0010
0000
1000
0100
0010
0000
0010
0000
0001
0100
0010
,
0000
0010
0000
1000
0001
0010
0000
0100
0000
1000
0001
0000
0100
0010
0100
0010
,
1000
0000
0001
0010
0100
0000
1000
0000
0001
0000
0010
0000
1000
0000
0010
0000
,
0001
0010
0001
0000
0100
0000
0100
0000
0001
0000
1000
0010
0100
0000
0001
0000
,
1000
0000
0010
0000
0001
0000
0010
0000
0100
0010
1000
0000
0001
0100
0001
0100
,
0010
0000
1000
0100
0010
0000
0001
0000
0100
0000
1000
0000
0100
0000
0001
0000
,
0100
0010
0100
0000
0001
1000
0100
0010
0001
0000
0010
0100
1000
0000
0001
0000
,
0010
0000
1000
0000
0010
0000
0001
0000
0100
0001
0100
0010
1000
0001
0010
0100
,
1000
0000
0000
0000
0000
0000
0000
0000
0010
0000
0000
0000
0100
0000
0000
0000
0001
0100
0000
0000
0000
0000
0000
0000
0010
1000
0000
0000
0000
0000
0000
0000
,
0001
0000
0000
0000
0010
0000
0000
0000
0100
1000
0000
0000
0000
0000
0000
0000
0001
0010
0000
0000
0000
0000
0000
0000
0001
1000
0000
0000
0000
0000
0000
0000
,
1010
0000
0000
0000
0000
0000
0000
0000
0001
0100
0000
0000
0000
0000
0000
0000
0010
1000
0000
0000
0000
0000
0000
0000
0100
1000
0000
0000
0000
0000
0000
0000
,
0001
0000
0000
0000
0010
0000
0000
0000
0001
1000
0000
0000
0000
0000
0000
0000
0010
0100
0000
0000
0000
0000
0000
0000
0001
0000
1000
0000
0001
0000
1000
0000
,
0010
0000
1000
0100
0010
0000
0001
0100
0010
0000
1000
0001
0010
0000
0110
0000
,
0000
0000
0001
0100
0010
0000
1000
0100
0010
0000
0001
1000
0010
0000
0110
0000
,
0000
0000
0001
0100
1000
0000
0100
0001
1000
0000
0001
0010
1000
0000
0110
0000
,
0000
0000
1000
0100
0001
0000
0100
1000
0001
0000
0010
0000
0001
0100
0010
1000
,
0001
0100
0000
0100
0000
0001
0000
0010
0100
1000
0000
1100
0000
0001
0000
0100
,
0010
0000
0000
0100
0000
0000
0000
0000
0000
1010
0000
0000
0000
0000
0000
0101
0000
0000
0000
0000
0000
1000
0000
0000
0100
0000
0000
0010
0000
0000
0000
0000
0000
0001
0000
0000
1000
0000
0000
0001
0000
0000
1000
0000
0001
0000
1000
0000
,
0002
0000
0000
0000
0000
0000
1003
0100
2000
0000
0000
0000
0000
0000
3001
0100
,
0002
0000
0000
0000
0000
0000
0013
0100
2000
0000
0000
0000
0000
0000
3002
0000
,
0203
0000
0000
0320
0000
0000
2030
3002
,
0023
0230
0000
1300
,
1001
0000
0000
0000
1000
0100
0010
0001
0010
0000
0100
0000
1000
0000
0010
0000
,
0200
2300
3200
0302
,
0013
0100
0010
0001
0100
0001
1000
0100
,
0010
0001
1000
0001
0010
0100
1000
0001
0100
0010
1000
0001
1000
0100
0001
0100
,
2000
0000
0001
0000
3001
0000
1000
0100
0010
0000
0001
0000
0100
0010
1000
0001
,
0100
0000
0010
0000
0100
0000
0010
0000
0000
0000
0000
0000
1000
0000
0000
0000
0000
0000
0001
0000
0000
0010
0000
0000
0100
0000
0000
0000
0000
0000
1000
0000
0000
0000
0000
0000
0010
0000
0000
0100
0000
0000
0010
0000
0000
1000
0000
0000
,
0001
0000
0010
0000
1000
0010
0100
0010
0001
0000
0100
0010
1000
0000
0100
0000
,
1000
0000
0001
0000
1000
0000
0001
0000
0000
0000
0000
0000
0010
0000
0000
0100
0000
0000
1000
0000
0000
0100
0000
0000
0010
0000
0000
0001
0000
0000
0100
0000
0000
0010
0000
0000
0100
0000
0000
0001
0000
0000
0010
0000
0000
0000
0000
0000
,
1001
0000
0001
0010
0100
0000
1000
0000
0110
0000
0000
0000
1001
0000
1000
0010
,
0100
0000
0001
0000
0110
0000
0000
0000
1000
0001
0010
0100
1000
0000
0010
0000
,
1010
0001
0100
1000
0100
0001
0101
0000
,
1000
0100
0010
0001
0010
0000
0100
0000
1001
0000
0000
0000
0001
0100
0010
1000
,
0010
0000
0100
0000
1001
0000
0000
0000
1000
0001
0010
0100
1000
0000
0010
0000
,
0100
0010
2000
0100
3010
0002
0100
0013
,
1000
0100
0010
0100
1000
0001
1000
0010
,
0100
0010
1000
0001
1000
0100
0010
0100
,
1000
0001
1000
0010
0100
0010
1000
0001
,
1000
0100
0010
0001
2000
0000
0000
0000
0000
0000
0000
0000
0000
0000
0000
0000
0000
0000
0000
0000
0000
0000
3000
0000
0000
0000
0000
0000
0000
0000
0000
0000
;

//--------------- dance-double - Princess Pamela ----------------
#NOTEDATA:;
#STEPSTYPE:dance-double;
#DESCRIPTION:Princess Pamela;
#DIFFICULTY:Hard;
#METER:15;
#RADARVALUES:0,0,0,0,0;
#NOTES:
00000000
00000000
00000000
00000000
,
00000000
00000000
00000000
00000000
,
00000000
00000000
00000000
00000000
,
00000000
00000000
00000000
00000000
,
00000000
00000000
00000000
00001000
,
00010000
00001000
00000100
00000010
00000200
00000000
00000000
00000000
00000301
00000000
00001000
00000000
00000010
00000000
00010000
00000000
,
00001000
00000000
00000000
00000000
00011000
00000000
00000000
00000000
00001000
00010000
00100000
01000000
00200000
00000000
00000000
00000000
,
10300000
00010000
01000000
00100000
01000000
00000000
00010000
00000000
,
20000000
00000000
31000000
00010000
00001000
00000000
00000020
00000000
,
00000130
00000010
00000002
00000000
00000000
00000000
00000003
00000100
,
00002000
00000000
00000000
00013000
00000000
00000000
00100000
00000000
,
00000000
10000000
00000000
00000000
20020000
00000000
00000000
00000000
,
00000000
00000000
00000000
00000000
30030000
00000000
00000000
00000000
00010000
00000000
00100000
01000000
10000000
00000000
00010000
00000000
,
10000000
00000000
01000000
00000000
00100000
00010000
00001000
00000000
,
00000100
00000010
00000100
00001000
,
00010000
00000000
00000010
00001000
00000010
00000000
00000000
00000000
,
00001000
00010000
01000000
00010000
01000000
00000000
00010000
00001000
,
00000010
00001000
00000010
00000000
00001000
00010000
00001000
00000100
,
00000001
00000010
00000100
00001000
00000200
00000000
00000300
00000000
,
00001001
00000000
00000001
00000100
00000100
00000001
00000010
00001000
,
00010000
00001000
00010000
00000000
01000000
00000000
10000000
00000000
00010000
00000000
01000000
00000000
00100000
00000000
01000000
00000000
,
10000000
00000000
01000000
00000000
00100000
00000000
00001000
00000000
00010000
00000000
00000000
00000000
00000100
00000000
00010000
00001000
,
00010000
00000100
00000010
00000001
00000010
00000100
00001000
00010000
,
00100000
00000000
01000000
00100000
10000000
01000000
00010000
00001000
,
00000100
00000000
00000001
00000000
00000010
00000000
00001000
00000000
00010000
00000000
00000000
00000000
00001000
00000010
00001000
00000010
,
00000001
00000000
00000001
00000100
00000100
00001000
00011000
00000000
,
00010000
00100000
00010000
00000000
00001000
00000100
00000100
00001000
,
00010000
01000000
10000000
01000000
00010000
00001000
00100000
00000000
,
01100000
00000000
10000000
00000000
20000000
00000000
00000000
00000000
30100000
00000000
01000000
00000000
10000000
00000000
01000000
00010000
,
01000000
00100000
00010000
00000100
00002000
00000000
00000000
00000000
,
00000000
00000000
00000000
00000000
00003002
00000000
00000000
00000000
00000103
00000000
00000000
00000001
00001000
00000000
00000100
00000000
,
00000002
00000000
00000000
00000000
00000103
00001000
00000100
00000000
00010000
00000000
00000100
00000000
00000002
00000000
00000000
00000000
,
00000103
00001000
00000100
00000000
00010000
00000000
00000100
00000000
00011000
00000000
00000000
00000000
00001000
00010000
00001000
00000000
,
01000000
00000000
00010000
00000000
10010000
00000000
00000000
00000000
00010000
01000000
00010000
00000000
10000000
00010000
10000000
00010000
,
01000000
10000000
00000000
10000000
00000000
01000000
00010000
01000000
00000000
00100000
00000000
00010000
00100000
01000000
00000000
00100000
,
00000000
00010000
00001000
00010000
00000000
00001000
00000000
00000100
00000001
00000100
00000000
00000010
00000000
00000001
00000010
00000001
,
00000000
00000010
00000000
00001000
00000100
00000010
00000000
00000001
00000000
00000010
00001000
00000000
00010000
00001000
00010000
00001000
,
00010000
00000000
00001000
00000010
00000001
00000000
00000000
00000000
00000010
00000000
00001000
00000000
00010000
00000000
01000000
00000000
,
00010000
00001000
00010000
00000000
00000000
00000000
00000000
00000000
00001000
00000000
00010000
01000000
10000000
00000000
00000000
00000000
,
01000000
00000000
00010000
00000000
00001000
00000000
00000010
00000000
00001000
00010000
00000010
00000000
00000100
00000010
00000100
00000010
,
00000100
00000000
00001000
00010000
00001000
00000000
00000000
00000000
00100000
00000000
10000000
00000000
00100000
00000000
00001000
00000000
,
00010000
00001000
00010000
00000000
00000100
00001000
00000100
00000010
00000001
00000000
00000100
00000001
00000100
00000000
00000000
00000000
,
00000010
00000000
00000001
00000000
00001000
00000000
00000100
00000000
00010000
01000000
00010000
00100000
01000000
10000000
01000000
00100000
,
00020000
02030000
03002000
00003200
,
00000302
00002003
00023000
00032000
,
00003020
00020030
00230000
00302000
,
00003002
00000000
00000000
00000000
00002003
00000000
00000000
00000000
02003000
00000000
00000000
00000000
03100000
00010000
00100000
00010000
,
10000000
00000000
00010000
01000000
00010000
00000000
10000000
01000000
00010000
00000000
00001000
00000010
00000001
00000000
00000011
00000000
,
00000000
00000000
00001000
00000010
00001000
00000000
00000001
00000100
00001000
00000000
00010000
00100000
10000000
00000000
10100000
00000000
,
00000000
00000000
00010000
01000000
10000000
00000000
01000000
00100000
00010000
00000000
00001000
00000100
00000010
00000000
00000110
00000000
,
00000000
00000000
00001000
00000010
00000001
00000000
00000010
00000100
00001000
00000000
00010000
00000000
00100000
01000000
00100000
00010000
,
00001000
00010000
00000000
00010000
00000000
00001000
00000000
00000100
00000010
00000100
00000000
00000100
00000000
00001000
00000000
01000000
,
00100000
00000000
00000000
01000000
00000000
00000000
00000000
00000000
00000000
01000000
00000000
00000000
00000000
00000000
00000000
00010000
00000000
00000000
00000000
00000000
00000000
00000010
00000000
00000000
00000100
00000000
00000000
00000010
00000000
00000000
00000000
00000000
00000000
00000001
00000000
00000000
00001000
00000000
00000000
00000001
00000000
00000000
00001000
00000000
00000001
00000000
00001000
00000000
,
00000002
00000000
00000000
00000000
00000000
00000000
00000013
00000100
00002000
00000000
00000000
00000000
00000000
00000000
00013000
00100000
,
02000000
00000000
00000000
00000000
00000000
00000000
03100000
00010000
00002000
00000000
00000000
00000000
00000000
00000000
00003200
00000000
,
00000320
00000000
00000000
00000032
00000000
00000000
00000023
00000230
,
00002300
00023000
00000000
00130000
,
10010000
00000000
00000000
00000000
10000000
01000000
00100000
00010000
00001000
00000000
00000100
00000000
00001000
00000000
00010000
00000000
,
00200000
00302000
00003020
00020030
,
01030000
00000000
00100000
00000000
00010000
00000000
00002000
00000000
00000000
00000000
00003100
00000000
00001000
00000000
00010000
00001000
,
00000100
00000001
00000010
00001000
00010000
00000000
01000000
00010000
00001000
00010000
00001000
00000000
00100000
01000000
00100000
01000000
,
20000000
00000000
00000000
00000000
00000000
00000000
31000000
00010000
00002000
00000000
00000000
00000000
00003010
00000001
00000100
00001000
,
00010000
00000000
00001000
00000000
00010000
00000000
00002000
00000000
00000000
00000000
00000000
00000000
00000000
00000000
00000000
00000000
00000000
00000000
00003100
00000000
00000000
00000010
00000000
00000000
00000200
00000000
00000000
00000000
00000000
00000000
00000000
00000000
00000000
00000000
00000000
00000000
00002300
00000000
00000000
00000000
00000000
00000000
00023000
00000000
00000000
00000000
00000000
00000000
,
00230000
00000000
00000000
00000000
10300000
01000000
00010000
00001000
00010000
00000000
00000010
00001000
00000010
00000000
00000001
00000000
,
00000010
00000000
00000100
00000000
00000010
00000000
00000100
00000000
00000000
00000000
00000000
00000000
00001000
00000000
00000000
00010000
00000000
00000000
00100000
00000000
00000000
01000000
00000000
00000000
00100000
00000000
00000000
10000000
00000000
00000000
01000000
00000000
00000000
00010000
00000000
00000000
01000000
00000000
00000000
10000000
00000000
00000000
00100000
00000000
00000000
00000000
00000000
00000000
,
01100000
00000000
01000000
00100000
00010000
00000000
00001000
00000000
00011000
00000000
00000000
00000000
00000110
00000000
00000010
00000100
,
00001000
00000000
00010000
00000000
00011000
00000000
00000000
00000000
00001000
00010000
01000000
10000000
01000000
00000000
00100000
00000000
,
01100000
00010000
01000000
00001000
00010000
00001000
00010000
00000000
,
00001000
00000100
00000010
00000001
00000010
00000000
00010000
00000000
00001000
00000000
00000000
00000000
00010000
00100000
01000000
10000000
,
01000000
00000000
00001000
00000000
00010000
00000000
00000000
00000000
00001000
00000010
00000100
00000001
00000100
00000000
00010000
00000000
,
00001000
00100000
02000000
00000000
13000000
00020000
00000000
01030000
,
00100000
00010000
00001000
00000100
00000010
00010000
00100000
00010000
,
00001000
00000100
00000010
00010000
00100000
00010000
00001000
00000100
,
00000010
00010000
00100000
00010000
00001000
00000100
00000010
00010000
,
00000010
00000100
00001000
00010000
00200000
00000000
00000000
00000000
00000000
00000000
00000000
00000000
00000000
00000000
00000000
00000000
00000000
00000000
00000000
00000000
00000000
00000000
00300000
00000000
00000000
00000000
00000000
00000000
00000000
00000000
00000000
00000000
;
