#TITLE:n'pa pa BBQ;
#SUBTITLE:;
#ARTIST:YUC'e;
#TITLETRANSLIT:;
#SUBTITLETRANSLIT:;
#ARTISTTRANSLIT:;
#GENRE:;
#CREDIT:;
#BANNER:;
#BACKGROUND:;
#LYRICSPATH:;
#CDTITLE:;
#MUSIC:n'pa pa BBQ.ogg;
#OFFSET:0.000000;
#SAMPLESTART:36.810001;
#SAMPLELENGTH:12.000000;
#SELECTABLE:YES;
#BPMS:0.000000=150.000000
;
#STOPS:
;
#BGCHANGES:;
#KEYSOUNDS:;
#ATTACKS:;

//---------------dance-single - ----------------
#NOTES:
     dance-single:
     :
     Hard:
     17:
     0.868366,0.955831,0.253273,0.407440,0.991069,552.000000,529.000000,23.000000,37.000000,0.000000,0.000000,0.868366,0.955831,0.253273,0.407440,0.991069,552.000000,529.000000,23.000000,37.000000,0.000000,0.000000:
// measure 0
0000
0000
0000
0000
,  // measure 1
0000
0000
0000
0000
,  // measure 2
0000
0000
0000
0000
,  // measure 3
0000
0000
0000
0000
,  // measure 4
1000
0000
0001
0100
0001
0000
0010
0000
0100
0000
1000
0010
0000
1000
0001
0000
,  // measure 5
0100
0000
0010
1000
0010
0000
1000
0000
0100
0000
0010
0001
0000
1000
0001
0000
,  // measure 6
0100
0000
0010
1000
0001
0000
0010
0000
0100
0000
0010
0001
0000
1000
0010
0000
,  // measure 7
0200
0000
0000
0000
0000
0000
0000
0000
0001
0000
0000
0001
0000
0000
0301
0000
,  // measure 8
1000
0100
1000
0100
0010
0001
0010
0001
,  // measure 9
1000
0000
0010
0100
0000
0010
0100
0000
1000
0000
0100
0000
0001
0000
1000
0000
,  // measure 10
0001
0010
1000
0010
0100
1000
0001
0200
,  // measure 11
0000
0000
0310
0000
1000
0000
2000
0000
3001
0010
0001
0010
0100
1000
0100
1000
,  // measure 12
0001
0100
0001
0100
0010
1000
0010
1000
,  // measure 13
0001
0000
0010
0100
0000
0010
0100
0000
0001
0000
0100
0000
1000
0000
0001
0000
,  // measure 14
1000
0000
1000
0010
0100
0000
0100
0001
1000
0000
0200
0000
0000
0000
0310
0000
,  // measure 15
0001
0000
0000
0000
0000
0000
1000
0000
0010
0000
1000
0000
0010
0000
0000
0000
0000
0000
0100
0000
0001
0000
0100
0000
0001
0000
0000
0000
0000
0000
1000
0000
0100
0000
1000
0000
0100
0000
0000
0010
0000
0000
0001
0000
0000
1000
0000
0000
,  // measure 16
0001
0001
0100
0100
1000
2000
3100
0002
,  // measure 17
0000
1003
1000
0100
0002
0000
0103
0000
,  // measure 18
1000
1000
0010
0010
0002
0000
0013
0020
,  // measure 19
0000
0000
1030
0000
0001
0000
0010
0000
1020
0000
0000
0000
0032
0003
0000
0000
,  // measure 20
1000
1000
0100
0100
0001
0001
0100
0010
,  // measure 21
0010
0001
0001
0001
1000
1000
0010
0100
,  // measure 22
0001
0100
0001
1000
0100
0010
0001
1000
0010
0100
0001
1000
0001
0010
0100
1000
,  // measure 23
0001
0000
0010
0000
0010
0000
0001
0000
1000
0000
0000
0010
0000
0000
0001
0000
,  // measure 24
0020
0000
1030
0100
0020
0000
0031
1000
0010
0000
0000
0101
0000
0000
1002
0000
,  // measure 25
0023
0000
0031
0100
0020
0000
1030
0001
0010
0000
0000
1100
0000
0000
1002
0000
,  // measure 26
0203
0000
0301
0010
0200
0000
1300
0001
0100
0000
0000
1010
0000
0000
1002
0000
,  // measure 27
0013
0001
0010
0001
1000
1000
0010
0010
0200
0000
0000
0000
0301
0000
0000
0000
,  // measure 28
0002
0000
1003
0100
0020
0000
1030
0010
0001
0000
0000
1001
0000
0000
0101
0000
,  // measure 29
2000
0000
3001
0100
0020
0000
0031
0010
1000
0000
0000
1001
0000
0000
1100
0000
,  // measure 30
0002
0000
1003
0010
0200
0000
1300
0100
0001
0000
0000
0011
0000
0000
0110
0000
,  // measure 31
1000
1000
0010
0100
0100
0001
0010
0010
0100
0110
0000
0000
,  // measure 32
1000
0000
0001
0010
0000
0001
0010
0000
0100
0000
1000
0010
0000
1000
0010
0000
,  // measure 33
0001
0000
0010
0100
0000
0010
0100
0000
1000
0100
0000
0001
0000
1000
0000
0100
,  // measure 34
0010
0000
0001
0100
0010
0000
1000
0001
0010
0000
0100
0000
0000
0000
2000
0000
,  // measure 35
0000
0000
3001
0000
0100
0000
0020
0000
1030
0100
0010
0001
2000
0000
3020
0000
,  // measure 36
0130
0000
0001
0100
0000
0001
1000
0000
0100
0000
1000
0100
0000
1000
0001
0000
,  // measure 37
0010
0000
0100
0010
0000
0100
0010
0000
1000
0010
0000
0001
0000
1000
0000
0001
,  // measure 38
0100
0000
0010
1000
0100
0000
0010
0001
0100
0000
0010
0000
0000
0000
1000
0000
,  // measure 39
0001
0000
0010
0000
0001
0000
0010
0000
0000
0001
0000
0000
1000
0000
0100
0000
1000
0000
0100
0000
0000
1000
0000
0000
0001
0000
0100
0000
0001
0000
0100
0000
0000
0010
0000
0000
2000
0000
0000
0000
0000
0000
3000
0000
0000
0000
0000
0000
,  // measure 40
0011
0000
0001
0010
0001
0000
1001
0000
0001
0100
0001
0000
0011
0000
0001
0000
,  // measure 41
1001
0000
1000
0100
1000
0000
1001
0000
1000
0010
1000
0000
1100
0000
1000
0000
,  // measure 42
1001
0000
0001
1000
0001
0000
0101
0000
0001
0010
0001
0000
1001
0000
1000
0000
,  // measure 43
0001
0100
0001
0100
0010
1000
0010
1000
0001
0010
0100
1000
0020
0000
0030
0000
,  // measure 44
1000
0000
0000
0000
0000
0000
0001
0000
0010
0000
0100
0000
1000
0000
0000
0001
0000
0000
1000
0000
0000
0000
0000
0000
0010
0000
0000
0000
0000
0000
0100
0000
0000
0001
0000
0000
0000
0000
0000
1000
0000
0000
0100
0000
0000
0010
0000
0000
,  // measure 45
0001
0000
0000
0000
0000
0000
1000
0000
0010
0000
0100
0000
0001
0000
0000
1000
0000
0000
0001
0000
0000
0000
0000
0000
0010
0000
0000
0000
0000
0000
0100
0000
0000
1000
0000
0000
0000
0000
0000
0001
0000
0000
0100
0000
0000
0010
0000
0000
,  // measure 46
1000
0001
0010
0100
0001
0100
0010
0001
1000
0010
0100
1000
0100
0010
1000
0001
,  // measure 47
1000
0000
0010
0000
0010
0000
1000
0000
0001
0000
0000
0010
0000
0000
1000
0000
,  // measure 48
0010
0000
0010
0001
1000
0000
1000
0001
0100
0000
0010
1000
0000
1000
0001
0000
,  // measure 49
0100
0000
0000
0000
0000
0000
0001
0000
0100
0000
0001
0000
1000
0000
0000
0000
0000
0000
0010
0000
0100
0000
0010
0000
1000
0000
0000
0100
0000
0000
0010
0000
0000
0002
0000
0000
0000
0000
0000
0000
0000
0000
0013
0000
0000
0000
0000
0000
,  // measure 50
0001
0000
0010
0001
1000
0000
1000
0001
0100
0010
1000
0002
0000
0013
0100
0000
,  // measure 51
0010
0001
0010
0001
0100
0100
0010
0010
2000
0000
0000
0000
3001
0000
0000
0000
,  // measure 52
1000
0100
0010
0001
1000
0100
0010
0001
1000
0010
0100
0010
0000
0010
1000
0000
,  // measure 53
0001
0010
0100
1000
0001
0010
0100
1000
0001
0100
0010
1000
0000
1000
0001
0000
,  // measure 54
1000
0010
0100
0001
0010
0100
0010
1000
0001
0100
0010
0001
1000
0010
0100
0001
,  // measure 55
1000
1000
0100
0010
0100
0100
1000
0001
0100
0100
0010
1000
0200
0000
0000
0000
,  // measure 56
0310
0000
0000
0000
;

//---------------dance-single - ----------------
#NOTES:
     dance-single:
     :
     Medium:
     14:
     0.616665,0.709165,0.088095,0.649701,0.451487,392.000000,384.000000,8.000000,59.000000,0.000000,0.000000,0.616665,0.709165,0.088095,0.649701,0.451487,392.000000,384.000000,8.000000,59.000000,0.000000,0.000000:
// measure 0
0000
0000
0000
0000
,  // measure 1
0000
0000
0000
0000
,  // measure 2
0000
0000
0000
0000
,  // measure 3
0000
0000
0000
0000
,  // measure 4
0001
0000
1000
0000
0100
0000
1000
0000
0001
0000
0000
0100
0000
0000
0010
0000
,  // measure 5
1000
0000
0001
0000
0010
0000
0001
0000
1000
0000
0000
0100
0000
0000
0010
0000
,  // measure 6
0001
0000
0100
0000
1000
0000
0100
0000
0010
0000
0000
0100
0000
0000
0001
0000
,  // measure 7
0020
0000
0200
0330
,  // measure 8
2000
0000
3001
0100
0002
0000
1003
0100
,  // measure 9
1000
0000
0001
1000
0000
0001
1000
0000
0000
0000
0010
0000
0100
0000
0001
0000
,  // measure 10
0010
0001
0100
0001
0010
0100
0000
2000
,  // measure 11
0000
3000
0001
0100
0002
0023
0230
2300
,  // measure 12
3002
0000
1003
0100
2000
0000
3001
0100
,  // measure 13
0001
0000
1000
0001
0000
1000
0001
0000
0000
0000
0010
0000
0100
0000
0010
0000
,  // measure 14
0001
0000
0100
0001
0100
0000
0010
0100
0010
0000
1000
0000
0000
0000
0001
0000
,  // measure 15
2000
0000
3100
0000
0002
0000
0103
0000
2000
0000
3000
0000
0001
1000
0001
1000
,  // measure 16
0001
0100
0001
0100
0010
0020
0000
2030
,  // measure 17
0000
3001
1000
0001
0020
0000
0130
0000
,  // measure 18
1000
0100
1000
0100
0020
0000
0130
0002
,  // measure 19
0000
0103
0010
0001
2002
0000
3003
0000
,  // measure 20
1000
0010
1000
0010
0100
0100
0001
1000
,  // measure 21
0100
1000
1000
1000
0001
0100
0010
1000
,  // measure 22
0001
0000
0010
0000
1000
0000
0010
0000
0001
1000
0001
1000
0001
0000
0000
0000
,  // measure 23
0220
0000
0000
0330
,  // measure 24
2000
0000
3010
0000
0002
0000
0013
0000
2000
0000
0000
3100
0000
0000
0010
0000
,  // measure 25
0002
0000
0013
0000
2000
0000
3010
0000
0002
0000
0000
0103
0000
0000
0010
0000
,  // measure 26
2000
0000
3010
0000
0002
0000
0013
0000
2000
0000
0000
3100
0000
0000
0010
0000
,  // measure 27
0002
0000
0000
0000
1003
0010
1000
0010
0200
0000
0000
0000
0301
0000
0000
0000
,  // measure 28
2000
0000
3100
0000
0002
0000
0103
0000
2000
0000
0000
3010
0000
0000
0100
0000
,  // measure 29
0002
0000
0103
0000
2000
0000
3100
0000
0002
0000
0000
0013
0000
0000
0100
0000
,  // measure 30
2000
0000
3010
0000
0200
0000
0310
0000
0002
0000
0000
1003
0000
0000
0100
0000
,  // measure 31
0001
0010
0001
1000
0010
1000
0100
0010
0001
2000
3000
0000
,  // measure 32
0001
0000
0000
0001
0000
0000
1000
0000
0010
0000
0000
0010
0000
0000
0100
0000
,  // measure 33
0001
0000
0000
0001
0000
0000
1000
0000
0100
0000
0000
0010
0000
0001
0000
1000
,  // measure 34
0001
0100
1000
0100
0001
0100
0000
0020
,  // measure 35
0000
0000
0030
0000
1000
0000
0001
0000
1000
0100
1000
0100
0020
0000
0032
0000
,  // measure 36
1003
0000
0000
1000
0000
0000
0001
0000
0010
0000
0000
0010
0000
0000
1000
0000
,  // measure 37
0010
0000
0000
0010
0000
0000
0001
0000
1000
0000
0000
0010
0000
0100
0000
0010
,  // measure 38
1000
0100
0001
0100
1000
0100
0000
0020
,  // measure 39
0000
0032
0000
2003
0000
0000
3010
0000
,  // measure 40
1000
0000
0100
1000
0100
0000
1000
0000
0001
1000
0001
0000
0100
0000
0001
0000
,  // measure 41
0010
0000
0001
0100
0001
0000
0100
0000
0001
1000
0001
0000
0010
0000
0100
0000
,  // measure 42
1000
0000
0100
1000
0100
0000
0010
0000
0001
0010
0001
0000
1000
0000
0001
0000
,  // measure 43
0100
0001
0100
0000
0010
0100
0010
0000
1000
0001
1000
0001
0020
0030
0000
0000
,  // measure 44
0100
0000
0000
0000
1000
0100
0010
0000
0001
0000
1000
0001
0000
1000
0001
0000
,  // measure 45
0010
0000
0000
0000
0001
0100
0010
0000
1000
0000
0001
1000
0000
0001
1000
0000
,  // measure 46
0001
0000
0010
0000
1000
0000
0001
0000
0100
1000
0100
1000
0001
1000
0010
0100
,  // measure 47
0002
0000
0000
0003
,  // measure 48
1010
0000
0000
0000
0101
0000
0000
0000
1000
0000
0100
0010
0000
0010
0001
0000
,  // measure 49
0011
0000
0000
0000
1100
0000
0000
0000
0001
1000
0001
0200
0000
0000
0310
0000
,  // measure 50
2000
0000
3100
0000
0002
0000
0103
0000
2000
0000
0000
3010
0000
0000
0100
0000
,  // measure 51
0002
0000
0000
0000
0013
0100
0010
0100
2000
0000
0000
0000
3001
0000
0000
0000
,  // measure 52
1000
0100
0010
0000
0100
0010
0001
0000
1000
0001
1000
0001
0000
0000
0010
0000
,  // measure 53
0001
0100
0010
0000
0100
0010
1000
0000
0001
1000
0001
2000
0000
0000
3100
0000
,  // measure 54
0010
0100
1000
0000
0001
0100
0010
0000
1000
0001
1000
0001
0010
0000
0000
0000
,  // measure 55
0001
0100
1000
0000
0100
0000
0001
0000
1000
0100
0001
0000
0110
0000
0000
0000
,  // measure 56
1001
0000
0000
0000
;

//---------------dance-single - ----------------
#NOTES:
     dance-single:
     :
     Easy:
     8:
     0.371258,0.431666,0.187202,0.638689,0.077083,236.000000,219.000000,17.000000,58.000000,0.000000,0.000000,0.371258,0.431666,0.187202,0.638689,0.077083,236.000000,219.000000,17.000000,58.000000,0.000000,0.000000:
// measure 0
0000
0000
0000
0000
,  // measure 1
0000
0000
0000
0000
,  // measure 2
0000
0000
0000
0000
,  // measure 3
0000
0000
0000
0000
,  // measure 4
1000
0001
0100
0100
,  // measure 5
0001
1000
0010
0010
,  // measure 6
1000
0001
0010
0010
,  // measure 7
0200
0000
0000
0300
,  // measure 8
2000
3001
2000
3001
,  // measure 9
0100
0100
0100
0010
,  // measure 10
1000
0010
1000
0000
0001
0100
0001
0000
,  // measure 11
1000
0100
0020
0030
,  // measure 12
0002
1003
0002
1003
,  // measure 13
0010
0010
0010
0100
,  // measure 14
0001
0100
0001
0000
1000
0100
1000
0000
,  // measure 15
0002
0023
0230
0300
,  // measure 16
1000
1100
1000
1100
,  // measure 17
0001
0101
2002
3003
,  // measure 18
0001
0101
0001
0101
,  // measure 19
1000
1100
2002
3003
,  // measure 20
0001
0010
0001
0000
0010
0000
0100
0000
,  // measure 21
1000
0100
1000
0000
0001
0000
1000
0000
,  // measure 22
0010
0100
0010
0100
0010
0100
0010
0000
,  // measure 23
2002
0000
0000
3003
,  // measure 24
2000
0000
0000
0000
3200
0000
0000
0000
0310
0000
0000
0001
0000
0000
0010
0000
,  // measure 25
0002
0000
0000
0000
0203
0000
0000
0000
0310
0000
0000
1000
0000
0000
0010
0000
,  // measure 26
2000
0000
0000
0000
3200
0000
0000
0000
0310
0000
0000
0001
0000
0000
0010
0000
,  // measure 27
0002
1003
2002
3003
,  // measure 28
2000
0000
0000
0000
3020
0000
0000
0000
0130
0000
0000
0001
0000
0000
1000
0000
,  // measure 29
0002
0000
0000
0000
0023
0000
0000
0000
0130
0000
0000
1000
0000
0000
0001
0000
,  // measure 30
2000
0000
0000
0000
3020
0000
0000
0000
0130
0000
0000
0001
0000
0000
0010
0000
,  // measure 31
0200
2300
3002
1003
,  // measure 32
0002
0103
0002
1003
,  // measure 33
0100
0100
0100
0010
,  // measure 34
0001
0010
0100
0000
1000
0100
0010
0000
,  // measure 35
0001
0100
0020
0030
,  // measure 36
2000
3010
2000
3001
,  // measure 37
0010
0010
0010
0100
,  // measure 38
1000
0100
0010
0000
0001
0010
0100
0000
,  // measure 39
2000
3002
0203
0310
,  // measure 40
1000
0010
0001
0010
,  // measure 41
1000
0010
0110
0000
,  // measure 42
0001
0100
1000
0100
,  // measure 43
0001
0100
0110
0000
,  // measure 44
0001
0000
0000
0000
0011
0000
0000
0000
1000
0000
0000
1000
0000
0000
0001
0000
,  // measure 45
1000
0000
0000
0000
1010
0000
0000
0000
0001
0000
0000
0001
0000
0000
1000
0000
,  // measure 46
0002
0023
0230
2300
,  // measure 47
3001
0000
0000
0000
,  // measure 48
0001
0000
0000
0000
1001
0000
0000
0000
0001
0000
0000
0100
0000
0000
0010
0000
,  // measure 49
1000
0000
0000
0000
1010
0000
0000
0000
1000
0000
0000
0100
0000
0000
0010
0000
,  // measure 50
0001
0000
0000
0000
0011
0000
0000
0000
1000
0000
0000
0001
0000
0000
1000
0000
,  // measure 51
0020
0230
0302
1003
,  // measure 52
0002
0000
0000
0000
0203
0000
0000
0000
0310
0000
0000
1000
0000
0000
0001
0000
,  // measure 53
2000
0000
0000
0000
3200
0000
0000
0000
0310
0000
0000
0001
0000
0000
1000
0000
,  // measure 54
0002
0000
0000
0000
0203
0000
0000
0000
0310
0000
0000
0100
0000
0000
0001
0000
,  // measure 55
2000
3200
0302
0203
,  // measure 56
0310
0000
0000
0000
;

//---------------dance-double - ----------------
#NOTES:
     dance-double:
     :
     Hard:
     17:
     0.877804,0.986665,0.242261,0.231250,1.024105,558.000000,536.000000,22.000000,21.000000,0.000000,0.000000,0.877804,0.986665,0.242261,0.231250,1.024105,558.000000,536.000000,22.000000,21.000000,0.000000,0.000000:
00000000
00000000
00000000
00000000
,
00000000
00000000
00000000
00000000
,
00000000
00000000
00000000
00000000
,
00000000
00000000
00000000
00000000
,
00000010
00000000
00000001
00001000
00000001
00000000
00000100
00000000
00000010
00000000
00001000
00000010
00000000
00010000
00001000
00000000
,
00100000
00000000
00010000
01000000
00010000
00000000
10000000
00000000
01000000
00000000
00100000
00010000
00000000
00100000
00001000
00000000
,
00010000
00000000
00000100
00000010
00000001
00000000
00001000
00000000
00000001
00000000
00000100
00000010
00000000
00001000
00000100
00010000
,
00002000
00000000
00000000
00000000
00000000
00000000
00000000
00000000
00010000
00000000
00000000
00010000
00000000
00000000
00013000
00000000
,
00001000
00010000
00001000
00010000
01000000
10000000
01000000
10000000
,
00100000
00000000
00010000
00001000
00000000
00010000
00001000
00000000
00010000
00000000
00000100
00000010
00000001
00000000
00001000
00000000
,
00000001
00000000
00000100
00000010
00001000
00000000
00000100
00010000
00001000
00000000
00100000
00000000
00010000
00000000
20000000
00000000
,
00000000
00000000
31000000
00000000
00010000
00000000
00001000
00000000
00000010
00000100
00000010
00000100
00001000
00000100
00001000
00000100
,
00010000
00001000
00010000
00001000
00000100
00000001
00000100
00000001
,
00000010
00000000
00001000
00010000
00000000
00001000
00010000
00000000
00001000
00000000
01000000
00100000
10000000
00000000
00010000
00000000
,
00100000
00000000
01000000
00100000
00010000
00000000
00010000
00100000
00001000
00000000
00020000
00000000
00000000
00000000
00030100
00000000
,
00000010
00000000
00000000
00000000
00000000
00000000
00000001
00000000
00000010
00000000
00000001
00000000
00000010
00000000
00000000
00000000
00000000
00000000
00000100
00000000
00001000
00000000
00000100
00000000
00001000
00000000
00000000
00000000
00000000
00000000
00000001
00000000
00000100
00000000
00000001
00000000
00000100
00000000
00000000
00000010
00000000
00000000
00001000
00000000
00000000
00000010
00000000
00000000
,
00010000
00010000
00001000
00001000
00000100
00000200
00001300
00020000
,
00000000
00031000
00001000
00010000
02000000
00000000
03100000
00000000
,
00001000
00001000
00010000
00010000
00200000
00000000
00310000
00020000
,
00000000
00130000
00010000
00001000
00002010
00000000
00013000
00000000
,
00001000
00001000
00010000
00010000
01000000
01000000
00010000
00001000
,
00001000
00010000
00010000
00001000
00000100
00000100
00001000
00010000
,
00001000
00010000
00000100
00001000
00000100
00010000
00001000
00010000
00000010
00001000
00000001
00000100
00000001
00001000
00000100
00000010
,
00000001
00000000
00000100
00000000
00000100
00000000
00001000
00000000
00010000
00000000
00000000
00100000
00000000
00000000
10000000
00000000
,
00010000
00000000
10000000
01000000
00100000
00000000
00010000
00100000
00001000
00000000
00000000
00010100
00000000
00000000
00001100
00000000
,
00001000
00000000
00000001
00000100
00000010
00000000
00001000
00000010
00010000
00000000
00000000
01001000
00000000
00000000
01010000
00000000
,
00010000
00000000
10000000
01000000
00100000
00000000
00010000
00100000
00001000
00000000
00000000
00010100
00000000
00000000
00001100
00000000
,
00000010
00000001
00000010
00000001
00000100
00001000
00010000
00001000
00020000
00000000
00000000
00000000
01030000
00000000
00000000
00000000
,
00100000
00000000
00010000
00100000
00001000
00000000
00010000
00001000
00000100
00000000
00000000
00000101
00000000
00000000
00002001
00000000
,
00003010
00000000
00001000
00000100
00010000
00000000
00001000
00010000
00100000
00000000
00000000
10100000
00000000
00000000
10020000
00000000
,
01030000
00000000
00010000
01000000
00001000
00000000
00010000
00001000
00000010
00000000
00000000
00000011
00000000
00000000
00001002
00000000
,
00000103
00001000
00010000
01000000
00010000
00001000
00000100
00001000
00010000
00100000
00000000
00000000
,
00010000
00000000
00001000
00100000
00000000
00001000
00100000
00000000
00001000
00000000
00010000
00000010
00000000
00010000
00000010
00000000
,
00010000
00000000
00001000
01000000
00000000
00001000
01000000
00000000
10000000
01000000
00000000
00010000
00000000
10000000
00000000
01000000
,
00100000
00000000
00001000
00010000
00000100
00000000
00000010
00000001
00000100
00000000
00000010
00000000
00001000
00000000
00020000
00000000
,
00000000
00000000
01030000
00000000
00100000
00000000
00200000
00000000
10300000
01000000
00100000
00010000
02000000
00000000
03002000
00000000
,
00013000
00000000
00001000
00010000
00000000
00000100
00010000
00000000
00001000
00000000
00010000
00001000
00000000
01000000
00001000
00000000
,
00010000
00000000
00001000
00010000
00000000
00000010
00010000
00000000
00100000
00010000
00000000
00001000
00000000
00010000
00000000
01000000
,
10000000
00000000
00010000
01000000
00100000
00000000
00010000
00001000
01000000
00000000
00100000
00000000
00000000
00000000
10000000
00000000
,
00010000
00000000
00100000
00000000
00010000
00000000
00100000
00000000
00000000
00010000
00000000
00000000
10000000
00000000
01000000
00000000
10000000
00000000
01000000
00000000
00000000
00100000
00000000
00000000
00010000
00000000
00100000
00000000
00010000
00000000
00100000
00000000
00000000
00001000
00000000
00000000
00010000
00000000
00000000
00000000
00000000
00000000
00000000
00000000
00000000
00000000
00000000
00000000
,
00011000
00000000
00010000
00001000
00010000
00000000
00010100
00000000
00010000
00001000
00010000
00000000
00010010
00000000
00010000
00000000
,
00011000
00000000
00001000
00010000
00001000
00000000
01001000
00000000
00001000
00010000
00001000
00000000
00101000
00000000
00001000
00000000
,
00011000
00000000
00001000
00000100
00001000
00000000
00011000
00000000
00010000
00100000
00010000
00000000
00011000
00000000
00001000
00000000
,
00010000
00001000
00010000
00001000
01000000
00010000
10000000
00100000
01000000
00010000
00100000
00001000
00020000
00000000
00000000
00000000
,
00031000
00000000
00000000
00000000
00000000
00000000
00010000
00000000
00000100
00000000
00010000
00000000
00000100
00000000
00000000
00001000
00000000
00000000
00000100
00000000
00000000
00000000
00000000
00000000
00000010
00000000
00000000
00000000
00000000
00000000
00000001
00000000
00000000
00001000
00000000
00000000
00000000
00000000
00000000
00000001
00000000
00000000
00000100
00000000
00000000
00000010
00000000
00000000
,
00010000
00000000
00000000
00000000
00000000
00000000
00001000
00000000
01000000
00000000
00001000
00000000
01000000
00000000
00000000
00010000
00000000
00000000
01000000
00000000
00000000
00000000
00000000
00000000
00100000
00000000
00000000
00000000
00000000
00000000
10000000
00000000
00000000
00010000
00000000
00000000
00000000
00000000
00000000
10000000
00000000
00000000
01000000
00000000
00000000
00100000
00000000
00000000
,
00001000
00010000
00000010
00010000
00001000
00100000
00001000
00010000
00001000
00010000
00000100
00001000
00000010
00000100
00000001
00001000
,
00000001
00000000
00000010
00000000
00000010
00000000
00001000
00000000
00010000
00000000
00000000
01000000
00000000
00000000
10000000
00000000
,
00010000
00000000
00010000
01000000
10000000
00000000
10000000
01000000
00010000
00000000
10000000
01000000
00000000
01000000
00100000
00000000
,
00010000
00000000
00000000
00000000
00000000
00000000
00100000
00000000
00001000
00000000
00010000
00000000
00001000
00000000
00000000
00000000
00000000
00000000
00010000
00000000
00000100
00000000
00001000
00000000
00000100
00000000
00000000
00000010
00000000
00000000
00000001
00000000
00000000
00002000
00000000
00000000
00000000
00000000
00000000
00000000
00000000
00000000
00003010
00000000
00000000
00000000
00000000
00000000
,
00000100
00000000
00000001
00000100
00001000
00000000
00001000
00000100
00000001
00001000
00000100
00000010
00000000
00000010
00000001
00000000
,
00000010
00000001
00000010
00000001
00000100
00001000
00010000
00001000
00020000
00000000
00000000
00000000
00130000
00000000
00000000
00000000
,
10000000
01000000
00100000
00010000
10000000
01000000
00100000
00010000
01000000
00100000
00010000
00001000
00000000
00010000
00000100
00000000
,
00001000
00000100
00000010
00000001
00001000
00000100
00000010
00000001
00000100
00000010
00000001
00001000
00000000
00000100
00000010
00001000
,
00000001
00000010
00000100
00001000
00000001
00000100
00001000
00010000
00100000
10000000
00010000
00100000
01000000
10000000
00010000
01000000
,
10000000
01000000
10000000
01000000
00010000
00100000
00010000
00100000
01000000
00010000
01000000
00010000
00002000
00000000
00000000
00000000
,
00003010
00000000
00000000
00000000
;
