#TITLE:ma plume;
#SUBTITLE:;
#ARTIST:nonuplet VS BEMANI Sound Team "Power of Nature";
#TITLETRANSLIT:;
#SUBTITLETRANSLIT:;
#ARTISTTRANSLIT:;
#GENRE:;
#CREDIT:;
#MUSIC:ma plume.ogg;
#BANNER:ma plume.png;
#BACKGROUND:ma plume-bg.png;
#CDTITLE:cdtitle.png;
#SAMPLESTART:40.000;
#SAMPLELENGTH:15.000;
#SELECTABLE:YES;
#OFFSET:0.000;
#BPMS:0.000=82.500
,16.000=165.000
,70.000=82.500
,78.000=165.000
,170.000=82.500
,188.000=165.000
,284.000=82.500
,291.000=165.000
;
#STOPS:;
#BGCHANGES:0.000=ma plume.avi=1.000=1=0=0=StretchNoLoop==CrossFade==;
#FGCHANGES:;

//--------------- dance-single - KAYSTAR ----------------
#NOTES:
     dance-single:
     KAYSTAR:
     Beginner:
     4:
     0,0,0,0,0:
0000
0000
0000
0000
,
0000
0000
0000
0000
,
1000
0000
1000
0000
,
0001
0000
0001
0000
,
2002
0000
3003
0000
,
1000
0000
0000
0000
,
0100
0000
0000
0000
,
0010
0000
0000
0000
,
0010
0000
0000
0000
,
0001
0000
0000
0000
,
0100
0000
0000
0000
,
0010
0000
0000
0000
,
0010
0000
0000
0000
,
1000
1000
1000
0000
,
0000
0000
0001
0001
,
0001
0000
0000
0000
,
0020
0000
0000
0000
,
0030
0000
0002
0003
,
0200
0300
0020
0030
,
2000
3000
0100
0000
,
0100
0000
0010
0000
,
0010
0000
0002
0000
,
0003
0000
1000
1000
,
0000
0000
0001
0000
,
0100
0000
0010
0000
,
1000
0000
0100
0000
,
0010
0000
0100
0000
,
0010
0000
0001
0000
,
1000
0000
0020
0000
,
0030
0000
1000
1000
,
1000
0000
0100
0100
,
0100
0000
0010
0010
,
0010
0000
0002
0000
,
0003
0000
1000
0000
,
0010
0000
0000
1000
,
0000
0001
0000
0000
,
0010
0000
0001
0000
,
0000
1000
0000
0001
,
0000
0000
0100
0100
,
0100
0000
0000
0000
,
0010
0010
0010
0000
,
0000
0000
2000
0000
,
3000
0000
0002
0003
,
0000
0020
0030
0000
,
0200
0300
0000
2000
,
3000
0000
0001
0100
,
0010
1000
0100
0010
,
0001
0000
0000
1000
,
0000
0010
0000
0100
,
0000
0010
0000
2000
,
0000
3000
0000
0100
,
0000
0010
0000
0001
,
0000
0100
0000
0010
,
0000
0100
0000
0002
,
0000
0003
0000
0010
,
0010
0010
0000
0100
,
0100
0100
0000
0000
,
0000
0000
0000
1000
,
0000
0010
0000
0100
,
0000
0001
0000
0010
,
0000
0010
0000
0100
,
0000
0100
0000
1000
,
0000
0010
0000
0100
,
0000
0001
0000
0020
,
0000
0030
0000
0001
,
0001
0001
0000
0100
,
0100
0100
0000
0010
,
0010
0010
0000
2000
,
0000
3000
0000
0100
,
0000
0010
0000
0002
,
0000
0003
0000
0000
,
2002
0000
0000
0000
,
0000
0000
0000
0000
,
0000
3003
0000
0000
;

//--------------- dance-single - KAYSTAR ----------------
#NOTES:
     dance-single:
     KAYSTAR:
     Easy:
     9:
     0,0,0,0,0:
0000
0000
0000
0000
,
0000
0000
0000
0000
,
1000
0010
0100
0000
,
0001
0010
0100
0000
,
2000
0000
0000
0000
,
3001
0100
0010
0010
,
1000
0100
0001
0100
,
2000
0000
3002
0000
,
0103
0010
1000
0000
,
1000
0100
0010
0010
,
0001
0100
1000
0100
,
0002
0000
2003
0000
,
3100
0010
0001
0000
,
0001
0000
0100
0000
0010
1000
0010
0000
,
1000
0001
0020
0000
,
0031
0000
0100
0001
0100
0000
0010
0000
,
1000
0000
0000
1000
0000
0000
0001
0000
,
0000
0001
0000
0000
2002
0000
0000
0000
,
3003
0000
0001
0010
0100
1000
0010
0100
,
0010
1000
0001
0000
0020
0000
0000
0000
,
0130
0000
0100
0000
1000
0001
1000
0001
,
0100
0010
2000
3001
,
1001
0000
0000
0000
1000
0100
0010
0000
,
0000
0002
0103
0100
,
0010
0000
0010
0000
1000
0000
0001
0010
,
0100
0000
1000
0000
0001
0100
0001
0000
,
0100
0000
0010
0000
1000
0010
1000
0000
,
0001
0020
0000
0130
,
1000
0000
0001
0000
1000
0000
0001
0000
0100
0000
0000
0010
0000
0000
1000
0000
,
0000
1001
0000
0000
0002
0000
0000
0000
,
0023
0000
0230
0000
,
2300
0000
3010
0100
,
0001
0010
0100
1000
,
0000
0110
0000
0000
0002
0000
0000
0000
,
0103
0020
0000
1030
,
0000
0001
0010
0001
,
2000
0000
3010
0200
,
0000
0301
0000
1000
,
0100
0000
1000
0000
0001
0000
0000
0001
,
0000
0001
0100
0010
,
1000
0000
0000
1000
0000
0000
1000
0000
,
0100
0010
0001
1000
,
2002
0000
3003
0000
0002
0000
0003
0200
,
0000
0300
0020
0000
0030
0000
0000
0000
,
2000
0000
3000
0200
0000
0300
0020
0000
,
0030
0000
0000
0000
0001
0001
0100
0010
,
0010
1000
0100
0001
0100
2000
0000
3001
,
2002
0000
3003
1000
,
0010
0100
0001
0010
,
0100
0000
0000
2000
0000
0000
0000
0000
0000
3001
0000
0100
,
0001
0000
0000
1000
0000
0010
1000
0000
0000
0001
0000
0000
,
0010
1000
0010
0002
,
0000
0103
0010
2000
,
0000
3100
0010
0001
,
1000
0000
0010
1000
0000
0000
0001
0000
0100
0001
0000
0000
,
0020
0130
0000
1000
,
0020
0230
0000
0302
,
0000
0000
2003
0000
0000
0000
3001
0010
,
0001
0000
0100
0000
0010
0000
1000
0100
,
1000
0001
0001
0100
,
1001
0000
0100
0000
1001
0000
0001
0010
,
0100
0000
1000
0000
1000
0000
0001
0100
,
0001
0000
1000
0100
1000
0000
0001
0100
,
0001
0000
1000
0100
1000
0000
0010
0000
,
0100
0000
0000
0002
0000
0000
0000
0000
0000
1003
0000
0100
,
1000
0000
0000
0001
0000
0100
0001
0000
0000
1000
0000
0100
,
0010
0000
0000
0001
0000
0100
0010
0000
0000
2000
0000
0000
,
3200
0302
0203
1300
,
0110
2002
3003
0001
,
0100
0000
0000
0000
0010
0000
0000
0000
1000
0000
0000
0000
0100
0000
0000
0010
,
0000
0000
0100
0000
0000
0010
0000
0000
0001
0000
0000
1000
0000
0000
0000
0000
,
2002
0000
0000
0000
,
0000
0000
0000
0000
,
0000
3003
0000
0000
;

//--------------- dance-single - KAYSTAR ----------------
#NOTES:
     dance-single:
     KAYSTAR:
     Medium:
     12:
     0,0,0,0,0:
0000
0000
0000
0000
,
0000
0000
0000
0000
,
1000
0010
1000
0100
0010
0001
0100
0001
,
1000
0100
0001
0100
1000
0010
0200
0000
,
0301
0000
0000
0001
0000
0000
1000
0000
0000
1000
0000
0000
0200
0000
0000
0000
,
0310
0000
0001
0100
0010
0000
1000
0100
,
0010
0100
1000
0000
0001
0010
0001
0100
,
0020
0000
0000
0001
0000
0000
1030
0000
,
0001
0010
0001
0000
1000
0100
1000
0000
,
0010
0000
1000
0100
0010
0000
0001
0100
,
0010
0100
0001
0000
1000
0010
1000
0100
,
0020
0000
0000
1000
0000
0000
0031
0000
,
1000
0010
1000
0010
0100
0001
0100
0000
,
0001
0000
0000
0001
0000
0000
0001
0000
0010
0000
0100
0000
1000
0000
0000
1000
,
0000
0000
1000
0000
0001
0000
0100
0000
1000
0000
0000
0100
0000
0000
0001
0000
,
1000
0100
0010
0001
0200
0000
0310
0000
,
1100
0000
0000
1100
0000
0000
0110
0000
0000
0110
0000
0000
0011
0000
0000
0011
,
0000
0000
1001
0000
0000
1001
0000
0000
2000
0000
0000
0000
3200
0000
0000
0000
,
0320
0000
0032
1000
1000
2003
3020
0230
,
0302
0023
0230
0000
1300
0000
1001
0000
,
0001
0100
0010
0000
1000
1000
0001
0001
,
0010
0001
0100
0000
0102
0000
1003
0000
,
2100
0000
3001
0100
0010
1000
2002
0000
,
3003
0000
0001
0001
1000
0100
0010
0100
,
1000
0010
0100
0010
1000
0001
0010
0001
,
0200
0000
0310
0000
1000
0100
0001
0000
,
1000
0010
0001
0000
1000
0100
0001
0000
,
0100
0010
0100
2000
0000
3010
0100
0001
,
0010
0000
0100
0000
0010
0000
0001
0000
1000
0000
0000
1010
0000
0000
0101
0000
,
0000
2002
0000
3003
0001
0010
0001
0000
,
1000
0010
1000
0000
0010
1000
0100
0000
,
0010
0001
0100
0000
0001
0001
0100
0100
,
0010
0010
1000
1000
0001
0010
0001
0100
,
0000
0220
0000
0330
0001
0000
1000
0000
,
0100
0000
2100
0000
0000
0000
3001
0100
,
0001
1000
0000
0100
1000
0100
0000
0100
,
0010
0001
0100
0102
,
0000
0000
1003
0100
1000
0001
0000
0100
,
0001
0000
0100
0000
0000
0000
0100
0000
0010
0000
0000
0010
0000
0000
1000
0000
,
0000
1000
0000
0000
0100
0000
0010
0000
0001
0000
1000
0000
0010
0000
0000
0000
,
0100
0000
0000
0100
0000
0000
0001
0000
0000
0001
0000
0000
1000
0000
0100
0000
,
1000
0010
0100
0001
0011
0000
1100
0000
,
1000
0000
0010
0000
0100
0000
0001
0000
2000
0000
0000
0100
0000
0000
3002
0000
,
0000
0010
0000
0000
1003
0000
0010
0000
0100
0000
0001
0000
0010
0000
0100
0000
,
2000
0000
0000
0010
0000
0000
3002
0000
0000
0100
0000
0000
2003
0000
0000
3200
,
0000
0000
0320
0000
0000
0032
0000
0000
1003
0000
1000
0000
0010
0000
0001
0000
,
0001
0100
1000
0010
0100
0002
0000
1003
,
1001
0000
0000
0110
0000
0000
1001
0000
0000
1000
0000
1000
,
0100
0000
0100
0010
0000
0010
0001
0000
0001
0100
0000
0100
,
0010
0000
0010
2000
0000
0000
3001
0000
0000
1000
0100
1000
,
0001
0000
0000
0100
0001
0100
0010
0000
0000
1000
0000
0100
,
0010
0000
0100
0001
0000
0100
0010
0000
0100
2000
0000
0000
,
3001
0000
1000
0010
0000
0010
0100
0000
0100
0002
0000
0000
,
1003
0000
0000
0100
0000
0010
0000
0001
0000
0101
0000
0000
,
0110
0000
0000
1010
0000
0000
1001
0000
0000
0001
0000
0010
,
1000
0000
0000
0020
0000
0000
0130
0000
0000
1000
0000
0010
,
0001
0000
0000
0020
0000
0100
0000
0100
0000
0130
0000
0001
,
0000
0000
1000
0000
0000
0000
2002
0000
0000
0000
0000
0000
3003
0000
0000
0000
0000
0000
0001
0000
0000
0100
0000
0000
,
0010
0100
0001
1000
0100
0010
0100
1000
,
0010
0100
1000
0100
0002
0000
1003
0000
,
1100
0000
0011
0000
1010
0000
0101
0001
,
0010
0100
0001
0100
2000
0000
3001
0100
,
0010
0000
0000
1010
0000
1000
0000
0000
0100
0000
0000
0110
0000
0010
0000
0000
,
0001
0000
0000
0101
0000
0100
0000
0000
0010
0000
1000
0000
1002
0000
0000
0000
,
0023
0000
0000
0230
0000
0000
2300
0000
0000
3001
0000
1000
,
0010
0000
0100
0001
0000
0010
0100
0000
1000
0010
0000
0001
,
0010
0000
1000
0100
0000
0010
0002
0000
0000
1003
0010
1000
,
0001
0000
0000
0010
0001
0010
0100
0000
0000
1100
0000
1000
,
0000
0000
0001
0000
0000
0000
0101
0000
0000
0000
0000
0000
0100
0000
0000
0010
0000
0000
1000
0000
0000
0000
0000
0000
,
1000
0000
0000
0000
0001
0000
0000
0000
0001
0000
0000
0000
0011
0000
0000
0011
,
0000
0000
0110
0000
0000
0110
0000
0000
1100
0000
0000
1100
0000
0000
0000
0000
,
2002
0000
0000
0000
,
0000
0000
0000
3003
,
0001
0100
1000
0000
0000
0000
0000
0000
;

//--------------- dance-single - KAYSTAR ----------------
#NOTES:
     dance-single:
     KAYSTAR:
     Hard:
     15:
     0,0,0,0,0:
0000
0000
0000
0000
,
0000
0000
0000
0000
,
2001
0000
0010
0000
0000
0100
0000
0000
0001
0000
0000
0100
0000
0000
0010
0000
,
3002
0000
0000
0010
0000
0000
1000
0000
0000
0010
0000
0000
0203
0000
0000
0000
,
0301
0000
0000
0101
0000
0000
0110
0000
0000
1010
0000
0000
1001
0000
0000
0000
,
2000
0000
3001
0100
0001
1000
0100
1000
,
0010
0100
0002
0000
1003
0100
0001
0100
,
0020
0000
0000
0000
0031
0000
1000
0000
1001
0000
0000
0000
0100
0000
0010
0100
,
0010
0000
0000
0000
1001
0000
0000
0000
1000
0000
0100
0010
0000
0100
0010
0000
,
0002
0000
1003
0010
1000
0100
0010
0001
,
0100
0001
2000
0000
3100
0010
1000
0010
,
0002
0000
0000
0000
1003
0000
0010
0000
0110
0000
0000
0000
0001
0000
1000
0001
,
1000
0000
0100
0000
0010
0000
0001
0000
0100
0001
0100
0000
0010
1000
0010
0000
,
1000
0000
0000
0001
0000
0000
0010
0000
0100
0000
0010
0000
0001
0000
0000
1000
,
0000
0000
0010
0000
0100
0000
0020
0000
0001
0000
0000
0100
0000
0000
1030
0000
,
0001
0010
0001
0100
0010
1000
0100
1000
,
1002
0000
0000
0103
0000
0000
2001
0000
0000
3100
0000
0000
1100
0000
0000
0110
,
0000
0000
0011
0000
0000
1001
0000
0000
2000
0000
3020
0000
0032
0000
2003
0000
,
3200
0302
2003
3200
0302
2003
3020
0032
,
0203
0000
0320
0000
2030
0000
0000
0000
3001
0000
0000
0000
0010
0100
1000
0000
,
0010
1000
0010
0000
0100
0001
0100
0000
0001
0000
0001
0000
1000
0000
1000
0000
,
0100
0010
0100
0010
0001
0000
0100
0010
2000
0000
0000
0000
3000
0000
0000
0000
,
1100
0000
0000
0011
0000
0000
0001
0100
0010
0000
1000
0000
0200
0000
0000
0000
,
0300
0000
1000
0000
0001
1000
0001
1000
0001
0000
0100
0000
1000
0000
0100
0000
,
0001
0100
1000
0100
0001
0010
0100
1000
,
0020
0000
0000
0000
0130
0000
0001
0000
1000
0000
0100
1000
0100
0000
0010
0000
,
0001
0000
0100
0001
0100
0000
0010
0000
1000
0000
0001
1000
0001
1000
0001
0000
,
1000
0100
0010
2000
0000
3001
0100
0010
,
0001
1000
0010
0000
0100
0001
1000
0000
1100
0000
0000
0110
0000
0000
0011
0000
,
0000
2002
0000
3003
1000
1000
1000
1000
,
0001
0001
0001
0001
1000
1000
1000
1000
,
0001
0001
0001
0001
0100
0100
0010
1000
,
0100
0100
0010
0001
0100
1000
0100
0001
,
0000
0220
0000
0330
1000
0100
0010
0001
,
0010
0100
2000
0000
3001
0100
0010
0000
,
1000
1001
0000
0001
0010
0010
0000
0100
,
0100
1000
0010
0001
1000
0100
0002
0000
,
1003
0100
0010
0100
1000
0010
0100
0001
,
0010
0000
0100
0000
0010
0000
0001
0000
1000
0000
1000
0010
0000
0100
0000
0100
,
0001
0000
0010
0000
0010
0100
0000
0000
1000
0000
0010
0000
0001
0000
0010
0000
,
1000
0000
0100
0010
0000
0001
0000
0100
0010
0000
1000
0000
0100
0010
0000
0000
,
1000
0010
0100
0010
0002
0000
1003
0000
,
0001
0100
0001
0100
0010
1000
0010
1000
0002
0000
0000
0000
0010
0000
2003
0000
,
0000
0000
0010
0000
3100
0020
0100
0000
0031
0000
0100
0020
0100
0000
1030
0000
,
1100
0000
0000
0000
0110
0000
0000
0000
0011
0000
0000
0000
0001
0000
0000
0001
0000
0000
1000
0000
0000
1000
0000
0000
1002
0000
0000
0000
0103
0000
0020
0000
,
0000
1030
0002
0000
0000
0000
0000
0000
1003
0100
1000
0100
0010
0100
0010
0001
,
0010
0002
0000
0000
0103
0010
0100
0001
0020
0000
0130
0000
1000
0001
1000
0001
,
1001
0000
0000
0110
0000
0000
1001
0000
0000
1000
0100
1000
,
0010
0000
1000
0001
0100
0001
0010
0000
0001
1000
0100
1000
,
0010
0000
0000
1020
0000
0000
0031
0000
0000
0010
0100
0010
,
2000
0000
0000
3001
0010
0100
1000
0100
0010
0001
0000
0001
,
1000
0000
1000
0010
0100
0010
1000
0100
0010
0002
0000
0000
,
1003
0000
0001
0100
0000
0100
0010
0000
0010
2000
0000
0000
,
3001
0000
0000
0011
0000
0110
0000
1100
0000
1002
0000
0000
,
0103
0010
0100
2000
0000
0000
3100
0010
0100
0001
0000
0000
,
0101
1100
1000
1010
,
0011
0000
0000
0001
0000
0001
0000
0100
0000
0010
0000
0010
,
0000
0000
1000
0000
0000
0000
0002
0000
0000
0000
0000
0000
0000
0000
0000
0000
0000
0000
0013
0000
0000
0100
0000
0000
,
1000
0000
0001
0100
0000
0010
1000
0000
0100
1000
0100
0010
0000
0000
0001
1000
,
0001
0100
1000
0100
0002
0000
0013
0100
,
1100
0000
1000
0010
0000
0100
0001
0000
0011
0000
0010
0100
0000
0010
0100
0000
,
1000
0000
0010
0000
0001
0000
0010
0000
1000
0000
0001
1000
0002
0000
0000
0000
,
0013
0000
0100
2000
0000
0010
0000
3001
0010
0000
0100
2000
0000
0010
0000
3001
,
0010
0000
0100
2000
0000
0010
0000
3001
0010
0000
0100
0000
1000
0000
1000
0000
,
0001
0000
0000
0001
0000
0000
0200
0000
0000
0000
0000
0000
0310
0000
0000
0000
0000
0000
1000
0000
0100
0000
0010
0000
,
0001
0010
0100
1000
0100
0010
0001
0010
0100
1000
0100
0010
,
0001
0010
0100
2000
0000
0000
3001
0010
0001
1000
0010
0100
,
0010
0001
0010
0100
0010
1000
0001
0010
0100
1000
0000
1010
,
0000
0110
0000
0101
0000
0000
0002
0000
0000
1003
0000
0000
,
0100
0000
0000
0000
0010
0000
0000
0000
0001
0000
0000
0000
1001
0000
0000
1010
,
0000
0000
0101
0000
0000
1100
0000
0000
0011
0000
0000
1001
0000
0000
0000
0000
,
0220
0000
0000
0000
,
0000
0000
0000
0330
,
1000
0001
1000
0001
0000
0000
0000
0000
0000
0000
0000
0000
0000
0000
0000
0000
;

//--------------- dance-single - KAYSTAR ----------------
#NOTES:
     dance-single:
     KAYSTAR:
     Challenge:
     17:
     0,0,0,0,0:
0000
0000
0000
0000
,
0000
0000
0000
0000
,
1001
0000
0000
0000
0001
0000
1000
0000
0100
0000
0001
0000
0100
0000
0010
0000
0001
0000
1000
0000
0010
0000
0001
0000
0010
0000
0100
0000
0001
0000
1000
0001
,
1000
0100
0010
1000
0010
0100
0001
0100
0010
0001
0100
0010
2000
0000
0000
0000
,
3001
0000
0000
0011
0000
0000
0110
0000
0000
1100
0000
0000
1001
0000
0000
0000
,
1000
0000
0000
1000
0010
0000
0100
0000
0020
0000
0032
0000
0023
0000
0230
0000
,
0320
1030
1010
0000
2000
3200
0302
0203
,
2300
0000
0000
0000
3001
0000
0100
0000
0201
0000
0000
0000
0310
0000
1000
0001
,
1000
0000
0100
0000
0110
0000
0010
0000
0001
0000
1000
0010
0000
0010
0100
0000
,
0001
0000
0000
0001
0010
0000
0100
0000
0020
0000
2030
0000
3020
0000
0230
0000
,
0320
0031
0011
0000
2000
3020
0032
2003
,
3200
0000
0000
0000
0301
0000
1000
0000
1200
0000
0000
0000
0310
0000
0001
1000
,
0001
0000
0101
0000
1000
0000
1010
0000
0001
0010
0001
1000
0100
1000
0001
0100
,
0010
0000
0000
0010
1000
0000
0100
0000
0001
0000
0100
0000
0010
0000
0000
0010
,
0001
0000
0100
0000
1000
0000
0001
0000
0021
0000
0000
0100
0000
0000
1030
0000
,
0001
0010
0001
0100
0010
1000
0100
1000
,
1001
0000
0000
0101
0000
0000
1001
0000
0000
1100
0000
0000
0011
0000
0000
1010
,
0000
0000
0101
0000
0000
1100
0000
0000
2000
3200
0320
0032
0023
0230
2300
3002
,
0203
0320
2030
3200
0302
0203
2300
3200
0302
0203
0320
0032
2003
3020
0230
2300
,
3002
0023
2030
3200
0320
0032
2003
0000
3001
0000
1000
0010
1000
0010
0100
0000
,
0001
1000
0100
0000
0010
0001
0010
0001
1000
0000
1010
0000
0001
0000
0101
0000
,
1000
0100
1000
0001
0010
0001
0100
0010
2000
0000
0000
0001
0000
0000
3001
0000
,
0011
0000
0000
1010
0000
0000
1000
0100
0001
0000
0100
0000
0110
0000
0000
0000
,
0000
1000
0010
1000
0001
0100
0001
0000
0021
0000
0130
0000
1200
0000
0310
0000
,
0021
0130
1200
0310
0002
0103
2000
3100
,
0110
0000
1000
0010
0100
0001
0010
0000
0001
0000
1000
0010
1000
0100
0010
0000
,
0001
0000
1000
0010
1000
0100
0010
0000
0001
0000
1000
0010
1000
0100
0010
0000
,
0002
0000
0203
0000
2300
0000
3002
0000
0000
0000
0013
0100
1000
0100
0010
0000
,
1000
0100
1000
0001
0010
0001
0100
0010
1000
0000
0100
0001
0000
0100
1000
0000
,
0000
0000
2002
0000
0000
0000
3003
0000
0001
0100
0001
0100
0001
0100
0001
0000
,
1000
0100
1000
0100
1000
0100
1000
0000
0001
0100
0001
0100
0001
0100
0001
0000
,
1000
0100
1000
0100
1000
0100
1000
0000
1001
0000
0101
0000
1010
0000
1001
0000
,
0011
0000
1100
0000
1010
0000
0101
0000
0001
1000
0100
1000
0001
0010
0001
0100
,
0000
0000
0220
0000
0000
0000
0330
0000
1000
0000
0100
0010
0100
0000
0001
0000
,
0100
0000
0010
0000
0012
0000
0000
0000
1003
0000
0010
1000
0010
0000
0100
0000
,
0001
0000
0020
0000
0000
0000
0130
0000
1000
0000
0001
0100
0001
0000
1000
0100
,
1000
0000
0010
0100
0010
0000
0001
0000
1000
0000
0100
0000
0102
0000
0000
0000
,
1003
0000
0100
1000
0100
0000
0010
0000
0001
0000
0100
0000
0010
0000
1000
0000
,
0001
1000
0001
1000
0002
0000
0000
0000
1003
0100
0010
0100
0000
1000
0100
0010
,
0100
0000
1000
0100
0010
0100
0000
0010
0001
1000
0010
0000
1000
0100
1000
0000
,
0001
0100
1000
0100
0000
0001
0100
1000
0100
0000
0010
0001
0010
1000
0000
0001
,
1000
0001
1000
0100
0010
0100
1000
0000
1100
0000
0000
0000
0101
0000
0000
0000
,
0001
0100
0010
1000
0100
1000
0010
0100
0002
0000
0000
0000
1003
0000
0200
0320
,
0032
2003
0000
3020
0230
2300
3200
0000
0310
2000
3200
0302
0203
0320
0000
0031
,
1000
0000
0000
0000
1010
0000
0000
0000
0101
0000
0000
0000
0001
0000
0001
0010
0000
0000
0100
0000
0100
1000
0000
0000
2001
0000
0000
0000
3010
0000
0200
0000
,
0000
0301
2000
0000
0000
0000
0000
0000
3001
0001
0001
0010
0010
0010
0100
0100
,
0100
2000
0000
0000
3020
0032
2003
3200
0302
0000
0023
0000
0130
2000
0001
3001
,
1001
0000
0000
0110
0000
0000
1001
0000
0000
1000
0001
1000
,
0100
0001
0100
1000
0001
1000
0100
0001
0100
1000
0001
1000
,
0100
0001
0100
2000
0000
0000
3001
0100
0010
0001
0010
0100
,
1000
0100
0010
1000
0001
0010
0001
1000
0010
1000
0100
0001
,
1000
0010
0001
0100
1000
0001
0010
1000
0001
1001
0000
0000
,
0000
0000
1000
0010
1000
0100
0010
0001
0100
0002
0000
0000
,
1003
0000
0000
1001
0000
1100
0000
0011
0000
2001
0000
0000
,
3010
0001
0010
2000
0000
0000
3100
0010
0001
0100
0000
0000
,
0201
0000
0000
1300
0000
0000
0100
0010
1000
0100
0000
0000
,
1001
0000
0000
0001
0000
0100
0000
0100
0000
1000
0000
0010
,
0000
0000
0000
0000
0010
0000
0000
0000
0000
0000
0000
0000
0001
0000
0000
0000
0000
0000
0000
0000
1000
0000
0000
0000
0000
0000
0000
0000
1001
0000
0000
0000
0000
0000
0000
0000
0001
0000
0000
0100
0000
0000
0010
0000
0000
0000
0000
0000
,
1000
0100
1000
0001
0000
0100
0001
0000
0010
0100
0001
0100
0000
0100
0010
0001
,
2000
3010
0002
0013
2010
0000
3001
0010
,
1001
0000
0001
0010
0001
0100
0010
0000
1001
0000
0001
0010
0001
0100
0010
1000
,
0001
0000
0011
0000
0110
0000
1100
0000
1001
0000
0001
0100
0010
0000
1000
0000
,
0100
0010
1000
0010
0000
0010
0100
1000
0001
0100
1000
0100
0000
0100
0001
1000
,
0100
0010
1000
0001
0000
0001
0100
0010
0001
0000
1001
0000
1000
0000
0001
0000
,
0010
0000
0000
0000
0000
0000
0000
0000
0000
0001
0000
0000
0000
0000
0000
1000
0000
0000
0000
0000
0000
0010
0000
0000
0200
0000
0000
0000
0000
0000
0000
0000
0000
0000
0000
0000
0301
0000
0000
0000
1000
0000
0000
0000
0100
0000
0000
0000
,
1000
0010
0100
0101
0001
1000
0100
0010
0100
1000
0001
0100
,
0001
0010
0100
1100
1000
0010
0100
1000
0001
0010
1000
0100
,
0010
0010
0010
0001
0100
0010
0010
0010
1000
0001
0000
0011
,
0000
0000
0000
0000
0110
0000
0000
0000
0000
0000
0000
0000
1100
0000
0000
0000
0000
0000
0000
0000
0000
0000
0000
0000
0001
0000
0000
0100
0000
0000
0010
0000
0000
0100
0000
0000
1000
0000
0000
0000
0000
0000
0000
0000
0000
0000
0000
0000
,
0001
0000
0000
0000
0010
0000
0000
0000
1000
0000
0000
0000
0011
0000
0000
1100
,
0000
0000
0101
0000
0000
1010
0000
0000
0011
0000
0000
1100
0000
0000
0000
0000
,
0220
0000
0000
0000
,
0000
0000
0000
0330
,
0001
0100
1000
0100
0000
0000
0000
0000
0000
0000
0000
0000
0000
0000
0000
0000
;

//--------------- dance-double - KAYSTAR ----------------
#NOTES:
     dance-double:
     KAYSTAR:
     Easy:
     9:
     0,0,0,0,0:
00000000
00000000
00000000
00000000
,
00000000
00000000
00000000
00000000
,
10000000
01000000
00100000
00000000
,
00010000
00100000
00001000
00000000
,
00022000
00000000
00000000
00033000
,
00010000
00000100
00001000
00001000
,
00000001
00000100
00000010
00001000
,
00020000
00000000
02030000
00000000
,
03001000
00001000
00010000
00010000
,
00001000
01000000
00010000
00010000
,
10000000
01000000
00100000
00010000
,
00002000
00000000
00003200
00000000
,
00010300
00010000
00001000
00001000
,
00010000
00000000
00001000
00000000
00010000
00001000
00010000
00000000
,
01000000
00100000
00002000
00000000
,
00013000
00000000
00100000
01000000
00100000
00000000
10000000
00000000
,
10010000
00000000
00000000
00101000
00000000
00000000
00010100
00000000
,
00000000
00001001
00000000
00000000
00000220
00000000
00000000
00000000
,
00000330
00000000
00000001
00000001
00001000
00001000
00000010
00010000
,
00001000
01000000
00010000
00000000
20000000
00000000
00000000
00000000
,
31000000
00000000
00100000
00000000
00001000
00010000
00001000
00010000
,
00000100
00001000
00000002
00000000
,
00001003
00000000
00000000
00000000
00000001
00000100
00000010
00000000
,
00000000
00020000
00031000
00010000
,
01000000
00010000
00001000
00010000
,
00100000
00000000
10000000
00000000
00010000
10000000
00010000
00000000
,
00100000
00000000
00001000
00000000
00010000
00001000
00010000
00000000
,
00000100
00001000
00000002
00000000
,
00000103
00000000
00000010
00000000
00000100
00000000
00000000
00000000
00001000
00000000
00000000
00001000
00000000
00000000
00001000
00000000
,
00000000
00011000
00000000
00000000
00020000
00000000
00000000
00000000
,
00230000
00000000
20300000
00000000
,
32000000
00000000
03100000
00100000
,
00001000
00010000
00000100
00000100
,
00000000
00000110
00000000
00000000
00000002
00000000
00000000
00000000
,
00000103
00002000
00000000
00013000
,
00000000
00001000
01000000
00010000
,
20000000
00000000
31000000
00020000
,
00000000
00031000
00000000
00010000
,
00000100
00000000
00001000
00000000
00000001
00000000
00000000
00000001
,
00000000
00000001
00000100
00001000
,
00010000
00000000
00000000
00010000
00000000
00000000
00010000
00000000
,
01000000
00100000
00001000
00010000
,
00022000
00000000
00033000
00000000
00002000
00000000
00003000
02000000
,
00000000
03000000
00020000
00000000
00030000
00000000
00000000
00000000
,
20000000
00000000
30000000
02000000
00000000
03000000
00200000
00000000
,
00300000
00000000
00000000
00000000
00001000
00001000
00010000
00000100
,
00000100
00001000
00000001
00000100
00001000
00020000
00000000
00031000
,
00022000
00000000
00033000
00001000
,
01000000
00010000
00100000
00001000
,
00010000
00000000
00000000
00200000
00000000
00000000
00000000
00000000
00000000
01300000
00000000
00010000
,
10000000
00000000
00000000
01000000
00000000
00100000
00010000
00000000
00000000
10000000
00000000
00000000
,
00100000
00010000
00001000
00200000
,
00000000
00310000
00001000
00000200
,
00000000
00010300
00001000
00000100
,
00000010
00000000
00001000
00000001
00000000
00000000
00000010
00000000
00000100
00001000
00000000
00000000
,
00000101
00001010
00010000
00001000
,
00011000
00020000
00000000
00230000
,
00000000
00000000
20300000
00000000
00000000
00000000
30010000
00100000
,
00001000
00000000
00010000
00000000
00100000
00000000
10000000
00010000
,
10000000
01000000
01000000
00100000
,
00011000
00000000
00000100
00000000
00011000
00000000
00010000
00001000
,
00000100
00000000
00000010
00000000
00000010
00000000
00001000
00000100
,
00000010
00000000
00000001
00000100
00000001
00000000
00001000
00000010
,
00001000
00000000
00000100
00000010
00000001
00000000
00000100
00000000
,
00001000
00000000
00000000
00020000
00000000
00000000
00000000
00000000
00000000
00031000
00000000
00010000
,
00001000
00000000
00000000
00100000
00000000
00010000
00100000
00000000
00000000
00001000
00000000
00010000
,
00001000
00000000
00000000
01000000
00000000
00010000
01000000
00000000
00000000
00200000
00000000
00000000
,
00320000
00032000
00023000
01030000
,
01100000
20020000
30030000
10000000
,
00100000
00000000
00000000
00000000
01000000
00000000
00000000
00000000
00010000
00000000
00000000
00000000
00100000
00000000
00000000
00100000
,
00000000
00000000
00001000
00000000
00000000
00010000
00000000
00000000
00000100
00000000
00000000
00000100
00000000
00000000
00000000
00000000
,
00000220
00000000
00000000
00000000
,
00000000
00000000
00000000
00000000
,
00000000
00000330
00000000
00000000
;

//--------------- dance-double - KAYSTAR ----------------
#NOTES:
     dance-double:
     KAYSTAR:
     Medium:
     12:
     0,0,0,0,0:
00000000
00000000
00000000
00000000
,
00000000
00000000
00000000
00000000
,
00001000
00010000
00100000
00010000
00001000
00100000
00020000
00000000
,
00031000
00000100
00010000
00001000
00000100
00001000
00020000
00000000
,
00031000
00000000
00000000
00001000
00000000
00000000
00010000
00000000
00000000
00010000
00000000
00000000
00011000
00000000
00000000
00000000
,
00001000
00000000
00010000
00000100
00001000
00000000
00000001
00000100
,
00000010
00000100
00001000
00000000
00010000
00000100
00001000
00000100
,
00000020
00000000
00000000
00001000
00000000
00000000
00000031
00000000
,
00000100
00000001
00000100
00000000
00000010
00001000
00000010
00000000
,
00010000
00000000
00001000
01000000
00010000
00000000
10000000
01000000
,
00100000
01000000
00010000
00000000
00001000
01000000
00010000
01000000
,
00200000
00000000
00000000
00010000
00000000
00000000
10300000
00000000
,
00010000
00100000
00001000
00010000
00001000
00010000
00000100
00000000
,
00001000
00000000
00000000
00001000
00000000
00000000
00001000
00000000
00000001
00000000
00000100
00000000
00001000
00000000
00000000
00001000
,
00000000
00000000
00001000
00000000
00010000
00000000
00100000
00000000
10000000
00000000
00000000
10000000
00000000
00000000
10000000
00000000
,
00010000
00100000
00010000
01000000
00100000
10000000
00010000
00000000
,
00110000
00000000
00000000
00110000
00000000
00000000
00101000
00000000
00000000
00101000
00000000
00000000
00010100
00000000
00000000
00010100
,
00000000
00000000
00001100
00000000
00000000
00001100
00000000
00000000
00001002
00000000
00000000
00000000
00000203
00000000
00000000
00000000
,
00002300
00000000
00023000
00001000
00001000
00032000
00203000
00320000
,
02030000
03200000
20300000
00000000
30010000
00000000
10010000
00000000
,
10000000
01000000
00100000
00000000
00001000
00001000
00010000
00010000
,
00000100
00000010
00000001
00000000
00000201
00000000
00001300
00000000
,
00001200
00000000
00000301
00000000
00001000
00000100
00020000
00000000
,
00000000
00000000
00031000
00000000
00010000
00100000
01000000
00000000
,
00010000
00100000
01000000
00000000
10000000
00100000
01000000
00010000
,
00200000
00000000
00301000
00000000
00010000
00001000
00000100
00000000
,
00010000
00001000
00000010
00000000
00010000
00001000
00000100
00000000
,
00000010
00001000
00000001
00000020
00000000
00000130
00001000
00000001
,
00000100
00000000
00000010
00000000
00001000
00000000
00000010
00000000
00010000
00000000
00000000
00011000
00000000
00000000
01001000
00000000
,
00000000
20020000
00000000
30030000
10000000
01000000
10000000
01000000
,
00100000
01000000
00010000
00000000
00001000
00000100
00000010
00000100
,
00000001
00000100
00000001
00000000
00000010
00000100
00001000
00000000
,
00000010
00000100
00001000
00000000
00010000
00001000
00010000
00001000
,
00000000
00022000
00000000
00033000
01000000
00000000
00010000
00000000
,
10000000
00000000
12000000
00000000
00000000
00000000
03100000
00001000
,
00010000
00001000
00000000
00000100
00001000
00010000
00000000
00000000
,
00000100
00001000
00000001
00000201
,
00000000
00000000
00001300
00010000
00001000
00010000
00000000
01000000
,
00100000
00000000
00001000
00000000
00000000
00000000
00000000
00000000
00010000
00000000
00000000
00010000
00000000
00000000
00001000
00000000
,
00000000
00001000
00000000
00000000
01000000
00000000
00010000
00000000
10000000
00000000
01000000
00000000
00100000
00000000
00000000
00000000
,
00001000
00000000
00000000
00001000
00000000
00000000
00010000
00000000
00000000
00010000
00000000
00000000
00000100
00000000
00001000
00000000
,
00000001
00000100
00000010
00000000
00001010
00000000
00011000
00000000
,
01010000
00000000
00000000
00000000
01000000
00000000
00010000
00000000
20000000
00000000
00000000
01000000
00000000
00000000
30020000
00000000
,
00000000
00100000
00000000
00000000
10030000
00000000
00100000
00000000
01000000
00000000
00010000
00000000
00100000
00000000
00001000
00000000
,
00020000
00000000
00000000
00100000
00000000
00000000
00032000
00000000
00000000
00000100
00000000
00000000
00023000
00000000
00000000
00030200
,
00000000
00000320
00000000
00000000
00000031
00000001
00000100
00001000
,
00001000
00010000
10000000
01000000
00010000
20000000
00000000
30010000
,
10010000
00000000
00000000
01100000
00000000
00000000
10010000
00000000
00000000
10000000
00000000
10000000
,
01000000
00000000
01000000
00100000
00000000
00100000
00001000
00000000
00001000
00010000
00000000
00010000
,
00000100
00000000
00000100
00000020
00000000
00000000
00000031
00000000
00000000
00000100
00000000
00001000
,
00010000
00000000
00000000
00000100
00000000
00010000
00001000
00000000
00000000
00000100
00000000
00000001
,
00000010
00000000
00000100
00001000
00000000
00000010
00000100
00000000
00001000
00020000
00000000
00000000
,
00031000
00100000
01000000
20000000
,
30010000
00000000
00000000
01000000
00000000
00100000
00000000
10000000
00000000
11000000
00000000
00000000
,
01100000
00000000
00000000
00110000
00000000
00000000
00011000
00000000
00000000
00001000
00000000
00010000
,
00100000
00000000
00000000
20000000
00000000
00000000
30010000
00000000
00000000
10000000
00000000
01000000
,
00010000
00000000
00000000
00002000
00000000
00010000
00000000
00010000
00000000
00013000
00000000
00000100
,
00000000
00000000
00001000
00000000
00000000
00000000
00002002
00000000
00000000
00000000
00000000
00000000
00003003
00000000
00000000
00000000
00000000
00000000
00000001
00000000
00000000
00000100
00000000
00000000
,
00000010
00001000
00000100
00010000
00001000
00000100
00001000
00010000
,
01000000
00100000
00001000
00010000
00200000
00000000
10300000
00000000
,
11000000
00000000
00110000
00000000
01010000
00000000
10100000
00100000
,
01000000
00001000
00010000
01000000
00200000
00000000
00310000
10000000
,
00100000
00000000
00000000
01100000
00000000
01000000
00000000
00000000
00001000
00000000
00000000
00011000
00000000
00010000
00000000
00000000
,
00000100
00000000
00000000
00000110
00000000
00000010
00000000
00000000
00000001
00000000
00000000
00000000
00001002
00000000
00000000
00000000
,
00000203
00000000
00000000
00002300
00000000
00000000
00023000
00000000
00000000
00031000
00000000
00001000
,
01000000
00000000
01000000
00100000
00000000
00100000
10000000
00000000
10000000
01000000
00000000
01000000
,
00100000
00000000
00100000
00002000
00000000
00000000
00013000
00000000
00000000
00001000
00010000
00000100
,
00001000
00000000
00000000
00000100
00001000
00000100
00000010
00000000
00000000
00000101
00000000
00000100
,
00000000
00000000
00001000
00000000
00000000
00000000
00011000
00000000
00000000
00000000
00000000
00000000
00001000
00000000
00000000
01000000
00000000
00000000
00010000
00000000
00000000
00000000
00000000
00000000
,
00010000
00000000
00000000
00000000
10000000
00000000
00000000
00000000
10000000
00000000
00000000
00000000
11000000
00000000
00000000
11000000
,
00000000
00000000
00110000
00000000
00000000
00110000
00000000
00000000
00001100
00000000
00000000
00001100
00000000
00000000
00000000
00000000
,
00000022
00000000
00000000
00000000
,
00000000
00000000
00000000
00000033
,
00000001
00000100
00001000
00000000
00000000
00000000
00000000
00000000
;

//--------------- dance-double - KAYSTAR ----------------
#NOTES:
     dance-double:
     KAYSTAR:
     Hard:
     15:
     0,0,0,0,0:
00000000
00000000
00000000
00000000
,
00000000
00000000
00000000
00000000
,
00021000
00000000
00100000
00000000
00000000
00000010
00000000
00000000
00000100
00000000
00000000
01000000
00000000
00000000
00001000
00000000
,
00032000
00000000
00000000
00000010
00000000
00000000
00100000
00000000
00000000
01000000
00000000
00000000
00000100
00000000
00000000
00000000
,
00013000
00000000
00000000
00011000
00000000
00000000
01001000
00000000
00000000
01010000
00000000
00000000
10010000
00000000
00000000
00000000
,
20000000
00000000
30010000
00100000
00001000
00010000
00001000
01000000
,
00010000
10000000
20000000
00000000
30010000
00100000
00001000
00010000
,
00200000
00000000
00000000
00000000
01300000
00000000
00001000
00000000
00011000
00000000
00000000
00000000
00010000
00000000
00001000
00010000
,
00001000
00000000
00000000
00000000
00011000
00000000
00000000
00000000
00010000
00000000
00000100
00001000
00000000
00000100
00000010
00000000
,
00000002
00000000
00001003
00000010
00010000
00001000
00010000
00000100
,
00001000
00000001
00000002
00000000
00001003
00000010
00010000
00001000
,
00000020
00000000
00000000
00000000
00000130
00000000
00010000
00000000
00011000
00000000
00000000
00000000
00001000
00000000
00010000
00001000
,
00010000
00000000
00001000
00000000
00010000
00000000
00001000
00000000
01000000
00010000
01000000
00000000
00100000
10000000
00100000
00000000
,
10000000
00000000
00000000
10000000
00000000
00000000
00010000
00000000
00100000
00000000
00001000
00000000
00010000
00000000
00000000
00010000
,
00000000
00000000
00000100
00000000
00010000
00000000
00001000
00000000
00000100
00000000
00000000
00000100
00000000
00000000
00000001
00000000
,
00000010
00000100
00001000
00000010
00000100
00001000
00010000
00000000
,
00011000
00000000
00000000
00011000
00000000
00000000
01001000
00000000
00000000
01001000
00000000
00000000
01010000
00000000
00000000
01010000
,
00000000
00000000
10010000
00000000
00000000
10010000
00000000
00000000
20000000
00000000
32000000
00000000
03200000
00000000
00320000
00000000
,
00032000
00003200
00000320
00000032
00000203
00002300
00023000
00230000
,
20300000
32000000
03200000
00302000
00023000
00000000
00031000
00010000
,
00001000
00010000
00000100
00000000
00001000
00000100
00000010
00000000
00000001
00000000
00000001
00000000
00001000
00000000
00001000
00000000
,
00000010
00010000
00000010
00010000
00001000
01000000
00001000
01000000
00020000
00000000
00000000
00000000
00030000
00000000
00000000
00000000
,
01010000
00000000
00000000
10100000
00000000
00000000
10000000
01000000
00100000
00000000
00001000
00000000
00022000
00000000
00000000
00000000
,
00033000
00000000
00000000
00000000
00010000
00001000
00010000
00001000
00010000
00000000
00000100
00000000
00000001
00000000
00000100
00000000
,
00010000
00000100
00000001
00000100
00010000
00001000
00000100
00000001
,
00002000
00000000
00000000
00000000
00003100
00000000
00000010
00000000
00000001
00000000
00000100
00000001
00000100
00000000
00001000
00000000
,
00010000
00000000
00001000
00010000
00001000
00000000
00010000
00000000
00100000
00000000
10000000
00100000
10000000
00000000
00010000
00000000
,
00100000
00001000
00010000
00200000
00000000
00301000
00010000
01000000
,
00001000
00010000
00001000
00000000
00010000
00000100
00001000
00000000
00001100
00000000
00000000
00000110
00000000
00000000
00000011
00000000
,
00000000
00002002
00000000
00003003
00000001
00000001
00000001
00000001
,
00001000
00001000
00001000
00001000
00010000
00010000
00010000
00010000
,
10000000
10000000
10000000
10000000
01000000
00100000
00010000
00010000
,
00001000
00000100
00000010
00000010
00000001
00000100
00001000
00010000
,
00000000
00022000
00000000
00033000
00001000
01000000
00010000
01000000
,
00001000
00010000
02000000
00000000
03100000
00010000
10000000
00100000
,
01000000
00010000
00000000
00100000
00001000
00010000
00000000
00001000
,
00010000
00000100
00001000
00000010
00010000
00001000
00000020
00000000
,
00000130
00001000
00000001
00000100
00001000
00010000
00000000
00001000
,
00010000
00100000
20000000
00000000
30010000
00100000
00001000
00000010
,
00010000
00100000
00002000
00000000
00013000
00000100
00001000
00000000
,
00000001
00000100
00010000
00001000
00100000
10000000
00020000
00000000
,
00130000
00000000
00001000
00000000
00010000
00001000
00010000
00000000
00011000
00000000
00000000
00000000
00011000
00000000
00000000
00000000
,
00010000
00001000
00010000
00000100
00001000
00000100
00000010
00000000
00000002
00000000
00000000
00000000
00001003
00000000
00000010
00000000
,
00010000
00000000
00001000
00000000
00010000
00001000
00010000
00000000
00100000
00000000
00010000
00001000
00010000
00000000
01000000
00000000
,
00100000
00000000
00000000
00000000
01100000
00000000
00000000
00000000
10010000
00000000
00000000
00000000
10000000
00000000
00000000
00100000
00000000
00000000
01000000
00000000
00000000
00010000
00000000
00000000
00200000
00000000
00000000
00000000
00310000
00000000
00002000
00000000
,
00000000
00003100
00020000
00000000
00000000
00000000
00000000
00000000
00031000
00000100
00001000
00000100
00000010
00000100
00000001
00000100
,
00000001
00002000
00000000
00000000
00003100
00000010
00000100
00001000
00000020
00000000
00000130
00000000
00001000
00010000
00001000
00010000
,
00021000
00000000
00000000
00001000
00000000
00000000
00031000
00000000
00000000
00011000
00000000
00010000
,
00100000
00000000
00100000
10000000
00000000
10000000
01000000
00000000
01000000
00020000
00000000
00000000
,
00031000
00000000
00000000
00022000
00000000
00000000
00033000
00000000
00010000
00001000
00000000
00000100
,
00000001
00000000
00000100
00001000
00000000
00010000
00001000
00000000
00010000
01000000
00100000
01000000
,
00010000
00000000
00001000
00010000
00000000
00010000
00100000
00000000
00100000
20000000
00000000
00000000
,
30010000
00000000
00000000
00100000
00001000
00010000
00001000
00010000
00000100
00002000
00000000
00000000
,
00003001
00000000
00000000
00000100
00000000
00001000
00000000
00010000
00000000
00011000
00000000
00000000
,
00000110
00000000
00000000
00011000
00000000
00000000
01100000
00000000
00000000
10000000
00000000
00010000
,
00100000
00000000
00001000
00000010
00000000
00000000
00000110
00000000
00000000
00000001
00000000
00000100
,
00002000
00000000
00000000
00013000
00000000
00001000
00000000
00001000
00000000
00010000
00000000
01000000
,
00000000
00000000
00100000
00000000
00000000
00000000
00002000
00000000
00000000
00000000
00000000
00000000
00000000
00000000
00000000
00000000
00000000
00000000
00013000
00000000
00000000
00001000
00000000
00000000
,
01000000
00000000
00010000
01000000
00000000
00100000
10000000
00000000
01000000
10000000
01000000
00100000
00000000
00000000
00001000
00010000
,
00001000
00010000
00100000
00010000
00002000
00000000
00013000
00000100
,
00001100
00000000
00001000
00000100
00000000
00000100
00000010
00000000
00000011
00000000
00000001
00000100
00000000
00000100
00000010
00000000
,
00001000
00010000
01000000
00100000
20000000
00000000
30010000
00100000
,
00001000
00000000
00010000
00000200
00000000
00001000
00000000
00010300
00001000
00000000
00010000
00000200
00000000
00001000
00000000
00010300
,
00001000
00000000
00010000
00000002
00000000
00001000
00000000
00010003
00001000
00000000
00000100
00000000
00000001
00000000
00000001
00000000
,
00001000
00000000
00000000
00001000
00000000
00000000
00000200
00000000
00000000
00000000
00000000
00000000
00000310
00000000
00000000
00000000
00000000
00000000
00000001
00000000
00000000
00000000
00000100
00000000
,
00001000
00000000
00010000
00100000
00000000
10000000
01000000
00000000
00010000
00001000
00000000
00000010
,
00000001
00000000
00000100
00002000
00000000
00000000
00013000
00000000
00001000
00100000
00010000
00100000
,
00001000
00000000
00010000
00000010
00001000
00000010
00010000
00000000
00001000
00100000
00000000
01000000
,
00000000
00010000
00000000
00012000
00000000
00000000
00000000
00000000
00000000
00023000
00000000
00000000
,
00001000
00000000
00000000
00000000
00100000
00000000
00000000
00000000
10030000
00000000
00000000
00000000
00010000
00000000
00000000
00100000
,
00000000
00000000
10000000
00000000
00000000
01000000
00000000
00000000
00100000
00000000
00000000
00001000
00000000
00000000
00000000
00000000
,
00222000
00000000
00000000
00000000
,
00000000
00000000
00000000
00333000
,
00010000
00001000
00010000
00001000
00000000
00000000
00000000
00000000
00000000
00000000
00000000
00000000
00000000
00000000
00000000
00000000
;

//--------------- dance-double - KAYSTAR ----------------
#NOTES:
     dance-double:
     KAYSTAR:
     Challenge:
     17:
     0,0,0,0,0:
00000000
00000000
00000000
00000000
,
00000000
00000000
00000000
00000000
,
00011000
00000000
00000000
00000000
00001000
00000000
00010000
00000000
00001000
00000000
00100000
00000000
00010000
00000000
00100000
00000000
00001000
00000000
00010000
00000000
00100000
00000000
02000000
00000000
00000000
00000000
00000000
00000000
03001000
00000000
00010000
00001000
,
00010000
00001000
00010000
00000100
00001000
00000100
00010000
00001000
00000100
00000020
00000000
00000000
00020030
00000000
00000000
00000000
,
00031000
00000000
00000000
00011000
00000000
00000000
00010100
00000000
00000000
00001100
00000000
00000000
00001001
00000000
00000000
00000000
,
00000001
00000000
00000000
00000001
00000100
00000000
00000010
00000000
00002000
00000000
00003200
00000000
00020300
00000000
00032000
00000000
,
00003200
00000310
00000110
00000000
00000002
00000023
00002030
00003020
,
00000032
00000000
00000000
00000000
00000103
00000000
00001000
00000000
00020000
00000000
00000000
00000000
00031000
00000000
01000000
00010000
,
01000000
00000000
00100000
00000000
10100000
00000000
10000000
00000000
00010000
00000000
00100000
00010000
00000000
00100000
01000000
00000000
,
20000000
00000000
30100000
01000000
00020000
00230000
00320000
00032000
,
00023000
00130000
01100000
00000000
20000000
30200000
00320000
00230000
,
20300000
00000000
00000000
00000000
31000000
00000000
00100000
00000000
00002000
00000000
00000000
00000000
00013000
00000000
00000100
00001000
,
00000100
00000000
00001100
00000000
00000010
00000000
00000011
00000000
00000001
00000100
00000001
00001000
00000010
00001000
00000001
00000010
,
00000100
00000000
00000000
00000100
00001000
00000000
00000001
00000000
00000100
00000000
00001000
00000000
00010000
00000000
00000000
00010000
,
01000000
00000000
00100000
00000000
00001000
00000000
00010000
00000000
00210000
00000000
00000000
01000000
00000000
00000000
10300000
00000000
,
00010000
00100000
00001000
00010000
00001000
01000000
00010000
10000000
,
12000000
00000000
00000000
03100000
00000000
00000000
00210000
00000000
00000000
00301000
00000000
00000000
00011000
00000000
00000000
00010100
,
00000000
00000000
00001100
00000000
00000000
00001001
00000000
00000000
00000002
00000203
00000320
00002030
00003200
00020300
00032000
00203000
,
00320000
02030000
03200000
20300000
32000000
03020000
02030000
23000000
32000000
03020000
02030000
03200000
00302000
00023000
00030200
00000320
,
00000032
00002003
00003020
00002030
00023000
02030000
03020000
00000000
10030000
00000000
01000000
00100000
00010000
00100000
00010000
00000000
,
00100000
00001000
00010000
00000000
00000100
00001000
00000100
00001000
00000001
00000000
00000101
00000000
00000100
00000000
00001100
00000000
,
00001000
00010000
00001000
01000000
00010000
01000000
00100000
10000000
00020000
00000000
00000000
10000000
00000000
00000000
10030000
00000000
,
11000000
00000000
00000000
00110000
00000000
00000000
10000000
00100000
00010000
00000000
00001000
00000000
00011000
00000000
00000000
00000000
,
00000000
00010000
00001000
00010000
00000100
00001000
00000100
00000000
00001200
00000000
00010300
00000000
00021000
00000000
00030010
00000000
,
00001020
00010030
00021000
00030100
00002000
00003100
00000002
00000103
,
00000110
00000000
00000001
00001000
00000001
00001000
00000010
00000000
00010000
00000000
00001000
00010000
01000000
00010000
00001000
00000000
,
00010000
00000000
00001000
00010000
01000000
00010000
00001000
00000000
00010000
00000000
00001000
00010000
01000000
00010000
00001000
00000000
,
00020000
00000000
00230000
00000000
02300000
00000000
23000000
00000000
00000000
00000000
30010000
00100000
01000000
00100000
10000000
00000000
,
00010000
00100000
00010000
10000000
01000000
10000000
00100000
01000000
00010000
00000000
00100000
00001000
00000000
00010000
00001000
00000000
,
00000000
00000000
00022000
00000000
00000000
00000000
00033000
00000000
00010000
00000010
00010000
00000010
00010000
00000010
00010000
00000000
,
00001000
00100000
00001000
00100000
00001000
00100000
00001000
00000000
00010000
00000010
00010000
00000010
00010000
00000010
00010000
00000000
,
00001000
00100000
00001000
00100000
00001000
00100000
00001000
00000000
00011000
00000000
00011000
00000000
00010100
00000000
00010100
00000000
,
00001100
00000000
00000110
00000000
00000011
00000000
00001001
00000000
00001000
00000001
00000100
00000001
00001000
00000010
00001000
00000100
,
00000000
00000000
00000220
00000000
00000000
00000000
00000330
00000000
00000001
00000000
00000100
00000010
00000100
00000000
00001000
00000000
,
00010000
00000000
00000100
00000000
00000020
00000000
00000000
00000000
00000130
00000000
00010000
00001000
00010000
00000000
00001000
00000000
,
00000100
00000000
00000010
00000000
00010000
00000000
00001000
00000000
01000000
00000000
00010000
10000000
00010000
00000000
10000000
00010000
,
10000000
00000000
01000000
00100000
01000000
00000000
00010000
00000000
00001000
00000000
00010000
00000000
00200000
00000000
00000000
00000000
,
10300000
00000000
00010000
10000000
00010000
00000000
00100000
00000000
00001000
00000000
00010000
00000000
00001000
00000000
00000010
00000000
,
00000001
00000000
00001000
00000001
00002000
00000000
00000000
00000000
00003001
00000100
00000010
00000100
00000000
00001000
00000100
00000010
,
00000100
00000000
00000001
00000100
00000010
00000100
00000000
00000010
00000100
00001000
00010000
00000000
00001000
00010000
00001000
00000000
,
00010000
01000000
00010000
00001000
00000000
00010000
00100000
00010000
00001000
00000000
00010000
01000000
00010000
00001000
00000000
00010000
,
00001000
00010000
00001000
01000000
00010000
01000000
00100000
00000000
01100000
00000000
00000000
00000000
10010000
00000000
00000000
00000000
,
10000000
01000000
00100000
01000000
00100000
00010000
00100000
00001000
00020000
00000000
00000000
00000000
00001000
00000000
00030200
00000320
,
00000032
00002003
00000000
00000000
00003002
00000203
00002300
00000000
00013000
00000000
00002000
00023000
00230000
20300000
00000000
30010000
,
10010000
00000000
00000000
00000000
01100000
00000000
00000000
00000000
10010000
00000000
00000000
00000000
10000000
00000000
10000000
01000000
00000000
00000000
00100000
00000000
00100000
00010000
00000000
00000000
00002000
00000000
00000000
00000000
00003100
00000000
00000020
00000000
,
00000000
00000031
00002000
00000000
00000000
00000000
00000000
00000000
00003001
00000001
00000001
00000100
00000100
00000100
00001000
00001000
,
00001000
02000000
00000000
00000000
03002000
00023000
02030000
03200000
00302000
00000000
00023000
00000000
00130000
20000000
00010000
30010000
,
10010000
00000000
00000000
01100000
00000000
00000000
10010000
00000000
00000000
10000000
01000000
00010000
,
00001000
00010000
01000000
10000000
01000000
00010000
00001000
00010000
01000000
10000000
01000000
00010000
,
00001000
00010000
00100000
20000000
00000000
00000000
30010000
00100000
00010000
00001000
00000100
00001000
,
00000002
00000000
00000000
00000103
00001000
00010000
00000100
00000010
00000100
00010000
00001000
00000100
,
00000010
00000100
00001000
00010000
01000000
00100000
00001000
00010000
00100000
20000000
00000000
00000000
,
30010000
00000000
00000000
10000000
01000000
00100000
01000000
00100000
00001000
00020000
00000000
00000000
,
00031000
00000000
00000000
00011000
00000000
00010100
00000000
00001100
00000000
00002001
00000000
00000000
,
00003010
00000001
00000010
00002000
00000000
00000000
00003100
00000010
00000001
00000200
00000000
00000000
,
00010000
00000000
00000000
00002300
00000000
00000000
01003000
00010000
10000000
02000000
00000000
00000000
,
00001000
00000000
00000000
03010000
00000000
00010000
00000000
00001000
00000000
00000100
00000000
00000100
,
00000000
00000000
00000000
00000000
00000001
00000000
00000000
00000000
00000000
00000000
00000000
00000000
00000010
00000000
00000000
00000000
00000000
00000000
00000000
00000000
00000010
00000000
00000000
00000000
00000000
00000000
00000000
00000000
00000100
00000000
00000000
00000000
00000000
00000000
00000000
00000000
00010000
00000000
00000000
00001000
00000000
00000000
00010000
00000000
00000000
00000000
00000000
00000000
,
00001000
00010000
00001000
01000000
00000000
01000000
00010000
00000000
00100000
01000000
00010000
01000000
00000000
01000000
00100000
00010000
,
20000000
30100000
00020000
00130000
20100000
00000000
30010000
00100000
,
00011000
00000000
00001000
00010000
00000100
00001000
00000100
00000000
00011000
00000000
00010000
00001000
00000100
00001000
00010000
00000000
,
00011000
00000000
00010100
00000000
00001100
00000000
00000110
00000000
00001001
00000000
00000001
00001000
00000010
00000000
00010000
00000000
,
00001000
00010000
00001000
01000000
00000000
01000000
00100000
10000000
00010000
00100000
00001000
00010000
00000000
00010000
00000100
00001000
,
00000100
00000010
00001000
00000001
00000000
00000001
00000100
00000010
00000001
00000000
00001001
00000000
00001000
00000000
00000001
00000000
,
00000100
00000000
00000000
00000000
00000000
00000000
00000000
00000000
00000000
00000001
00000000
00000000
00000000
00000000
00000000
00001000
00000000
00000000
00000000
00000000
00000000
00000100
00000000
00000000
00000020
00000000
00000000
00000000
00000000
00000000
00000000
00000000
00000000
00000000
00000000
00000000
00000031
00000000
00000000
00000000
00000100
00000000
00000000
00000000
00001000
00000000
00000000
00000000
,
00010000
00000100
00000010
00000001
00000010
00000100
00010000
00001000
00000100
00000001
00000010
00000100
,
00001000
00000010
00000100
00001000
01000000
00100000
00010000
00100000
01000000
00001000
00001000
00001000
,
00010000
01000000
00100000
00010000
10000000
10000000
10000000
00100000
01000000
00010000
00000000
00110000
,
00000000
00000000
00000000
00000000
00011000
00000000
00000000
00000000
00000000
00000000
00000000
00000000
00001100
00000000
00000000
00000000
00000000
00000000
00000000
00000000
00000000
00000000
00000000
00000000
00010000
00000000
00000000
00001000
00000000
00000000
00010000
00000000
00000000
00001000
00000000
00000000
00010000
00000000
00000000
00000000
00000000
00000000
00000000
00000000
00000000
00000000
00000000
00000000
,
00000010
00000000
00000000
00000000
00000001
00000000
00000000
00000000
00001000
00000000
00000000
00000000
00011000
00000000
00000000
01001000
,
00000000
00000000
01100000
00000000
00000000
10010000
00000000
00000000
00110000
00000000
00000000
00011000
00000000
00000000
00000000
00000000
,
00002200
00000000
00000000
00000000
,
00000000
00000000
00000000
00003300
,
00000001
00000100
00001000
00000100
00000000
00000000
00000000
00000000
00000000
00000000
00000000
00000000
00000000
00000000
00000000
00000000
;
